osu file format v14

[General]
AudioFilename: audio.mp3
AudioLeadIn: 0
PreviewTime: -1
Countdown: 1
SampleSet: Normal
StackLeniency: 0.7
Mode: 0
LetterboxInBreaks: 0
WidescreenStoryboard: 0

[Editor]
DistanceSpacing: 0.86
BeatDivisor: 4
GridSize: 4
TimelineZoom: 1.1

[Metadata]
Title:Devochka s kare
TitleUnicode:Devochka s kare
Artist:Mukka
ArtistUnicode:Mukka
Creator:RangoBy
Version:1-2 jump training owo
Source:
Tags:jump training 1-2 devochka s kare mukka девочка с каре
BeatmapID:1945268
BeatmapSetID:931632

[Difficulty]
HPDrainRate:4.6
CircleSize:4.1
OverallDifficulty:8.2
ApproachRate:9.6
SliderMultiplier:1.7
SliderTickRate:1

[Events]
//Background and Video events
0,0,"1920x1080-4548117-ilya-kuvshinov-dark-hair-short-hair-open-mouth-open-shirt-white-shirt-artwork.png",0,0
//Break Periods
//Storyboard Layer 0 (Background)
//Storyboard Layer 1 (Fail)
//Storyboard Layer 2 (Pass)
//Storyboard Layer 3 (Foreground)
//Storyboard Sound Samples

[TimingPoints]
0,405.405405405405,4,1,0,100,1,0

[HitObjects]
95,124,12972,5,0,0:0:0:0:
45,315,13175,1,0,0:0:0:0:
25,172,13378,5,0,0:0:0:0:
265,304,13581,1,0,0:0:0:0:
288,130,13783,5,0,0:0:0:0:
172,317,13986,1,0,0:0:0:0:
88,89,14189,5,0,0:0:0:0:
345,245,14391,1,0,0:0:0:0:
448,40,14594,5,0,0:0:0:0:
176,187,14797,1,0,0:0:0:0:
202,29,14999,5,0,0:0:0:0:
286,308,15202,1,0,0:0:0:0:
331,85,15405,5,0,0:0:0:0:
195,331,15608,1,0,0:0:0:0:
111,72,15810,5,0,0:0:0:0:
193,277,16013,1,0,0:0:0:0:
357,33,16216,5,0,0:0:0:0:
357,362,16418,1,0,0:0:0:0:
226,206,16621,5,0,0:0:0:0:
293,356,16824,1,0,0:0:0:0:
434,54,17027,5,0,0:0:0:0:
208,306,17229,1,0,0:0:0:0:
34,95,17432,5,0,0:0:0:0:
163,216,17635,1,0,0:0:0:0:
234,21,17837,5,0,0:0:0:0:
208,368,18040,1,0,0:0:0:0:
84,25,18243,5,0,0:0:0:0:
114,366,18445,1,0,0:0:0:0:
206,97,18648,5,0,0:0:0:0:
160,289,18851,1,0,0:0:0:0:
245,159,19054,5,0,0:0:0:0:
352,366,19256,1,0,0:0:0:0:
370,18,19459,5,0,0:0:0:0:
255,371,19662,1,0,0:0:0:0:
177,74,19864,5,0,0:0:0:0:
191,280,20067,1,0,0:0:0:0:
50,74,20270,5,0,0:0:0:0:
150,232,20472,1,0,0:0:0:0:
199,14,20675,5,0,0:0:0:0:
126,365,20878,1,0,0:0:0:0:
120,160,21081,5,0,0:0:0:0:
272,348,21283,1,0,0:0:0:0:
359,137,21486,5,0,0:0:0:0:
227,302,21689,1,0,0:0:0:0:
270,32,21891,5,0,0:0:0:0:
368,364,22094,1,0,0:0:0:0:
462,24,22297,5,0,0:0:0:0:
359,284,22499,1,0,0:0:0:0:
146,31,22702,5,0,0:0:0:0:
334,218,22905,1,0,0:0:0:0:
316,27,23108,5,0,0:0:0:0:
135,366,23310,1,0,0:0:0:0:
23,71,23513,5,0,0:0:0:0:
217,302,23716,1,0,0:0:0:0:
225,25,23918,5,0,0:0:0:0:
237,364,24121,1,0,0:0:0:0:
375,22,24324,5,0,0:0:0:0:
395,369,24527,1,0,0:0:0:0:
255,120,24729,5,0,0:0:0:0:
381,261,24932,1,0,0:0:0:0:
383,113,25135,5,0,0:0:0:0:
251,251,25337,1,0,0:0:0:0:
83,72,25540,5,0,0:0:0:0:
184,355,25743,1,0,0:0:0:0:
220,35,25945,5,0,0:0:0:0:
88,340,26148,1,0,0:0:0:0:
71,86,26351,5,0,0:0:0:0:
321,295,26554,1,0,0:0:0:0:
363,36,26756,5,0,0:0:0:0:
249,244,26959,1,0,0:0:0:0:
236,31,27162,5,0,0:0:0:0:
273,367,27364,1,0,0:0:0:0:
146,27,27567,5,0,0:0:0:0:
362,358,27770,1,0,0:0:0:0:
372,26,27972,5,0,0:0:0:0:
239,297,28175,1,0,0:0:0:0:
186,120,28378,5,0,0:0:0:0:
455,316,28581,1,0,0:0:0:0:
455,40,28783,5,0,0:0:0:0:
356,321,28986,1,0,0:0:0:0:
277,33,29189,5,0,0:0:0:0:
246,311,29391,1,0,0:0:0:0:
145,24,29594,5,0,0:0:0:0:
324,268,29797,1,0,0:0:0:0:
372,25,29999,5,0,0:0:0:0:
376,369,30202,1,0,0:0:0:0:
234,93,30405,5,0,0:0:0:0:
466,300,30608,1,0,0:0:0:0:
463,84,30810,5,0,0:0:0:0:
252,346,31013,1,0,0:0:0:0:
169,78,31216,5,0,0:0:0:0:
146,365,31418,1,0,0:0:0:0:
281,129,31621,5,0,0:0:0:0:
419,333,31824,1,0,0:0:0:0:
472,51,32027,5,0,0:0:0:0:
214,77,32229,1,0,0:0:0:0:
175,362,32432,5,0,0:0:0:0:
76,117,32635,1,0,0:0:0:0:
365,283,32837,5,0,0:0:0:0:
449,46,33040,1,0,0:0:0:0:
119,157,33243,5,0,0:0:0:0:
391,196,33445,1,0,0:0:0:0:
341,23,33648,5,0,0:0:0:0:
292,362,33851,1,0,0:0:0:0:
142,47,34054,5,0,0:0:0:0:
367,281,34256,1,0,0:0:0:0:
412,113,34459,5,0,0:0:0:0:
166,353,34662,1,0,0:0:0:0:
16,129,34864,5,0,0:0:0:0:
240,283,35067,1,0,0:0:0:0:
236,18,35270,5,0,0:0:0:0:
178,371,35472,1,0,0:0:0:0:
135,88,35675,5,0,0:0:0:0:
379,360,35878,1,0,0:0:0:0:
406,75,36081,5,0,0:0:0:0:
303,324,36283,1,0,0:0:0:0:
217,36,36486,5,0,0:0:0:0:
221,364,36689,1,0,0:0:0:0:
48,94,36891,5,0,0:0:0:0:
336,263,37094,1,0,0:0:0:0:
377,33,37297,5,0,0:0:0:0:
189,361,37499,1,0,0:0:0:0:
25,137,37702,5,0,0:0:0:0:
361,282,37905,1,0,0:0:0:0:
105,113,38108,5,0,0:0:0:0:
417,31,38310,1,0,0:0:0:0:
117,273,38513,5,0,0:0:0:0:
197,24,38716,1,0,0:0:0:0:
297,359,38918,5,0,0:0:0:0:
408,69,39121,1,0,0:0:0:0:
443,328,39324,5,0,0:0:0:0:
281,195,39527,1,0,0:0:0:0:
158,359,39729,5,0,0:0:0:0:
63,58,39932,1,0,0:0:0:0:
288,283,40135,5,0,0:0:0:0:
55,262,40337,1,0,0:0:0:0:
186,24,40540,5,0,0:0:0:0:
165,365,40743,1,0,0:0:0:0:
21,149,40945,5,0,0:0:0:0:
282,273,41148,1,0,0:0:0:0:
46,225,41351,5,0,0:0:0:0:
329,116,41554,1,0,0:0:0:0:
116,173,41756,5,0,0:0:0:0:
388,190,41959,1,0,0:0:0:0:
195,259,42162,5,0,0:0:0:0:
328,49,42364,1,0,0:0:0:0:
263,311,42567,5,0,0:0:0:0:
185,48,42770,1,0,0:0:0:0:
396,353,42972,5,0,0:0:0:0:
482,93,43175,1,0,0:0:0:0:
235,322,43378,5,0,0:0:0:0:
21,78,43581,1,0,0:0:0:0:
239,261,43783,5,0,0:0:0:0:
260,27,43986,1,0,0:0:0:0:
159,362,44189,5,0,0:0:0:0:
130,26,44391,1,0,0:0:0:0:
370,340,44594,5,0,0:0:0:0:
455,58,44797,1,0,0:0:0:0:
223,191,44999,5,0,0:0:0:0:
437,214,45202,1,0,0:0:0:0:
181,73,45405,5,0,0:0:0:0:
407,155,45608,1,0,0:0:0:0:
49,266,45810,5,0,0:0:0:0:
214,24,46013,1,0,0:0:0:0:
302,366,46216,5,0,0:0:0:0:
23,113,46418,1,0,0:0:0:0:
418,227,46621,5,0,0:0:0:0:
277,25,46824,1,0,0:0:0:0:
164,366,47027,5,0,0:0:0:0:
63,33,47229,1,0,0:0:0:0:
290,354,47432,5,0,0:0:0:0:
290,9,47635,1,0,0:0:0:0:
123,288,47837,5,0,0:0:0:0:
365,129,48040,1,0,0:0:0:0:
73,78,48243,5,0,0:0:0:0:
246,355,48445,1,0,0:0:0:0:
386,49,48648,5,0,0:0:0:0:
107,321,48851,1,0,0:0:0:0:
22,39,49054,5,0,0:0:0:0:
363,332,49256,1,0,0:0:0:0:
453,24,49459,5,0,0:0:0:0:
84,323,49662,1,0,0:0:0:0:
410,70,49864,5,0,0:0:0:0:
55,93,50067,1,0,0:0:0:0:
218,344,50270,5,0,0:0:0:0:
285,30,50472,1,0,0:0:0:0:
383,361,50675,5,0,0:0:0:0:
96,182,50878,1,0,0:0:0:0:
368,48,51081,5,0,0:0:0:0:
209,308,51283,1,0,0:0:0:0:
161,44,51486,5,0,0:0:0:0:
425,348,51689,1,0,0:0:0:0:
368,48,51891,5,0,0:0:0:0:
245,331,52094,1,0,0:0:0:0:
41,98,52297,5,0,0:0:0:0:
362,177,52499,1,0,0:0:0:0:
192,11,52702,5,0,0:0:0:0:
339,374,52905,1,0,0:0:0:0:
1,155,53108,5,0,0:0:0:0:
405,11,53310,1,0,0:0:0:0:
23,364,53513,5,0,0:0:0:0:
256,8,53716,1,0,0:0:0:0:
292,377,53918,5,0,0:0:0:0:
119,35,54121,1,0,0:0:0:0:
276,313,54324,5,0,0:0:0:0:
29,273,54527,1,0,0:0:0:0:
199,25,54729,5,0,0:0:0:0:
190,377,54932,1,0,0:0:0:0:
49,158,55135,5,0,0:0:0:0:
423,235,55337,1,0,0:0:0:0:
264,372,55540,5,0,0:0:0:0:
139,48,55743,1,0,0:0:0:0:
372,301,55945,5,0,0:0:0:0:
317,33,56148,1,0,0:0:0:0:
125,318,56351,5,0,0:0:0:0:
23,72,56554,1,0,0:0:0:0:
265,315,56756,5,0,0:0:0:0:
263,22,56959,1,0,0:0:0:0:
152,368,57162,5,0,0:0:0:0:
158,18,57364,1,0,0:0:0:0:
39,371,57567,5,0,0:0:0:0:
24,28,57770,1,0,0:0:0:0:
377,334,57972,5,0,0:0:0:0:
14,118,58175,1,0,0:0:0:0:
301,26,58378,5,0,0:0:0:0:
215,373,58581,1,0,0:0:0:0:
63,56,58783,5,0,0:0:0:0:
430,256,58986,1,0,0:0:0:0:
391,28,59189,5,0,0:0:0:0:
159,357,59391,1,0,0:0:0:0:
152,28,59594,5,0,0:0:0:0:
271,368,59797,1,0,0:0:0:0:
281,21,59999,5,0,0:0:0:0:
152,369,60202,1,0,0:0:0:0:
40,38,60405,5,0,0:0:0:0:
394,303,60608,1,0,0:0:0:0:
366,33,60810,5,0,0:0:0:0:
89,315,61013,1,0,0:0:0:0:
21,122,61216,5,0,0:0:0:0:
394,303,61418,1,0,0:0:0:0:
416,29,61621,5,0,0:0:0:0:
278,364,61824,1,0,0:0:0:0:
166,24,62027,5,0,0:0:0:0:
171,377,62229,1,0,0:0:0:0:
34,37,62432,5,0,0:0:0:0:
336,331,62635,1,0,0:0:0:0:
385,29,62837,5,0,0:0:0:0:
148,343,63040,1,0,0:0:0:0:
143,48,63243,5,0,0:0:0:0:
282,329,63445,1,0,0:0:0:0:
244,0,63648,5,0,0:0:0:0:
252,384,63851,1,0,0:0:0:0:
166,1,64054,5,0,0:0:0:0:
178,383,64256,1,0,0:0:0:0:
306,4,64459,5,0,0:0:0:0:
324,380,64662,1,0,0:0:0:0:
238,72,64864,5,0,0:0:0:0:
359,312,65067,1,0,0:0:0:0:
354,41,65270,5,0,0:0:0:0:
217,301,65472,1,0,0:0:0:0:
135,65,65675,5,0,0:0:0:0:
366,240,65878,1,0,0:0:0:0:
440,38,66081,5,0,0:0:0:0:
303,353,66283,1,0,0:0:0:0:
174,14,66486,5,0,0:0:0:0:
246,372,66689,1,0,0:0:0:0:
251,16,66891,5,0,0:0:0:0:
246,372,67094,1,0,0:0:0:0:
82,97,67297,5,0,0:0:0:0:
412,344,67499,1,0,0:0:0:0:
420,28,67702,5,0,0:0:0:0:
217,370,67905,1,0,0:0:0:0:
95,17,68108,5,0,0:0:0:0:
388,297,68310,1,0,0:0:0:0:
352,75,68513,5,0,0:0:0:0:
190,318,68716,1,0,0:0:0:0:
139,97,68918,5,0,0:0:0:0:
281,344,69121,1,0,0:0:0:0:
305,49,69324,5,0,0:0:0:0:
258,271,69527,1,0,0:0:0:0:
171,40,69729,5,0,0:0:0:0:
410,283,69932,1,0,0:0:0:0:
427,31,70135,5,0,0:0:0:0:
303,305,70337,1,0,0:0:0:0:
224,46,70540,5,0,0:0:0:0:
383,304,70743,1,0,0:0:0:0:
372,38,70945,5,0,0:0:0:0:
195,284,71148,1,0,0:0:0:0:
77,31,71351,5,0,0:0:0:0:
299,317,71554,1,0,0:0:0:0:
357,32,71756,5,0,0:0:0:0:
114,153,71959,1,0,0:0:0:0:
235,345,72162,5,0,0:0:0:0:
376,104,72364,1,0,0:0:0:0:
158,298,72567,5,0,0:0:0:0:
126,28,72770,1,0,0:0:0:0:
339,350,72972,5,0,0:0:0:0:
461,127,73175,1,0,0:0:0:0:
276,266,73378,5,0,0:0:0:0:
161,49,73581,1,0,0:0:0:0:
176,293,73783,5,0,0:0:0:0:
391,37,73986,1,0,0:0:0:0:
395,300,74189,5,0,0:0:0:0:
208,93,74391,1,0,0:0:0:0:
285,340,74594,5,0,0:0:0:0:
447,121,74797,1,0,0:0:0:0:
421,322,74999,5,0,0:0:0:0:
184,132,75202,1,0,0:0:0:0:
274,340,75405,5,0,0:0:0:0:
320,35,75608,1,0,0:0:0:0:
190,281,75810,5,0,0:0:0:0:
87,42,76013,1,0,0:0:0:0:
283,303,76216,5,0,0:0:0:0:
361,33,76418,1,0,0:0:0:0:
383,295,76621,5,0,0:0:0:0:
248,43,76824,1,0,0:0:0:0:
301,367,77027,5,0,0:0:0:0:
304,17,77229,1,0,0:0:0:0:
350,371,77432,5,0,0:0:0:0:
356,21,77635,1,0,0:0:0:0:
406,325,77837,5,0,0:0:0:0:
144,82,78040,1,0,0:0:0:0:
276,374,78243,5,0,0:0:0:0:
336,26,78445,1,0,0:0:0:0:
185,298,78648,5,0,0:0:0:0:
136,20,78851,1,0,0:0:0:0:
307,313,79054,5,0,0:0:0:0:
450,55,79256,1,0,0:0:0:0:
269,233,79459,5,0,0:0:0:0:
274,32,79662,1,0,0:0:0:0:
417,351,79864,5,0,0:0:0:0:
423,17,80067,1,0,0:0:0:0:
317,357,80270,5,0,0:0:0:0:
317,15,80472,1,0,0:0:0:0:
229,382,80675,5,0,0:0:0:0:
225,1,80878,1,0,0:0:0:0:
66,380,81081,5,0,0:0:0:0:
66,19,81283,1,0,0:0:0:0:
335,373,81486,5,0,0:0:0:0:
17,95,81689,1,0,0:0:0:0:
503,220,81891,5,0,0:0:0:0:
12,228,82094,1,0,0:0:0:0:
499,138,82297,5,0,0:0:0:0:
9,148,82499,1,0,0:0:0:0:
457,313,82702,5,0,0:0:0:0:
352,31,82905,1,0,0:0:0:0:
276,355,83108,5,0,0:0:0:0:
266,19,83310,1,0,0:0:0:0:
37,317,83513,5,0,0:0:0:0:
256,86,83716,1,0,0:0:0:0:
243,304,83918,5,0,0:0:0:0:
126,13,84121,1,0,0:0:0:0:
101,369,84324,5,0,0:0:0:0:
323,85,84527,1,0,0:0:0:0:
431,369,84729,5,0,0:0:0:0:
434,24,84932,1,0,0:0:0:0:
220,338,85135,5,0,0:0:0:0:
325,98,85337,1,0,0:0:0:0:
45,93,85540,5,0,0:0:0:0:
274,297,85743,1,0,0:0:0:0:
285,39,85945,5,0,0:0:0:0:
45,328,86148,1,0,0:0:0:0:
74,38,86351,5,0,0:0:0:0:
409,286,86554,1,0,0:0:0:0:
442,31,86756,5,0,0:0:0:0:
230,348,86959,1,0,0:0:0:0:
10,70,87162,5,0,0:0:0:0:
461,343,87364,1,0,0:0:0:0:
485,66,87567,5,0,0:0:0:0:
139,318,87770,1,0,0:0:0:0:
123,42,87972,5,0,0:0:0:0:
408,356,88175,1,0,0:0:0:0:
466,45,88378,5,0,0:0:0:0:
125,359,88581,1,0,0:0:0:0:
66,118,88783,5,0,0:0:0:0:
363,336,88986,1,0,0:0:0:0:
349,65,89189,5,0,0:0:0:0:
206,353,89391,1,0,0:0:0:0:
57,17,89594,5,0,0:0:0:0:
296,252,89797,1,0,0:0:0:0:
270,25,89999,5,0,0:0:0:0:
52,348,90202,1,0,0:0:0:0:
27,119,90405,5,0,0:0:0:0:
345,297,90608,1,0,0:0:0:0:
483,34,90810,5,0,0:0:0:0:
319,63,91013,1,0,0:0:0:0:
163,318,91216,5,0,0:0:0:0:
147,69,91418,1,0,0:0:0:0:
356,320,91621,5,0,0:0:0:0:
65,200,91824,1,0,0:0:0:0:
435,211,92027,5,0,0:0:0:0:
49,351,92229,1,0,0:0:0:0:
243,29,92432,5,0,0:0:0:0:
366,358,92635,1,0,0:0:0:0:
50,77,92837,5,0,0:0:0:0:
443,254,93040,1,0,0:0:0:0:
114,374,93243,5,0,0:0:0:0:
366,46,93445,1,0,0:0:0:0:
307,363,93648,5,0,0:0:0:0:
59,55,93851,1,0,0:0:0:0:
476,269,94054,5,0,0:0:0:0:
88,317,94256,1,0,0:0:0:0:
354,260,94459,5,0,0:0:0:0:
277,24,94662,1,0,0:0:0:0:
231,373,94864,5,0,0:0:0:0:
202,19,95067,1,0,0:0:0:0:
315,367,95270,5,0,0:0:0:0:
286,18,95472,1,0,0:0:0:0:
268,310,95675,5,0,0:0:0:0:
22,95,95878,1,0,0:0:0:0:
276,238,96081,5,0,0:0:0:0:
414,29,96283,1,0,0:0:0:0:
176,117,96486,5,0,0:0:0:0:
435,248,96689,1,0,0:0:0:0:
185,358,96891,5,0,0:0:0:0:
225,45,97094,1,0,0:0:0:0:
352,356,97297,5,0,0:0:0:0:
363,54,97499,1,0,0:0:0:0:
448,308,97702,5,0,0:0:0:0:
139,117,97905,1,0,0:0:0:0:
477,78,98108,5,0,0:0:0:0:
199,352,98310,1,0,0:0:0:0:
245,37,98513,5,0,0:0:0:0:
477,355,98716,1,0,0:0:0:0:
50,176,98918,5,0,0:0:0:0:
477,57,99121,1,0,0:0:0:0:
98,337,99324,5,0,0:0:0:0:
374,18,99527,1,0,0:0:0:0:
194,360,99729,5,0,0:0:0:0:
275,25,99932,1,0,0:0:0:0:
317,361,100135,5,0,0:0:0:0:
147,44,100337,1,0,0:0:0:0:
479,345,100540,5,0,0:0:0:0:
39,153,100743,1,0,0:0:0:0:
491,157,100945,5,0,0:0:0:0:
33,326,101148,1,0,0:0:0:0:
401,24,101351,5,0,0:0:0:0:
210,316,101554,1,0,0:0:0:0:
46,34,101756,5,0,0:0:0:0:
336,254,101959,1,0,0:0:0:0:
341,37,102162,5,0,0:0:0:0:
172,342,102364,1,0,0:0:0:0:
10,154,102567,5,0,0:0:0:0:
430,348,102770,1,0,0:0:0:0:
499,111,102972,5,0,0:0:0:0:
266,238,103175,1,0,0:0:0:0:
184,26,103378,5,0,0:0:0:0:
399,366,103581,1,0,0:0:0:0:
395,36,103783,5,0,0:0:0:0:
274,254,103986,1,0,0:0:0:0:
39,55,104189,5,0,0:0:0:0:
464,357,104391,1,0,0:0:0:0:
487,84,104594,5,0,0:0:0:0:
424,219,104797,1,0,0:0:0:0:
336,29,104999,5,0,0:0:0:0:
352,366,105202,1,0,0:0:0:0:
163,123,105405,5,0,0:0:0:0:
330,291,105608,1,0,0:0:0:0:
457,26,105810,5,0,0:0:0:0:
142,351,106013,1,0,0:0:0:0:
54,61,106216,5,0,0:0:0:0:
243,264,106418,1,0,0:0:0:0:
423,49,106621,5,0,0:0:0:0:
310,370,106824,1,0,0:0:0:0:
223,149,107027,5,0,0:0:0:0:
340,304,107229,1,0,0:0:0:0:
19,200,107432,5,0,0:0:0:0:
445,18,107635,1,0,0:0:0:0:
177,253,107837,5,0,0:0:0:0:
219,98,108040,1,0,0:0:0:0:
450,344,108243,5,0,0:0:0:0:
175,22,108445,1,0,0:0:0:0:
281,363,108648,5,0,0:0:0:0:
434,21,108851,1,0,0:0:0:0:
248,305,109054,5,0,0:0:0:0:
186,20,109256,1,0,0:0:0:0:
288,366,109459,5,0,0:0:0:0:
288,21,109662,1,0,0:0:0:0:
194,368,109864,5,0,0:0:0:0:
186,20,110067,1,0,0:0:0:0:
273,315,110270,5,0,0:0:0:0:
34,109,110472,1,0,0:0:0:0:
388,46,110675,5,0,0:0:0:0:
179,316,110878,1,0,0:0:0:0:
136,24,111081,5,0,0:0:0:0:
346,320,111283,1,0,0:0:0:0:
346,26,111486,5,0,0:0:0:0:
230,373,111689,1,0,0:0:0:0:
39,102,111891,5,0,0:0:0:0:
421,302,112094,1,0,0:0:0:0:
59,342,112297,5,0,0:0:0:0:
146,23,112499,1,0,0:0:0:0:
235,371,112702,5,0,0:0:0:0:
189,38,112905,1,0,0:0:0:0:
404,280,113108,5,0,0:0:0:0:
50,124,113310,1,0,0:0:0:0:
457,64,113513,5,0,0:0:0:0:
34,257,113716,1,0,0:0:0:0:
495,155,113918,5,0,0:0:0:0:
19,149,114121,1,0,0:0:0:0:
501,235,114324,5,0,0:0:0:0:
16,240,114527,1,0,0:0:0:0:
390,32,114729,5,0,0:0:0:0:
122,368,114932,1,0,0:0:0:0:
125,25,115135,5,0,0:0:0:0:
402,364,115337,1,0,0:0:0:0:
18,155,115540,5,0,0:0:0:0:
495,159,115743,1,0,0:0:0:0:
19,227,115945,5,0,0:0:0:0:
501,228,116148,1,0,0:0:0:0:
146,22,116351,5,0,0:0:0:0:
169,373,116554,1,0,0:0:0:0:
366,26,116756,5,0,0:0:0:0:
381,371,116959,1,0,0:0:0:0:
187,94,117162,5,0,0:0:0:0:
321,282,117364,1,0,0:0:0:0:
328,92,117567,5,0,0:0:0:0:
196,297,117770,1,0,0:0:0:0:
110,27,117972,5,0,0:0:0:0:
386,369,118175,1,0,0:0:0:0:
369,32,118378,5,0,0:0:0:0:
124,373,118581,1,0,0:0:0:0:
197,109,118783,5,0,0:0:0:0:
201,255,118986,1,0,0:0:0:0:
315,113,119189,5,0,0:0:0:0:
320,238,119391,1,0,0:0:0:0:
55,178,119594,5,0,0:0:0:0:
454,179,119797,1,0,0:0:0:0:
86,344,119999,5,0,0:0:0:0:
327,26,120202,1,0,0:0:0:0:
408,341,120405,5,0,0:0:0:0:
126,30,120608,1,0,0:0:0:0:
254,352,120810,5,0,0:0:0:0:
272,29,121013,1,0,0:0:0:0:
430,273,121216,5,0,0:0:0:0:
112,158,121418,1,0,0:0:0:0:
474,124,121621,5,0,0:0:0:0:
218,360,121824,1,0,0:0:0:0:
186,37,122027,5,0,0:0:0:0:
409,344,122229,1,0,0:0:0:0:
439,22,122432,5,0,0:0:0:0:
52,366,122635,1,0,0:0:0:0:
43,29,122837,5,0,0:0:0:0:
303,371,123040,1,0,0:0:0:0:
386,23,123243,5,0,0:0:0:0:
165,366,123445,1,0,0:0:0:0:
134,39,123648,5,0,0:0:0:0:
449,344,123851,1,0,0:0:0:0:
442,141,124054,5,0,0:0:0:0:
283,293,124256,1,0,0:0:0:0:
42,82,124459,5,0,0:0:0:0:
336,212,124662,1,0,0:0:0:0:
356,40,124864,5,0,0:0:0:0:
307,357,125067,1,0,0:0:0:0:
168,82,125270,5,0,0:0:0:0:
406,317,125472,1,0,0:0:0:0:
422,73,125675,5,0,0:0:0:0:
168,356,125878,1,0,0:0:0:0:
177,63,126081,5,0,0:0:0:0:
366,342,126283,1,0,0:0:0:0:
334,49,126486,5,0,0:0:0:0:
294,368,126689,1,0,0:0:0:0:
224,158,126891,5,0,0:0:0:0:
432,349,127094,1,0,0:0:0:0:
441,19,127297,5,0,0:0:0:0:
235,379,127499,1,0,0:0:0:0:
95,28,127702,5,0,0:0:0:0:
359,298,127905,1,0,0:0:0:0:
306,26,128108,5,0,0:0:0:0:
128,343,128310,1,0,0:0:0:0:
140,93,128513,5,0,0:0:0:0:
338,276,128716,1,0,0:0:0:0:
421,37,128918,5,0,0:0:0:0:
312,358,129121,1,0,0:0:0:0:
121,84,129324,5,0,0:0:0:0:
381,200,129527,1,0,0:0:0:0:
232,24,129729,5,0,0:0:0:0:
368,338,129932,1,0,0:0:0:0:
83,166,130135,5,0,0:0:0:0:
461,94,130337,1,0,0:0:0:0:
149,339,130540,5,0,0:0:0:0:
166,35,130743,1,0,0:0:0:0:
379,355,130945,5,0,0:0:0:0:
75,198,131148,1,0,0:0:0:0:
354,31,131351,5,0,0:0:0:0:
205,348,131554,1,0,0:0:0:0:
126,49,131756,5,0,0:0:0:0:
488,297,131959,1,0,0:0:0:0:
106,353,132162,5,0,0:0:0:0:
375,31,132364,1,0,0:0:0:0:
341,369,132567,5,0,0:0:0:0:
21,66,132770,1,0,0:0:0:0:
486,240,132972,5,0,0:0:0:0:
106,331,133175,1,0,0:0:0:0:
267,26,133378,5,0,0:0:0:0:
451,322,133581,1,0,0:0:0:0:
117,197,133783,5,0,0:0:0:0:
477,135,133986,1,0,0:0:0:0:
148,351,134189,5,0,0:0:0:0:
192,42,134391,1,0,0:0:0:0:
385,372,134594,5,0,0:0:0:0:
317,26,134797,1,0,0:0:0:0:
474,311,134999,5,0,0:0:0:0:
38,163,135202,1,0,0:0:0:0:
403,31,135405,5,0,0:0:0:0:
206,355,135608,1,0,0:0:0:0:
115,30,135810,5,0,0:0:0:0:
359,308,136013,1,0,0:0:0:0:
319,24,136216,5,0,0:0:0:0:
350,250,136418,1,0,0:0:0:0:
23,113,136621,5,0,0:0:0:0:
201,23,136824,1,0,0:0:0:0:
155,348,137027,5,0,0:0:0:0:
72,93,137229,1,0,0:0:0:0:
405,269,137432,5,0,0:0:0:0:
173,288,137635,1,0,0:0:0:0:
227,31,137837,5,0,0:0:0:0:
281,367,138040,1,0,0:0:0:0:
25,242,138243,5,0,0:0:0:0:
358,251,138445,1,0,0:0:0:0:
135,370,138648,5,0,0:0:0:0:
89,37,138851,1,0,0:0:0:0:
347,354,139054,5,0,0:0:0:0:
66,246,139256,1,0,0:0:0:0:
442,89,139459,5,0,0:0:0:0:
199,357,139662,1,0,0:0:0:0:
99,56,139864,5,0,0:0:0:0:
428,326,140067,1,0,0:0:0:0:
78,280,140270,5,0,0:0:0:0:
407,54,140472,1,0,0:0:0:0:
370,355,140675,5,0,0:0:0:0:
243,29,140878,1,0,0:0:0:0:
241,365,141081,5,0,0:0:0:0:
348,32,141283,1,0,0:0:0:0:
21,135,141486,5,0,0:0:0:0:
459,332,141689,1,0,0:0:0:0:
243,29,141891,5,0,0:0:0:0:
279,382,142094,1,0,0:0:0:0:
86,99,142297,5,0,0:0:0:0:
478,223,142499,1,0,0:0:0:0:
152,331,142702,5,0,0:0:0:0:
326,32,142905,1,0,0:0:0:0:
372,360,143108,5,0,0:0:0:0:
141,122,143310,1,0,0:0:0:0:
508,212,143513,5,0,0:0:0:0:
222,345,143716,1,0,0:0:0:0:
232,48,143918,5,0,0:0:0:0:
459,364,144121,1,0,0:0:0:0:
74,249,144324,5,0,0:0:0:0:
452,262,144527,1,0,0:0:0:0:
126,348,144729,5,0,0:0:0:0:
165,30,144932,1,0,0:0:0:0:
357,330,145135,5,0,0:0:0:0:
67,154,145337,1,0,0:0:0:0:
456,119,145540,5,0,0:0:0:0:
170,340,145743,1,0,0:0:0:0:
290,29,145945,5,0,0:0:0:0:
466,333,146148,1,0,0:0:0:0:
155,155,146351,5,0,0:0:0:0:
119,366,146554,1,0,0:0:0:0:
167,32,146756,5,0,0:0:0:0:
392,319,146959,1,0,0:0:0:0:
131,210,147162,5,0,0:0:0:0:
312,346,147364,1,0,0:0:0:0:
394,96,147567,5,0,0:0:0:0:
281,280,147770,1,0,0:0:0:0:
45,78,147972,5,0,0:0:0:0:
330,230,148175,1,0,0:0:0:0:
385,50,148378,5,0,0:0:0:0:
153,299,148581,1,0,0:0:0:0:
64,84,148783,5,0,0:0:0:0:
443,107,148986,1,0,0:0:0:0:
185,279,149189,5,0,0:0:0:0:
473,260,149391,1,0,0:0:0:0:
190,93,149594,5,0,0:0:0:0:
450,180,149797,1,0,0:0:0:0:
99,333,149999,5,0,0:0:0:0:
387,97,150202,1,0,0:0:0:0:
17,81,150405,5,0,0:0:0:0:
260,354,150608,1,0,0:0:0:0:
250,19,150810,5,0,0:0:0:0:
175,366,151013,1,0,0:0:0:0:
331,24,151216,5,0,0:0:0:0:
403,355,151418,1,0,0:0:0:0:
146,77,151621,5,0,0:0:0:0:
446,288,151824,1,0,0:0:0:0:
45,170,152027,5,0,0:0:0:0:
448,49,152229,1,0,0:0:0:0:
118,352,152432,5,0,0:0:0:0:
133,28,152635,1,0,0:0:0:0:
312,349,152837,5,0,0:0:0:0:
206,61,153040,1,0,0:0:0:0:
425,277,153243,5,0,0:0:0:0:
78,197,153445,1,0,0:0:0:0:
490,74,153648,5,0,0:0:0:0:
264,360,153851,1,0,0:0:0:0:
236,35,154054,5,0,0:0:0:0:
435,365,154256,1,0,0:0:0:0:
