osu file format v14

[General]
AudioFilename: audio.ogg
AudioLeadIn: 0
PreviewTime: 98473
Countdown: 0
SampleSet: Soft
StackLeniency: 0.1
Mode: 0
LetterboxInBreaks: 0
WidescreenStoryboard: 1

[Editor]
Bookmarks: 23381,38538,43591,56222,63801,92854,93485,119381,127275,139591,159801,180012
DistanceSpacing: 1.1
BeatDivisor: 4
GridSize: 8
TimelineZoom: 3

[Metadata]
Title:Ai Qing Mai Mai
TitleUnicode:爱情买卖
Artist:Mu Rong Xiao Xiao
ArtistUnicode:慕容晓晓
Creator:Firika
Version:Lobelia's Insane
Source:
Tags:Chinese pop rap Gust SuperDalouBot Lobelia love trade aiqingmaimai 何欣 he xin murong xiaoxiao
BeatmapID:3411754
BeatmapSetID:1655701

[Difficulty]
HPDrainRate:5.5
CircleSize:5
OverallDifficulty:8
ApproachRate:8
SliderMultiplier:2
SliderTickRate:1

[Events]
//Background and Video events
0,0,"111.jpg",0,0
//Break Periods
2,84187,95868
//Storyboard Layer 0 (Background)
//Storyboard Layer 1 (Fail)
//Storyboard Layer 2 (Pass)
//Storyboard Layer 3 (Foreground)
//Storyboard Layer 4 (Overlay)
//Storyboard Sound Samples

[TimingPoints]
619,631.578947368421,4,2,2,20,1,0
619,-100,4,2,2,20,0,0
1250,-100,4,2,2,25,0,0
1566,-100,4,2,2,30,0,0
1882,-100,4,2,2,35,0,0
2197,-100,4,2,2,40,0,0
2513,-100,4,2,2,45,0,0
2829,-100,4,2,2,50,0,0
3145,631.578947368421,4,2,2,60,1,0
3145,-100,4,2,2,60,0,0
13250,-100,4,2,2,70,0,0
23355,-100,4,2,2,50,0,0
33460,-100,4,2,2,60,0,0
43566,-83.3333333333333,4,2,2,70,0,0
45460,-66.6666666666667,4,2,2,70,0,0
46092,-83.3333333333333,4,2,2,70,0,0
50513,-66.6666666666667,4,2,2,70,0,0
51145,-83.3333333333333,4,2,2,70,0,0
55566,-66.6666666666667,4,2,2,70,0,0
56197,-55.5555555555556,4,2,2,75,0,0
61250,-83.3333333333333,4,2,2,70,0,0
63776,-100,4,2,2,60,0,0
67566,-83.3333333333333,4,2,2,60,0,0
68829,-100,4,2,2,60,0,0
73250,-47.6190476190476,4,2,2,60,0,0
73881,-100,4,2,2,60,0,0
83987,-100,4,2,2,40,0,0
97881,-100,4,2,2,45,0,0
98197,-100,4,2,2,50,0,0
98513,-100,4,2,2,55,0,0
98829,-100,4,2,2,60,0,0
99145,-100,4,2,2,70,0,0
119355,-100,4,2,2,50,0,0
129460,-100,4,2,2,60,0,0
139566,-83.3333333333333,4,2,2,70,0,0
141460,-66.6666666666667,4,2,2,70,0,0
142092,-83.3333333333333,4,2,2,70,0,0
146513,-66.6666666666667,4,2,2,70,0,0
147145,-83.3333333333333,4,2,2,70,0,0
151566,-66.6666666666667,4,2,2,70,0,0
152197,-55.5555555555556,4,2,2,75,0,0
157250,-83.3333333333333,4,2,2,70,0,0
159776,-83.3333333333333,4,2,2,80,0,0
161671,-66.6666666666667,4,2,2,80,0,0
162302,-83.3333333333333,4,2,2,80,0,0
164197,-66.6666666666667,4,2,2,80,0,0
164829,-83.3333333333333,4,2,2,80,0,0
171776,-66.6666666666667,4,2,2,80,0,0
172408,-55.5555555555556,4,2,2,85,0,0
177302,-83.3333333333333,4,2,2,85,0,0
177460,-83.3333333333333,4,2,2,80,0,0
178723,-83.3333333333333,4,2,2,85,0,0
179987,-83.3333333333333,4,2,2,90,0,0
181881,-66.6666666666667,4,2,2,90,0,0
182513,-83.3333333333333,4,2,2,90,0,0
183145,-66.6666666666667,4,2,2,90,0,0
183776,-55.5555555555556,4,2,2,90,0,0
185039,-83.3333333333333,4,2,2,90,0,0
188513,-66.6666666666667,4,2,2,90,0,0
188829,-55.5555555555556,4,2,2,90,0,0
190092,-83.3333333333333,4,2,2,90,0,0
191987,-66.6666666666667,4,2,2,90,0,0
192618,-55.5555555555556,4,2,2,95,0,0
195145,-100,4,2,2,95,0,0
197671,-66.6666666666667,4,2,2,90,0,0
198934,-66.6666666666667,4,2,2,95,0,0
200197,-66.6666666666667,4,2,2,100,0,0
200513,-66.6666666666667,4,2,2,40,0,0

[Colours]
Combo1 : 0,128,0
Combo2 : 193,255,193
Combo3 : 17,255,77

[HitObjects]
440,186,3145,6,0,P|394:191|353:146,1,100,6|2,1:2|3:2,0:0:0:0:
326,89,3618,1,2,0:0:0:0:
424,72,3776,2,0,L|416:138,1,50,10|2,0:0|0:0,0:0:0:0:
281,148,4092,6,0,L|297:260,1,100,0|0,3:0|0:0,0:0:0:0:
263,142,4566,2,0,L|269:191,1,50,0|2,3:0|1:2,0:0:0:0:
311,319,5039,2,0,L|363:311,2,50,10|2|2,0:0|0:0|0:3,0:0:0:0:
117,338,5671,6,0,P|122:287|84:242,1,100,2|2,1:2|3:2,0:0:0:0:
26,219,6145,1,2,0:0:0:0:
7,289,6302,2,0,P|21:301|55:310,1,50,10|2,0:0|0:0,0:0:0:0:
188,230,6618,2,0,P|149:251|91:247,1,100,0|0,3:0|1:0,0:0:0:0:
203,237,7092,2,0,P|179:254|148:259,1,50,0|0,3:0|1:0,0:0:0:0:
129,177,7408,5,2,0:0:0:0:
64,142,7566,2,0,L|61:88,2,50,10|2|8,0:0|0:0|0:3,0:0:0:0:
195,81,8197,6,0,P|232:116|297:103,1,100,2|2,1:2|3:2,0:0:0:0:
328,64,8671,1,2,0:0:0:0:
251,0,8829,2,0,L|258:62,1,50,10|2,0:0|0:0,0:0:0:0:
367,131,9145,2,0,P|343:183|352:238,1,100,0|0,3:0|0:0,0:0:0:0:
353,138,9618,2,0,P|338:160|335:192,1,50,0|0,3:0|1:0,0:0:0:0:
423,192,9934,5,2,0:0:0:0:
445,117,10092,2,0,L|433:58,2,50,10|2|2,0:0|0:0|0:3,0:0:0:0:
512,281,10723,6,0,L|396:266,1,100,2|2,1:2|3:2,0:0:0:0:
344,307,11197,1,2,0:0:0:0:
403,357,11355,2,0,P|429:353|457:341,2,50,10|2|0,0:0|0:0|3:0,0:0:0:0:
339,321,11829,1,0,0:0:0:0:
250,274,11987,6,0,P|261:319|271:391,3,100,0|2|10|8,1:0|1:2|0:0|0:3,0:0:0:0:
174,274,13250,6,0,P|161:299|140:320,1,50,6|2,1:2|0:0,0:0:0:0:
231,227,13566,2,0,P|242:249|249:273,1,50,2|2,3:2|0:0,0:0:0:0:
102,259,13881,2,0,P|82:266|42:270,2,50,8|0|2,0:0|0:0|3:2,0:0:0:0:
102,259,14355,1,0,1:0:0:0:
54,191,14513,2,0,P|27:186|60:184,1,100,2|0,0:0|1:0,0:0:0:0:
231,227,15145,5,8,0:0:0:0:
174,274,15302,1,0,0:0:0:0:
102,259,15460,1,2,0:3:0:0:
339,130,15776,6,0,P|352:105|373:84,1,50,2|0,1:2|0:0,0:0:0:0:
282,177,16092,2,0,P|270:154|263:130,1,50,2|2,3:2|0:0,0:0:0:0:
411,145,16408,2,0,P|431:138|471:134,2,50,10|0|0,0:0|0:0|3:0,0:0:0:0:
411,145,16881,1,2,0:0:0:0:
459,213,17039,2,0,P|486:218|453:220,1,100,2|2,1:2|1:2,0:0:0:0:
363,215,17513,1,0,0:0:0:0:
363,215,17671,2,0,P|347:274|343:326,1,100,10|8,0:0|0:3,0:0:0:0:
282,177,18302,5,2,1:2:0:0:
282,177,18618,2,0,P|274:146|261:118,1,50,2|2,3:2|0:0,0:0:0:0:
312,38,18934,1,10,0:0:0:0:
379,62,19092,1,2,0:0:0:0:
379,62,19250,1,0,3:0:0:0:
205,73,19566,5,0,0:0:0:0:
205,73,19881,2,0,P|199:98|187:125,1,50,2|0,1:2|0:0,0:0:0:0:
78,44,20197,1,10,0:0:0:0:
117,102,20355,1,0,0:0:0:0:
133,169,20513,1,2,0:3:0:0:
18,314,20829,6,0,P|5:296|0:268,1,50,2|2,1:2|0:0,0:0:0:0:
84,222,21145,2,0,P|74:245|72:270,1,50,2|2,3:2|0:0,0:0:0:0:
149,257,21460,2,0,P|167:240|190:230,1,50,8|2,0:0|0:0,0:0:0:0:
254,312,21776,2,0,P|232:302|206:302,1,50,2|2,3:2|0:0,0:0:0:0:
218,369,22092,5,2,1:2:0:0:
402,334,22408,1,2,1:2:0:0:
402,334,22566,1,2,0:0:0:0:
332,315,22723,2,0,L|335:378,2,50,10|2|8,0:0|0:0|0:3,0:0:0:0:
504,203,23355,6,0,P|455:218|376:147,1,150,0|0,1:2|0:0,0:0:0:0:
494,53,23987,2,0,P|468:95|456:155,2,100,8|0|0,0:0|1:0|0:0,0:0:0:0:
431,11,24776,1,0,0:0:0:0:
341,133,25250,2,0,P|361:153|395:169,1,50,8|0,0:0|1:0,0:0:0:0:
166,179,25881,6,0,P|216:161|292:218,1,150,0|0,1:0|0:0,0:0:0:0:
189,326,26513,2,0,P|193:275|229:222,2,100,8|0|0,0:0|1:0|1:0,0:0:0:0:
256,349,27302,1,0,0:0:0:0:
290,212,27776,2,0,P|290:245|298:271,1,50,8|0,0:0|1:0,0:0:0:0:
482,176,28408,5,0,1:0:0:0:
482,176,28723,1,0,3:0:0:0:
482,176,28881,1,0,0:0:0:0:
500,249,29039,2,0,P|451:248|402:221,1,100,8|0,0:0|1:0,0:0:0:0:
382,153,29513,1,0,3:0:0:0:
382,153,29671,2,0,P|388:129|400:107,2,50
460,32,30302,2,0,P|463:56|470:80,1,50,8|0,0:0|1:0,0:0:0:0:
294,33,30934,6,0,B|200:41|261:82|143:92,1,150,0|0,1:0|0:0,0:0:0:0:
83,86,31566,1,8,0:0:0:0:
83,86,31881,2,0,P|76:55|68:29,2,50,0|0|0,1:0|3:0|1:0,0:0:0:0:
103,158,32355,1,0,0:0:0:0:
264,156,32829,2,0,P|271:133|289:107,1,50,8|0,0:0|1:0,0:0:0:0:
80,236,33460,5,6,1:2:0:0:
80,236,33776,2,0,P|60:242|19:250,1,50,0|0,3:0|0:0,0:0:0:0:
153,216,34092,2,0,P|197:226|245:274,1,100,10|0,0:0|3:0,0:0:0:0:
322,306,34566,2,0,P|278:296|230:248,1,100,0|0,1:0|3:0,0:0:0:0:
288,204,35039,2,0,P|305:182|327:165,1,50,0|0,1:0|0:0,0:0:0:0:
237,261,35355,2,0,P|225:276|189:298,2,50,8|0|2,0:0|0:0|0:3,0:0:0:0:
395,289,35987,5,2,1:2:0:0:
395,289,36302,2,0,P|420:282|452:277,1,50,0|0,3:0|0:0,0:0:0:0:
322,306,36618,2,0,P|278:296|230:248,2,100,10|0|0,0:0|3:0|1:0,0:0:0:0:
364,192,37566,2,0,P|352:213|343:240,1,50,0|0,1:0|0:0,0:0:0:0:
281,109,37881,2,0,P|290:127|299:159,2,50,8|0|8,0:0|0:0|0:3,0:0:0:0:
76,81,38513,5,2,1:2:0:0:
231,24,38829,1,0,3:0:0:0:
231,24,38987,1,0,0:0:0:0:
147,26,39145,2,0,P|163:82|166:137,1,100,10|0,0:0|3:0,0:0:0:0:
95,150,39618,2,0,P|130:188|223:172,1,150,0|0,1:0|1:0,0:0:0:0:
354,80,40408,2,0,L|468:99,1,100,8|2,0:0|0:3,0:0:0:0:
452,96,40881,1,4,0:3:0:0:
363,30,41039,6,0,L|353:79,1,50,2|0,1:2|0:0,0:0:0:0:
443,145,41355,2,0,L|452:95,1,50,0|0,3:0|0:0,0:0:0:0:
345,5,41671,2,0,L|327:103,1,100,10|0,0:0|3:0,0:0:0:0:
428,217,42302,5,2,1:2:0:0:
428,217,42460,1,0,3:0:0:0:
443,145,42618,1,0,1:0:0:0:
345,5,42934,2,0,L|327:103,1,100,10|8,0:0|0:3,0:0:0:0:
364,282,43566,6,0,B|351:210|320:253|317:159,1,119.999996337891,6|2,1:2|3:2,0:0:0:0:
327,103,44039,1,2,0:0:0:0:
387,149,44197,2,0,P|413:160|448:166,2,59.9999981689454,10|2|0,0:0|0:0|3:0,0:0:0:0:
387,149,44671,1,0,1:0:0:0:
317,174,44829,6,0,P|322:203|336:229,1,59.9999981689454,0|0,0:0|3:0,0:0:0:0:
206,163,45145,2,0,P|227:142|255:131,1,59.9999981689454,0|0,1:0|0:0,0:0:0:0:
264,58,45460,2,0,P|225:46|42:98,1,225.000008583069,8|4,0:0|0:3,0:0:0:0:
141,173,46092,6,0,P|113:162|78:158,1,59.9999981689454,2|0,1:2|0:0,0:0:0:0:
206,163,46408,2,0,P|227:142|255:131,1,59.9999981689454,2|2,3:2|0:0,0:0:0:0:
186,226,46723,2,0,L|199:294,2,59.9999981689454,10|2|0,0:0|0:0|3:0,0:0:0:0:
255,131,47355,5,0,1:0:0:0:
197,284,47671,1,0,1:0:0:0:
197,284,47829,1,2,0:0:0:0:
132,325,47987,2,0,L|121:265,2,59.9999981689454,10|2|8,0:0|0:0|0:3,0:0:0:0:
307,313,48618,6,0,B|236:324|285:272|177:285,1,119.999996337891,2|2,1:2|3:2,0:0:0:0:
132,325,49092,1,2,0:0:0:0:
47,364,49250,2,0,L|60:294,2,59.9999981689454,10|2|0,0:0|0:0|3:0,0:0:0:0:
47,364,49723,1,0,1:0:0:0:
132,325,49881,6,0,L|121:265,1,59.9999981689454,0|0,0:0|3:0,0:0:0:0:
178,214,50197,1,0,1:0:0:0:
178,214,50355,1,2,0:0:0:0:
197,284,50513,2,0,L|222:51,1,225.000008583069,10|4,0:0|0:3,0:0:0:0:
119,30,51145,6,0,P|139:51|156:91,1,59.9999981689454,2|0,1:2|0:0,0:0:0:0:
325,50,51460,2,0,P|301:66|276:101,1,59.9999981689454,2|2,3:2|0:0,0:0:0:0:
215,119,51776,2,0,L|221:60,2,59.9999981689454,10|2|0,0:0|0:0|3:0,0:0:0:0:
197,284,52408,5,0,1:0:0:0:
197,284,52723,1,2,1:2:0:0:
242,228,52881,1,2,0:0:0:0:
313,217,53039,1,10,0:2:0:0:
378,246,53197,1,2,0:0:0:0:
406,312,53355,1,8,0:3:0:0:
406,312,53513,1,4,0:3:0:0:
296,335,53671,6,0,L|313:209,1,119.999996337891,6|2,1:2|3:2,0:0:0:0:
324,144,54145,1,2,0:0:0:0:
261,108,54302,2,0,L|204:74,2,59.9999981689454,8|2|0,0:0|0:0|3:0,0:0:0:0:
261,108,54776,1,0,1:0:0:0:
338,76,54934,2,0,L|350:2,1,59.9999981689454,0|0,0:0|3:0,0:0:0:0:
395,129,55250,2,0,L|468:115,1,59.9999981689454,0|0,1:0|0:0,0:0:0:0:
324,144,55566,2,0,L|290:375,1,225.000008583069,8|4,0:0|0:3,0:0:0:0:
210,222,56197,6,0,B|88:228|154:281|35:285,1,179.999994506836,2|2,1:2|3:2,0:0:0:0:
59,208,56671,1,2,0:0:0:0:
205,300,56829,2,0,B|100:276|175:236|56:207,1,179.999994506836,8|2,0:0|3:2,0:0:0:0:
47,284,57302,1,0,0:0:0:0:
47,284,57460,2,0,B|154:281|88:228|210:222,1,179.999994506836,0|0,1:0|1:0,0:0:0:0:
205,300,57934,1,2,0:0:0:0:
139,162,58092,2,0,L|119:341,1,179.999994506836,10|8,0:0|0:3,0:0:0:0:
0,17,58723,6,0,P|9:80|122:78,1,179.999994506836,2|2,1:2|3:2,0:0:0:0:
67,36,59197,1,2,0:0:0:0:
109,91,59355,2,0,P|26:96|0:17,1,179.999994506836,10|0,0:0|3:0,0:0:0:0:
296,26,59987,2,0,P|269:105|186:100,1,179.999994506836,2|2,0:0|1:2,0:0:0:0:
229,45,60460,1,2,0:0:0:0:
186,100,60618,2,0,P|269:105|296:26,1,179.999994506836,10|2,0:0|0:3,0:0:0:0:
59,208,61250,6,0,P|58:256|86:335,1,119.999996337891,2|2,1:2|3:2,0:0:0:0:
149,341,61723,1,2,3:2:0:0:
135,267,61881,2,0,P|165:214|229:173,2,119.999996337891,8|0|0,3:2|3:0|1:0,0:0:0:0:
261,301,62829,6,0,P|224:294|191:296,1,59.9999981689454,0|0,1:0|0:0,0:0:0:0:
79,324,63145,2,0,P|59:267|59:208,1,119.999996337891,10|2,0:0|0:0,0:0:0:0:
180,50,63776,5,6,1:2:0:0:
180,50,63934,1,0,0:0:0:0:
126,99,64092,2,0,P|118:120|114:148,2,50,0|0|10,3:0|0:0|0:0,0:0:0:0:
209,260,64723,1,0,3:0:0:0:
209,260,64881,1,0,1:0:0:0:
190,190,65039,2,0,P|186:165|190:131,2,50,0|0|0,0:0|3:0|1:0,0:0:0:0:
512,152,65671,5,8,0:0:0:0:
450,185,65829,1,0,0:0:0:0:
392,147,65987,1,2,0:3:0:0:
392,77,66145,1,4,0:3:0:0:
335,38,66302,5,2,1:2:0:0:
335,38,66460,1,0,0:0:0:0:
274,72,66618,1,0,3:0:0:0:
274,72,66776,1,0,0:0:0:0:
271,142,66934,5,10,0:0:0:0:
271,142,67092,2,0,L|265:253,1,100
331,111,67566,6,0,L|469:117,2,119.999996337891,0|0|8,1:0|1:0|0:0,0:0:0:0:
331,111,68513,1,8,0:3:0:0:
209,107,68671,5,4,0:3:0:0:
209,107,68829,1,2,1:2:0:0:
209,107,68987,1,0,0:0:0:0:
171,168,69145,2,0,P|154:195|148:223,2,50,0|0|10,3:0|0:0|0:0,0:0:0:0:
171,168,69776,1,0,3:0:0:0:
65,144,69934,5,0,1:0:0:0:
65,144,70092,1,0,0:0:0:0:
65,144,70250,1,0,3:0:0:0:
72,215,70408,2,0,P|78:240|90:263,2,50,0|0|8,1:0|0:0|0:0,0:0:0:0:
270,199,71039,2,0,P|259:202|222:224,1,50,2|4,0:3|0:3,0:0:0:0:
342,186,71355,5,2,1:2:0:0:
402,221,71513,1,0,0:0:0:0:
409,290,71671,1,0,3:0:0:0:
369,347,71829,1,0,0:0:0:0:
299,352,71987,6,0,P|269:354|241:346,1,50,10|0,0:0|0:0,0:0:0:0:
225,220,72302,2,0,P|246:207|270:199,1,50,0|0,3:0|0:0,0:0:0:0:
277,278,72618,5,2,1:2:0:0:
277,278,72776,1,0,3:0:0:0:
202,290,72934,1,0,1:0:0:0:
202,290,73092,1,0,0:0:0:0:
249,349,73250,6,0,P|129:316|237:226,1,314.999990386963,10|4,0:0|0:3,0:0:0:0:
409,290,73881,5,6,1:2:0:0:
409,290,74039,1,0,0:0:0:0:
473,262,74197,2,0,P|476:233|485:200,1,50,0|0,3:0|0:0,0:0:0:0:
415,187,74513,2,0,P|413:158|405:127,2,50,10|0|0,0:0|0:0|3:0,0:0:0:0:
457,84,75145,5,0,0:0:0:0:
421,66,75302,1,0,3:0:0:0:
381,69,75460,1,0,1:0:0:0:
350,94,75618,1,0,0:0:0:0:
336,131,75776,1,8,0:0:0:0:
270,23,76092,2,0,P|281:49|286:86,1,50,2|4,0:3|0:3,0:0:0:0:
193,139,76408,6,0,P|208:113|215:87,1,50,2|0,1:2|0:0,0:0:0:0:
72,124,76723,2,0,P|105:120|130:111,1,50,0|0,3:0|0:0,0:0:0:0:
63,1,77039,5,10,0:0:0:0:
63,1,77197,1,0,0:0:0:0:
0,30,77355,2,0,P|12:52|33:68,1,50,0|0,3:0|0:0,0:0:0:0:
120,114,77671,6,0,P|96:121|72:124,1,50,0|0,1:0|3:0,0:0:0:0:
193,139,77987,2,0,P|208:113|215:87,2,50,0|0|8,1:0|0:0|0:0,0:0:0:0:
193,139,78618,1,8,0:3:0:0:
71,124,78776,5,4,0:3:0:0:
71,124,78934,1,2,1:2:0:0:
71,124,79092,1,0,0:0:0:0:
111,186,79250,2,0,P|102:217|107:247,1,50,0|0,3:0|0:0,0:0:0:0:
0,179,79566,2,0,P|12:223|46:270,1,100,10|0,0:0|3:0,0:0:0:0:
321,333,80197,5,0,0:0:0:0:
321,333,80355,1,0,3:0:0:0:
323,263,80513,2,0,P|327:238|344:201,1,50,0|0,1:0|0:0,0:0:0:0:
453,333,80829,2,0,P|410:292|393:250,1,100,8|2,0:0|0:3,0:0:0:0:
386,160,81302,5,4,0:3:0:0:
316,148,81460,1,2,1:2:0:0:
305,78,81618,1,0,0:0:0:0:
368,48,81776,1,0,3:0:0:0:
418,98,81934,1,0,0:0:0:0:
386,160,82092,6,0,P|419:167|440:161,1,50,10|0,0:0|0:0,0:0:0:0:
316,148,82408,2,0,P|292:150|265:139,1,50,0|0,3:0|0:0,0:0:0:0:
181,93,82723,6,0,L|188:171,2,66.6666666666667,2|0|0,1:2|3:0|0:0,0:0:0:0:
59,21,83355,6,0,L|68:128,1,100,10|8,0:0|0:3,0:0:0:0:
67,120,83987,1,4,1:2:0:0:
419,25,96618,5,2,1:2:0:0:
419,25,96934,1,2,0:0:0:0:
419,25,97250,1,2,0:0:0:0:
419,25,97566,1,2,0:0:0:0:
419,25,97881,1,2,3:2:0:0:
419,25,98197,1,2,3:2:0:0:
419,25,98513,1,2,3:2:0:0:
419,25,98829,6,0,P|408:48|401:79,1,50,2|0,3:2|0:0,0:0:0:0:
484,145,99145,6,0,L|426:140,1,50,6|2,1:2|0:0,0:0:0:0:
504,215,99460,2,0,L|446:210,1,50,2|2,3:2|0:0,0:0:0:0:
482,281,99776,2,0,L|424:276,2,50,10|0|2,0:0|0:0|3:2,0:0:0:0:
482,281,100250,1,0,1:0:0:0:
509,353,100408,2,0,L|394:345,1,100,2|0,0:0|1:0,0:0:0:0:
200,365,101039,5,8,0:0:0:0:
125,373,101197,1,0,0:0:0:0:
153,303,101355,1,2,0:3:0:0:
35,41,101671,6,0,L|93:36,1,50,2|2,1:2|0:0,0:0:0:0:
15,111,101987,2,0,L|73:106,1,50,2|2,3:2|0:0,0:0:0:0:
37,177,102302,2,0,L|95:172,2,50,10|2|2,0:0|0:0|3:2,0:0:0:0:
37,177,102776,1,2,0:0:0:0:
10,249,102934,2,0,L|125:241,1,100,2|2,1:2|1:2,0:0:0:0:
183,238,103408,1,0,0:0:0:0:
183,238,103566,1,10,0:0:0:0:
337,338,103881,1,8,0:3:0:0:
432,168,104197,5,2,1:2:0:0:
456,331,104513,1,2,3:2:0:0:
456,331,104671,1,2,0:0:0:0:
474,226,104829,5,10,0:0:0:0:
492,127,104987,1,2,0:0:0:0:
337,338,105460,5,2,0:0:0:0:
311,174,105776,1,2,1:2:0:0:
311,174,105934,1,0,0:0:0:0:
376,274,106092,5,10,0:0:0:0:
337,338,106250,1,0,0:0:0:0:
276,290,106408,1,2,0:3:0:0:
49,286,106723,6,0,P|72:295|106:299,1,50,2|2,1:2|0:0,0:0:0:0:
153,337,107039,2,0,P|162:314|166:280,1,50,2|2,3:2|0:0,0:0:0:0:
204,233,107355,2,0,P|181:224|147:220,1,50,8|2,0:0|0:0,0:0:0:0:
100,182,107671,2,0,P|91:205|87:239,1,50,2|2,3:2|0:0,0:0:0:0:
49,286,107987,5,2,1:2:0:0:
32,79,108302,1,2,1:2:0:0:
32,79,108460,1,2,0:0:0:0:
97,50,108618,2,0,L|103:99,2,50,10|2|8,0:0|0:0|0:3,0:0:0:0:
275,14,109250,6,0,L|282:72,1,50,6|2,1:2|0:0,0:0:0:0:
349,35,109566,2,0,L|356:93,1,50,2|2,3:2|0:0,0:0:0:0:
419,13,109881,2,0,L|426:71,2,50,8|2|2,0:0|0:0|3:2,0:0:0:0:
419,13,110355,1,0,1:2:0:0:
488,24,110513,2,0,L|502:135,1,100,2|0,0:0|1:2,0:0:0:0:
397,245,111145,5,8,0:0:0:0:
440,184,111302,1,0,0:0:0:0:
470,252,111460,1,2,0:3:0:0:
293,351,111776,6,0,L|286:293,1,50,2|2,1:2|0:0,0:0:0:0:
219,330,112092,2,0,L|212:272,1,50,2|2,3:2|0:0,0:0:0:0:
149,352,112408,2,0,L|142:294,2,50,10|2|2,0:0|0:0|3:2,0:0:0:0:
149,352,112881,1,2,0:0:0:0:
80,341,113039,2,0,L|66:230,1,100,2|2,1:2|1:2,0:0:0:0:
48,173,113513,1,0,0:0:0:0:
48,173,113671,2,0,B|123:155|89:203|158:186,1,100,10|8,0:0|0:3,0:0:0:0:
315,89,114302,5,2,1:2:0:0:
149,120,114618,1,2,3:2:0:0:
149,120,114776,1,2,0:0:0:0:
256,138,114934,5,10,0:0:0:0:
356,152,115092,1,2,0:0:0:0:
205,292,115566,5,2,0:0:0:0:
395,279,115881,1,2,1:2:0:0:
395,279,116039,1,0,0:0:0:0:
251,236,116197,5,10,0:0:0:0:
205,292,116355,1,0,0:0:0:0:
256,347,116513,1,2,0:3:0:0:
456,241,116829,6,0,P|466:270|465:300,1,50,2|2,1:2|0:0,0:0:0:0:
364,317,117145,2,0,P|382:302|396:274,1,50,2|2,3:2|0:0,0:0:0:0:
339,230,117460,2,0,P|315:240|288:237,1,50,8|2,0:0|0:0,0:0:0:0:
330,138,117776,2,0,P|345:155|369:166,1,50,2|2,3:2|0:0,0:0:0:0:
441,170,118092,5,2,1:2:0:0:
283,49,118408,1,2,1:2:0:0:
283,49,118566,1,2,0:0:0:0:
213,34,118723,2,0,L|206:99,2,50,10|2|8,0:0|0:0|0:3,0:0:0:0:
152,222,119355,6,0,P|174:267|184:376,1,150,0|0,1:2|0:0,0:0:0:0:
58,318,119987,2,0,P|54:278|106:298,2,100,8|0|0,0:0|1:0|0:0,0:0:0:0:
114,364,120776,1,0,0:0:0:0:
177,179,121250,2,0,P|166:195|146:235,1,50,8|0,0:0|1:0,0:0:0:0:
315,291,121881,6,0,P|322:236|380:144,1,150,0|0,1:0|0:0,0:0:0:0:
439,265,122513,2,0,P|412:245|416:296,2,100,8|0|0,0:0|1:0|1:0,0:0:0:0:
512,277,123302,1,0,0:0:0:0:
368,154,123776,2,0,P|361:126|348:98,1,50,8|0,0:0|1:0,0:0:0:0:
151,89,124408,5,0,1:0:0:0:
151,89,124723,1,0,3:0:0:0:
151,89,124881,1,0,0:0:0:0:
200,145,125039,2,0,P|133:162|89:129,1,100,8|0,0:0|1:0,0:0:0:0:
48,104,125513,1,0,3:0:0:0:
48,104,125671,2,0,P|54:79|66:58,2,50
43,222,126302,2,0,P|35:203|30:173,1,50,8|0,0:0|1:0,0:0:0:0:
225,75,126934,1,0,1:0:0:0:
401,28,127250,6,0,P|392:46|391:79,1,50,0|0,3:0|0:0,0:0:0:0:
490,145,127566,2,0,P|478:128|450:110,1,50,10|0,0:0|0:0,0:0:0:0:
345,166,127881,2,0,P|365:164|394:149,1,50,2|0,1:2|3:0,0:0:0:0:
479,57,128197,6,0,P|454:59|432:71,1,50,2|0,1:2|0:0,0:0:0:0:
424,196,128513,2,0,P|434:173|434:148,1,50,2|0,3:2|0:0,0:0:0:0:
335,79,128829,2,0,P|349:99|370:112,1,50,10|0,0:0|1:0,0:0:0:0:
479,57,129145,1,2,0:0:0:0:
446,265,129460,5,6,1:2:0:0:
446,265,129776,2,0,L|386:273,1,50,0|0,3:0|0:0,0:0:0:0:
334,321,130092,2,0,B|284:309|284:309|274:310|274:310|229:299,1,100,10|0,0:0|3:0,0:0:0:0:
325,336,130566,2,0,B|275:324|275:324|265:325|265:325|220:314,1,100,0|0,1:0|3:0,0:0:0:0:
155,338,131039,2,0,L|148:278,1,50,0|0,1:0|0:0,0:0:0:0:
80,323,131355,2,0,L|73:263,2,50,8|0|2,0:0|0:0|0:3,0:0:0:0:
57,145,131987,5,2,1:2:0:0:
57,145,132302,2,0,L|121:157,1,50,0|0,3:0|0:0,0:0:0:0:
176,120,132618,2,0,B|226:115|226:115|233:119|233:119|280:113,2,100,10|0|0,0:0|3:0|1:0,0:0:0:0:
36,17,133566,2,0,L|44:79,1,50,0|0,1:0|0:0,0:0:0:0:
109,29,133881,2,0,L|117:91,2,50,8|0|8,0:0|0:0|0:3,0:0:0:0:
363,48,134513,5,2,1:2:0:0:
501,84,134829,1,0,3:0:0:0:
501,84,134987,1,0,0:0:0:0:
442,28,135145,2,0,P|434:98|446:148,1,100,10|0,0:0|3:0,0:0:0:0:
490,182,135618,2,0,P|426:200|365:140,1,150,0|0,1:0|1:0,0:0:0:0:
193,71,136408,6,0,L|180:187,1,100,8|2,0:0|0:3,0:0:0:0:
181,170,136881,1,4,0:3:0:0:
242,75,137039,2,0,L|192:70,1,50,2|0,1:2|0:0,0:0:0:0:
132,166,137355,2,0,L|181:170,1,50,0|0,3:0|0:0,0:0:0:0:
267,55,137671,2,0,L|167:49,1,100,10|0,0:0|3:0,0:0:0:0:
58,159,138302,5,2,1:2:0:0:
58,159,138460,1,0,3:0:0:0:
132,166,138618,1,0,1:0:0:0:
267,55,138934,2,0,L|167:49,1,100,10|8,0:0|0:3,0:0:0:0:
12,319,139566,6,0,P|66:320|121:278,1,119.999996337891,6|2,1:2|3:2,0:0:0:0:
153,220,140039,1,2,0:0:0:0:
79,217,140197,2,0,P|72:187|58:161,2,59.9999981689454,10|2|0,0:0|0:0|3:0,0:0:0:0:
79,217,140671,1,0,1:0:0:0:
153,220,140829,6,0,P|169:196|178:165,1,59.9999981689454,0|0,0:0|3:0,0:0:0:0:
245,251,141145,2,0,P|233:264|188:283,1,59.9999981689454,2|0,1:2|0:0,0:0:0:0:
155,343,141460,2,0,P|227:365|379:326,1,225.000008583069,10|4,0:0|0:3,0:0:0:0:
271,249,142092,6,0,P|296:263|330:269,1,59.9999981689454,2|0,1:2|0:0,0:0:0:0:
245,251,142408,2,0,P|233:264|188:283,1,59.9999981689454,2|2,3:2|0:0,0:0:0:0:
252,179,142723,2,0,L|247:111,2,59.9999981689454,10|2|0,0:0|0:0|3:0,0:0:0:0:
326,268,143355,5,0,1:0:0:0:
392,64,143671,1,0,1:0:0:0:
392,64,143829,1,2,0:0:0:0:
433,133,143987,2,0,L|421:197,2,59.9999981689454,10|2|8,0:0|0:0|0:3,0:0:0:0:
247,119,144618,6,0,P|306:147|358:131,1,119.999996337891,2|2,1:2|3:2,0:0:0:0:
392,64,145092,1,2,0:0:0:0:
302,11,145250,2,0,L|312:84,2,59.9999981689454,10|2|0,0:0|0:0|3:0,0:0:0:0:
302,11,145723,1,0,1:0:0:0:
237,59,145881,6,0,L|248:129,1,59.9999981689454,0|0,0:0|3:0,0:0:0:0:
169,90,146197,1,0,1:0:0:0:
169,90,146355,1,2,0:0:0:0:
129,25,146513,2,0,L|165:253,1,225.000008583069,10|4,0:0|0:3,0:0:0:0:
109,301,147145,6,0,P|91:320|55:336,1,59.9999981689454,2|0,1:2|0:0,0:0:0:0:
233,281,147460,2,0,P|259:294|292:296,1,59.9999981689454,2|2,3:2|0:0,0:0:0:0:
154,187,147776,2,0,L|164:247,2,59.9999981689454,10|2|0,0:0|0:0|3:0,0:0:0:0:
129,25,148408,5,0,1:0:0:0:
129,25,148723,1,2,1:2:0:0:
169,90,148881,1,2,0:0:0:0:
238,122,149039,1,10,0:0:0:0:
313,109,149197,1,2,0:0:0:0:
367,55,149355,1,8,0:3:0:0:
367,55,149513,1,4,0:3:0:0:
252,2,149671,6,0,L|237:125,1,119.999996337891,6|2,1:2|3:2,0:0:0:0:
227,192,150145,1,2,0:0:0:0:
170,147,150302,2,0,L|150:77,1,59.9999981689454,10|2,0:0|0:0,0:0:0:0:
296,165,150618,2,0,L|338:105,1,59.9999981689454,0|0,3:0|1:0,0:0:0:0:
245,61,150934,6,0,L|237:121,1,59.9999981689454,0|0,0:0|3:0,0:0:0:0:
227,192,151250,2,0,L|218:265,1,59.9999981689454,2|0,1:2|0:0,0:0:0:0:
207,344,151566,2,0,L|239:99,1,225.000008583069,10|4,0:0|0:3,0:0:0:0:
329,225,152197,6,0,B|435:237|385:291|493:310,1,179.999994506836,2|2,1:2|3:2,0:0:0:0:
486,223,152671,1,2,0:0:0:0:
333,305,152829,2,0,B|430:288|380:234|486:222,1,179.999994506836,10|2,0:0|3:2,0:0:0:0:
482,307,153302,1,0,0:0:0:0:
482,307,153460,2,0,B|384:290|434:236|328:224,1,179.999994506836,0|0,1:0|1:0,0:0:0:0:
333,305,153934,1,2,0:0:0:0:
406,173,154092,2,0,L|407:365,1,179.999994506836,10|8,0:0|0:3,0:0:0:0:
285,81,154723,6,0,P|246:87|208:211,1,179.999994506836,2|2,1:2|3:2,0:0:0:0:
276,164,155197,1,2,0:0:0:0:
203,204,155355,2,0,P|207:118|285:81,1,179.999994506836,10|0,0:0|3:0,0:0:0:0:
27,76,155987,6,0,P|66:82|104:206,1,179.999994506836,2|2,0:0|1:2,0:0:0:0:
36,159,156460,1,2,0:0:0:0:
108,199,156618,2,0,P|104:113|26:75,1,179.999994506836,10|2,0:0|0:3,0:0:0:0:
200,284,157250,6,0,P|237:267|337:271,1,119.999996337891,2|2,1:2|3:2,0:0:0:0:
382,292,157723,1,2,3:2:0:0:
327,336,157881,2,0,P|290:353|190:349,2,119.999996337891,8|0|0,0:0|3:0|1:0,0:0:0:0:
480,284,158829,2,0,P|468:307|456:347,1,59.9999981689454,2|2,1:2|0:0,0:0:0:0:
426,234,159145,5,10,0:0:0:0:
394,168,159302,1,2,0:0:0:0:
488,119,159460,2,0,P|475:145|465:186,1,59.9999981689454,8|4,0:3|0:3,0:0:0:0:
409,63,159776,6,0,P|415:83|417:104,2,29.9999990844727,6|0|0,1:2|0:0|3:0,0:0:0:0:
342,92,160092,2,0,L|277:84,1,59.9999981689454,2|2,3:2|0:0,0:0:0:0:
224,131,160408,2,0,P|195:78|117:77,1,119.999996337891,8|2,0:0|3:2,0:0:0:0:
157,131,160881,1,2,1:2:0:0:
89,132,161039,2,0,P|118:185|196:186,1,119.999996337891,2|0,0:0|1:0,0:0:0:0:
342,92,161671,2,0,P|277:192|266:309,1,225.000008583069,8|4,0:0|0:3,0:0:0:0:
340,303,162302,6,0,P|339:280|349:234,1,59.9999981689454,2|2,1:2|0:0,0:0:0:0:
278,352,162618,2,0,P|266:320|266:279,1,59.9999981689454,2|2,3:2|0:0,0:0:0:0:
417,304,162934,2,0,P|429:274|451:247,2,59.9999981689454,8|2|2,0:0|0:0|3:2,0:0:0:0:
461,362,163408,1,2,0:0:0:0:
346,361,163566,6,0,P|338:302|346:243,1,119.999996337891,2|2,1:2|1:2,0:0:0:0:
357,171,164039,1,0,0:0:0:0:
447,168,164197,2,0,P|464:122|433:164,1,150.000005722046,10|8,0:0|0:3,0:0:0:0:
241,23,164829,6,0,P|242:48|235:98,1,59.9999981689454,2|2,1:2|0:0,0:0:0:0:
171,19,165145,2,0,P|168:48|169:78,1,59.9999981689454,2|2,3:2|0:0,0:0:0:0:
276,141,165460,5,10,0:0:0:0:
130,136,165618,1,2,0:0:0:0:
235,258,166092,6,0,P|237:228|236:198,1,59.9999981689454,2|2,0:0|3:2,0:0:0:0:
165,254,166408,2,0,P|163:224|166:194,1,59.9999981689454,2|2,1:2|0:0,0:0:0:0:
130,136,166723,5,10,0:0:0:0:
276,141,166881,1,2,0:0:0:0:
409,262,167355,6,0,P|404:232|396:203,1,59.9999981689454,2|2,1:2|0:0,0:0:0:0:
475,301,167671,2,0,P|489:274|499:246,1,59.9999981689454,2|2,3:2|0:0,0:0:0:0:
341,286,167987,2,0,P|321:264|284:241,2,59.9999981689454,8|2|2,0:0|0:0|3:2,0:0:0:0:
330,354,168460,1,2,0:0:0:0:
406,321,168618,6,0,P|409:260|396:202,1,119.999996337891,2|2,1:2|1:2,0:0:0:0:
350,146,169092,1,2,0:0:0:0:
391,87,169250,1,10,0:2:0:0:
460,104,169408,1,2,0:0:0:0:
463,175,169566,1,8,0:3:0:0:
396,202,169723,1,4,0:3:0:0:
274,144,169881,6,0,P|282:116|299:80,2,59.9999981689454,6|2|2,1:2|0:0|3:2,0:0:0:0:
255,214,170355,1,2,0:0:0:0:
205,161,170513,1,8,0:0:0:0:
133,153,170671,1,2,0:0:0:0:
67,183,170829,1,2,3:2:0:0:
36,248,170987,1,2,1:2:0:0:
157,286,171145,6,0,L|146:227,1,59.9999981689454,2|0,0:0|3:0,0:0:0:0:
133,153,171460,2,0,L|122:94,1,59.9999981689454,0|0,1:0|0:0,0:0:0:0:
106,5,171776,2,0,L|147:237,1,225.000008583069,8|4,0:0|0:3,0:0:0:0:
274,144,172408,6,0,P|314:151|361:176,1,89.9999972534181,2|0,1:2|0:0,0:0:0:0:
441,202,172723,2,0,P|401:195|354:170,1,89.9999972534181,2|2,3:2|0:0,0:0:0:0:
441,143,173039,2,0,P|401:150|354:175,1,89.9999972534181,8|2,0:0|0:0,0:0:0:0:
274,201,173355,2,0,P|314:194|361:169,1,89.9999972534181,2|2,3:2|0:0,0:0:0:0:
356,83,173671,2,0,L|358:277,1,179.999994506836,2|2,1:2|1:2,0:0:0:0:
358,332,174145,1,2,0:0:0:0:
357,262,174302,6,0,L|356:83,1,179.999994506836,10|8,0:2|0:3,0:0:0:0:
153,93,174934,5,6,1:2:0:0:
80,93,175092,1,0,0:0:0:0:
80,165,175250,1,2,0:0:0:0:
151,169,175408,1,2,0:0:0:0:
13,128,175566,5,2,0:0:0:0:
215,137,175723,1,2,0:0:0:0:
80,165,176197,5,6,1:2:0:0:
151,169,176355,1,0,0:0:0:0:
153,93,176513,1,2,0:0:0:0:
80,93,176671,1,2,0:0:0:0:
114,231,176829,5,2,0:0:0:0:
119,29,176987,1,2,0:0:0:0:
318,75,177302,6,0,L|364:82,1,29.9999990844727,8|8,3:3|3:3,0:0:0:0:
364,83,177460,2,0,L|354:9,2,59.9999981689454,2|2|2,1:2|0:0|3:2,0:0:0:0:
376,156,177934,1,2,0:0:0:0:
376,156,178250,1,2,0:0:0:0:
442,49,178408,1,0,3:0:0:0:
504,203,178566,2,0,L|466:206,1,29.9999990844727,8|8,3:3|3:3,0:0:0:0:
462,206,178723,6,0,L|479:112,2,79.9999975585938,2|0|0,1:2|1:0|1:0,0:0:0:0:
398,329,179355,6,0,L|369:239,2,79.9999975585938,10|0|0,1:2|1:0|1:0,0:0:0:0:
303,247,179987,6,0,L|313:204,2,29.9999990844727,6|0|2,1:2|0:0|0:0,0:0:0:0:
249,305,180302,2,0,L|175:298,1,59.9999981689454,2|2,3:2|0:0,0:0:0:0:
118,333,180618,2,0,L|106:258,2,59.9999981689454,8|2|2,0:0|0:0|3:2,0:0:0:0:
118,333,181092,1,2,1:2:0:0:
36,297,181250,2,0,P|33:254|97:198,1,119.999996337891,2|2,0:0|1:2,0:0:0:0:
134,50,181881,2,0,B|92:154|198:145|206:222|166:246|153:167,1,225.000008583069,10|4,0:0|0:3,0:0:0:0:
228,51,182513,6,0,B|233:99|192:126|168:77|232:40,1,119.999996337891,2|2,1:2|3:2,0:0:0:0:
304,59,182987,1,2,0:0:0:0:
385,102,183145,2,0,B|345:29|431:-42|493:67|391:106,1,225.000008583069,10|0,0:0|0:0,0:0:0:0:
280,145,183776,6,0,B|404:151|299:232|482:238,2,179.999994506836,2|2|10,1:2|1:2|0:0,0:0:0:0:
203,167,184566,1,0,0:0:0:0:
261,277,184723,2,0,B|265:248|289:220|289:220|266:224|254:239,1,89.9999972534181,8|4,0:3|0:3,0:0:0:0:
186,372,185039,6,0,B|190:332|155:295|155:295|189:292|212:312,1,119.999996337891,2|2,1:2|3:2,0:0:0:0:
116,360,185513,1,2,0:0:0:0:
261,277,185671,5,10,0:0:0:0:
255,346,185829,1,2,0:0:0:0:
255,346,185987,1,0,3:0:0:0:
91,198,186302,6,0,P|96:220|101:268,1,59.9999981689454,2|2,0:0|3:2,0:0:0:0:
70,129,186618,1,2,1:2:0:0:
70,129,186776,1,2,0:0:0:0:
166,89,186934,2,0,P|155:117|145:155,2,59.9999981689454,10|0|2,0:0|0:0|0:3,0:0:0:0:
203,20,187408,1,4,0:3:0:0:
125,25,187566,6,0,P|192:65|309:85,1,179.999994506836,2|2,1:2|0:0,0:0:0:0:
371,36,188197,2,0,P|366:17|362:39,1,59.9999981689454,8|2,0:0|0:0,0:0:0:0:
449,76,188513,2,0,P|458:54|463:83,1,75.0000028610231,2|2,3:2|0:0,0:0:0:0:
512,178,188829,6,0,B|396:191|451:124|338:136,1,179.999994506836,2|2,1:2|1:2,0:0:0:0:
271,156,189302,1,2,0:0:0:0:
369,205,189460,1,10,0:0:0:0:
296,225,189618,1,2,0:0:0:0:
344,135,189776,1,8,0:3:0:0:
344,135,189934,1,4,0:3:0:0:
271,292,190092,5,6,1:2:0:0:
123,312,190408,1,2,3:2:0:0:
123,312,190566,1,2,0:0:0:0:
183,358,190723,2,0,L|199:298,2,59.9999981689454,8|2|2,0:0|0:0|3:2,0:0:0:0:
183,358,191197,1,2,1:2:0:0:
123,312,191355,6,0,L|141:246,1,59.9999981689454,2|0,0:0|3:0,0:0:0:0:
214,242,191671,2,0,L|198:299,1,59.9999981689454,2|0,1:2|0:0,0:0:0:0:
39,353,191987,6,0,L|100:112,1,225.000008583069,10|4,0:0|0:3,0:0:0:0:
34,67,192618,6,0,L|95:135,1,89.9999972534181,2|0,1:2|0:0,0:0:0:0:
174,95,192934,2,0,L|87:136,1,89.9999972534181,2|2,3:2|0:0,0:0:0:0:
74,221,193250,6,0,L|93:134,1,89.9999972534181,8|0,0:0|0:0,0:0:0:0:
112,46,193566,2,0,L|92:136,1,89.9999972534181,2|0,3:2|0:0,0:0:0:0:
12,173,193881,2,0,L|179:91,1,179.999994506836,2|2,1:2|1:2,0:0:0:0:
246,65,194355,1,0,0:0:0:0:
151,201,194513,2,0,L|33:66,1,179.999994506836,10|8,0:0|0:3,0:0:0:0:
364,40,195145,6,0,B|352:157|423:107|414:242,1,200,6|2,1:2|0:0,0:0:0:0:
414,227,196092,1,0,0:0:0:0:
467,82,196408,2,0,B|392:173|377:87|288:189,1,200,6|2,1:2|0:0,0:0:0:0:
298,178,197355,1,0,0:0:0:0:
359,281,197513,6,0,L|317:274,1,25,8|8,3:3|3:3,0:0:0:0:
321,274,197671,2,0,L|336:357,1,75.0000028610231,2|0,1:2|0:0,0:0:0:0:
228,255,197987,1,2,3:2:0:0:
240,133,198145,1,2,0:0:0:0:
240,133,198618,5,2,3:2:0:0:
240,133,198776,2,0,L|196:141,1,37.5000014305115,8|8,3:3|3:3,0:0:0:0:
188,141,198934,6,0,L|201:29,2,100.000003814697,2|0|0,1:2|1:0|1:0,0:0:0:0:
38,124,199566,2,0,L|50:19,2,100.000003814697,10|0|0,1:2|1:0|1:0,0:0:0:0:
121,84,200197,1,6,1:2:0:0:
