osu file format v14

[General]
AudioFilename: audio.mp3
AudioLeadIn: 0
PreviewTime: 39355
Countdown: 0
SampleSet: Soft
StackLeniency: 0.7
Mode: 0
LetterboxInBreaks: 0
WidescreenStoryboard: 0

[Editor]
DistanceSpacing: 0.9
BeatDivisor: 4
GridSize: 32
TimelineZoom: 1.7

[Metadata]
Title:Trauma (TV Size)
TitleUnicode:Trauma (TV Size)
Artist:Mu (CV: Rie Takahashi)
ArtistUnicode:ミュウ (CV: 高橋李依)
Creator:kxlman
Version:Afterglow
Source:LISTENERS リスナーズ
Tags:じん Jin Myuu μ Listeners J-rock japanese rock anime ending ed 6 female vocals jrock character voice vocalist kuki1537 nemidnight supav sotarks
BeatmapID:4457206
BeatmapSetID:2121231

[Difficulty]
HPDrainRate:5.5
CircleSize:3.8
OverallDifficulty:9.4
ApproachRate:9.4
SliderMultiplier:1.9
SliderTickRate:1

[Events]
//Background and Video events
0,0,"115008128_p0.jpg",0,0
//Break Periods
//Storyboard Layer 0 (Background)
//Storyboard Layer 1 (Fail)
//Storyboard Layer 2 (Pass)
//Storyboard Layer 3 (Foreground)
//Storyboard Layer 4 (Overlay)
//Storyboard Sound Samples

[TimingPoints]
370,297.029702970297,4,2,1,70,1,0
370,-200,4,2,1,40,0,0
1558,-111.111111111111,4,2,1,70,0,0
11063,-142.857142857143,4,2,1,60,0,0
18191,-117.647058823529,4,2,1,70,0,0
20568,-142.857142857143,4,2,1,60,0,0
27696,-117.647058823529,4,2,1,70,0,0
30072,-125,4,2,1,65,0,0
37201,-111.111111111111,4,2,1,70,0,0
37498,-111.111111111111,4,2,1,50,0,0
37795,-111.111111111111,4,2,1,60,0,0
38092,-111.111111111111,4,2,1,70,0,0
38389,-111.111111111111,4,2,1,80,0,0
39577,-99.9999999999999,4,2,1,80,0,0
58587,-90.9090909090909,4,2,1,85,0,0
77597,-86.9565217391304,4,2,1,85,0,0

[Colours]
Combo1 : 54,186,170
Combo2 : 242,0,24
Combo3 : 140,215,215
Combo4 : 202,0,5

[HitObjects]
40,89,370,6,0,L|56:183,3,95,2|2|2|2,0:0|0:0|0:0|0:0,0:0:0:0:
83,279,1409,1,2,0:0:0:0:
227,113,1558,6,0,P|282:53|367:63,1,170.999994781494,6|2,3:2|0:0,0:0:0:0:
461,207,2003,1,0,3:2:0:0:
490,0,2152,1,8,0:0:0:0:
314,144,2300,2,0,L|330:232,1,85.4999973907472,2|0,3:2|0:0,0:0:0:0:
468,357,2597,2,0,L|379:340,1,85.4999973907472,10|0,0:0|0:0,0:0:0:0:
174,306,2894,6,0,L|262:289,1,85.4999973907472,10|0,0:0|0:0,0:0:0:0:
136,183,3191,1,2,3:2:0:0:
80,384,3340,1,10,0:0:0:0:
258,290,3488,1,2,3:2:0:0:
74,268,3637,1,2,0:0:0:0:
247,384,3785,1,10,0:0:0:0:
321,157,3934,6,0,B|412:150|396:193|493:187,1,170.999994781494,6|2,3:2|0:0,0:0:0:0:
345,266,4379,1,0,3:2:0:0:
236,88,4528,1,8,0:0:0:0:
356,288,4676,2,0,L|340:376,1,85.4999973907472,2|0,3:2|0:0,0:0:0:0:
152,266,4973,2,0,L|135:182,1,85.4999973907472,10|0,0:0|0:0,3:0:0:0:
337,73,5270,6,0,L|320:156,1,85.4999973907472,10|0,0:0|0:0,3:0:0:0:
243,329,5568,1,2,3:2:0:0:
406,195,5716,1,10,0:0:0:0:
360,365,5865,1,2,3:2:0:0:
219,173,6013,1,10,0:0:0:0:
427,294,6162,1,10,0:0:0:0:
200,166,6310,6,0,B|78:187|78:187|35:163,1,170.999994781494,6|2,3:2|0:0,0:0:0:0:
191,58,6756,1,0,3:2:0:0:
291,252,6904,1,8,0:0:0:0:
391,46,7053,2,0,P|431:27|475:30,1,85.4999973907472,2|0,3:2|0:0,0:0:0:0:
311,162,7350,2,0,L|294:73,1,85.4999973907472,10|0,0:0|0:0,0:0:0:0:
489,181,7647,6,0,L|472:270,1,85.4999973907472,10|0,0:0|0:0,0:0:0:0:
322,384,7944,1,2,3:2:0:0:
311,162,8092,1,10,0:0:0:0:
415,323,8241,1,2,3:2:0:0:
262,244,8389,1,2,0:0:0:0:
489,181,8538,1,10,0:0:0:0:
238,251,8686,6,0,P|156:238|117:165,1,170.999994781494,6|2,3:2|0:0,0:0:0:0:
67,13,9132,1,0,3:2:0:0:
0,206,9280,1,8,0:0:0:0:
194,96,9429,2,0,L|278:81,1,85.4999973907472,2|0,3:2|0:0,0:0:0:0:
484,43,9726,2,0,L|467:132,1,85.4999973907472,10|0,0:0|0:0,0:0:0:0:
359,324,10023,6,0,L|342:240,1,85.4999973907472,10|0,0:0|0:0,0:0:0:0:
380,55,10320,1,2,3:2:0:0:
461,263,10469,1,10,0:0:0:0:
307,149,10617,1,8,0:0:0:0:
307,149,10691,1,8,0:0:0:0:
307,149,10766,2,0,L|357:140,1,42.7499986953736,8|8,0:0|0:0,0:0:0:0:
500,185,10914,2,0,L|457:177,1,42.7499986953736,8|8,0:0|0:0,0:0:0:0:
319,287,11063,6,0,B|250:283|262:313|190:309,1,132.999995941162,6|2,3:2|3:2,0:0:0:0:
99,300,11508,1,0,0:0:0:0:
99,300,11657,2,0,L|88:233,1,66.4999979705811,2|0,3:2|0:0,0:0:0:0:
75,126,11954,1,2,3:2:0:0:
3,191,12102,1,2,0:0:0:0:
93,116,12251,6,0,P|125:105|159:105,1,66.4999979705811,2|0,3:2|0:0,0:0:0:0:
256,165,12548,2,0,L|266:98,1,66.4999979705811,2|0,3:2|0:0,0:0:0:0:
357,0,12845,1,2,3:2:0:0:
354,111,12993,1,2,0:0:0:0:
271,6,13142,1,2,3:2:0:0:
271,6,13290,1,2,0:0:0:0:
364,131,13439,6,0,L|386:262,1,132.999995941162,6|2,1:2|3:2,0:0:0:0:
490,307,13884,1,0,0:0:0:0:
490,307,14033,2,0,L|500:240,1,66.4999979705811,2|0,3:2|0:0,0:0:0:0:
413,342,14330,1,2,3:2:0:0:
512,384,14478,1,2,0:0:0:0:
388,345,14627,6,0,L|322:356,1,66.4999979705811,2|0,3:2|0:0,0:0:0:0:
225,262,14924,2,0,L|290:273,1,66.4999979705811,2|0,3:2|0:0,0:0:0:0:
186,343,15221,1,2,3:2:0:0:
142,228,15370,1,2,0:0:0:0:
105,376,15518,1,2,3:2:0:0:
105,376,15667,1,2,0:0:0:0:
225,262,15815,6,0,B|278:252|278:252|300:263|300:263|367:252,1,132.999995941162,6|2,3:2|3:2,0:0:0:0:
450,229,16261,1,0,0:0:0:0:
450,229,16409,2,0,L|460:162,1,66.4999979705811,2|0,3:2|0:0,0:0:0:0:
412,34,16706,1,2,3:2:0:0:
512,95,16855,1,2,0:0:0:0:
369,135,17003,6,0,P|335:134|304:124,1,66.4999979705811,2|0,3:2|0:0,0:0:0:0:
165,68,17300,2,0,L|175:134,1,66.4999979705811,2|0,3:2|0:0,0:0:0:0:
146,270,17597,1,2,3:2:0:0:
86,158,17746,1,2,0:0:0:0:
210,211,17894,2,0,L|276:200,1,66.4999979705811,2|2,3:2|0:0,0:0:0:0:
448,175,18191,5,2,3:2:0:0:
368,330,18340,1,2,3:2:0:0:
460,151,18488,2,0,L|447:72,1,80.750001540184,4|0,3:2|0:0,0:0:0:0:
314,210,18785,5,2,3:2:0:0:
477,294,18934,1,2,3:2:0:0:
289,197,19082,2,0,L|206:210,1,80.750001540184,4|0,3:2|0:0,0:0:0:0:
14,146,19379,5,2,3:2:0:0:
102,316,19528,1,2,3:2:0:0:
0,118,19676,2,0,L|14:31,1,80.750001540184,4|0,3:2|0:0,0:0:0:0:
186,123,19973,5,2,3:2:0:0:
54,235,20122,1,2,3:2:0:0:
127,26,20270,1,10,0:0:0:0:
218,264,20419,1,10,0:0:0:0:
330,83,20568,6,0,P|384:42|456:51,1,132.999995941162,6|2,3:2|3:2,0:0:0:0:
511,119,21013,1,0,0:0:0:0:
511,119,21162,2,0,L|500:185,1,66.4999979705811,2|0,3:2|0:0,0:0:0:0:
398,246,21459,2,0,L|387:179,1,66.4999979705811,2|0,3:2|0:0,0:0:0:0:
330,83,21756,5,2,3:2:0:0:
430,111,21904,1,2,0:0:0:0:
312,80,22053,2,0,L|246:90,1,66.4999979705811,2|0,3:2|0:0,0:0:0:0:
122,157,22350,1,2,3:2:0:0:
157,56,22498,1,2,0:0:0:0:
209,172,22647,1,2,3:2:0:0:
209,172,22795,1,2,0:0:0:0:
68,82,22944,6,0,P|11:112|3:182,1,132.999995941162,6|2,1:2|3:2,0:0:0:0:
68,260,23389,1,2,0:0:0:0:
68,260,23538,1,2,3:2:0:0:
122,157,23686,1,2,0:0:0:0:
195,264,23835,2,0,P|229:263|260:253,1,66.4999979705811,2|0,3:2|0:0,0:0:0:0:
374,232,24132,5,2,3:2:0:0:
346,332,24280,1,2,0:0:0:0:
377,214,24429,2,0,L|367:148,1,66.4999979705811,2|0,3:2|0:0,0:0:0:0:
381,36,24726,1,2,3:2:0:0:
469,140,24874,1,2,0:0:0:0:
475,0,25023,1,2,3:2:0:0:
475,0,25171,1,2,0:0:0:0:
367,148,25320,6,0,B|273:164|273:164|241:145,1,132.999995941162,6|2,3:2|3:2,0:0:0:0:
118,122,25766,1,0,0:0:0:0:
118,122,25915,2,0,L|129:188,1,66.4999979705811,2|0,3:2|0:0,0:0:0:0:
132,316,26211,1,2,3:2:0:0:
47,247,26360,1,2,0:0:0:0:
148,328,26508,6,0,P|182:327|213:317,1,66.4999979705811,2|0,3:2|0:0,0:0:0:0:
343,259,26805,2,0,L|332:325,1,66.4999979705811,2|0,3:2|0:0,0:0:0:0:
255,222,27102,1,2,3:2:0:0:
390,160,27251,1,2,0:0:0:0:
236,230,27399,2,0,L|225:164,1,66.4999979705811,2|0,3:2|0:0,0:0:0:0:
127,1,27696,5,2,3:2:0:0:
93,185,27845,1,2,3:2:0:0:
267,62,27993,2,0,L|352:46,1,80.750001540184,4|0,3:2|0:0,0:0:0:0:
502,187,28290,5,2,3:2:0:0:
436,0,28439,1,2,3:2:0:0:
327,191,28587,2,0,L|342:276,1,80.750001540184,4|0,3:2|0:0,0:0:0:0:
439,105,28884,5,2,3:2:0:0:
233,179,29033,1,2,3:2:0:0:
422,324,29181,2,0,L|436:244,1,80.750001540184,4|0,3:2|0:0,0:0:0:0:
328,82,29478,5,2,3:2:0:0:
266,268,29627,1,2,3:2:0:0:
260,22,29775,1,10,0:0:0:0:
491,178,29924,1,10,0:0:0:0:
233,179,30072,6,0,B|107:165|140:236|11:219,1,228,6|0,3:2|3:2,0:0:0:0:
110,375,30667,2,0,P|176:346|187:274,1,152,10|0,0:0|0:0,0:0:0:0:
357,225,31112,2,0,L|433:211,1,76,10|0,0:0|0:0,0:0:0:0:
246,104,31409,2,0,L|232:178,1,76,10|0,0:0|0:0,0:0:0:0:
339,44,31706,1,2,3:2:0:0:
143,132,31855,2,0,P|103:135|63:117,1,76,10|0,0:0|3:2,0:0:0:0:
207,272,32152,2,0,P|246:275|286:257,1,76,2|8,0:0|0:0,0:0:0:0:
511,126,32449,6,0,P|420:137|390:263,1,228,6|0,3:2|3:2,0:0:0:0:
501,366,33043,2,0,P|490:291|475:217,1,152,10|0,0:0|0:0,0:0:0:0:
325,335,33488,2,0,L|399:348,1,76,10|0,0:0|0:0,0:0:0:0:
286,210,33785,6,0,L|211:223,1,76,10|0,0:0|0:0,0:0:0:0:
87,289,34082,1,0,3:2:0:0:
193,123,34231,1,10,0:0:0:0:
213,336,34379,1,8,0:0:0:0:
213,336,34454,1,10,0:0:0:0:
213,336,34528,1,10,0:0:0:0:
291,109,34676,1,10,0:0:0:0:
36,189,34825,6,0,P|143:208|260:239,1,228,6|0,3:2|3:2,0:0:0:0:
418,313,35419,2,0,P|365:276|361:183,1,152,10|0,0:0|0:0,0:0:0:0:
512,103,35865,2,0,L|498:177,1,76,10|0,0:0|0:0,0:0:0:0:
337,74,36162,6,0,L|323:0,1,76,10|0,0:0|0:0,0:0:0:0:
419,130,36459,1,0,3:2:0:0:
223,18,36607,1,10,0:0:0:0:
425,0,36756,1,2,3:2:0:0:
315,216,36904,1,10,0:0:0:0:
329,27,37053,1,2,3:2:0:0:
132,213,37201,6,0,L|148:304,1,85.4999973907472,6|0,3:2|0:0,0:0:0:0:
228,164,37498,1,10,0:0:0:0:
45,126,37647,1,2,0:0:0:0:
146,297,37795,1,10,0:0:0:0:
206,60,37944,1,8,0:0:0:0:
0,255,38092,1,8,0:0:0:0:
321,205,38241,1,10,0:0:0:0:
0,40,38389,5,10,0:0:0:0:
278,322,38538,1,10,0:0:0:0:
278,322,38983,5,10,0:0:0:0:
336,0,39132,1,10,0:0:0:0:
336,0,39577,6,0,L|354:97,1,95,6|0,3:2|0:0,0:0:0:0:
147,230,39874,2,0,L|164:136,1,95,10|0,0:0|0:0,0:0:0:0:
278,322,40171,1,2,3:2:0:0:
48,217,40320,1,2,3:2:0:0:
297,118,40469,1,10,0:0:0:0:
189,315,40617,1,2,0:0:0:0:
326,104,40766,6,0,L|420:87,1,95,2|0,3:2|0:0,0:0:0:0:
154,0,41063,2,0,L|186:189,1,190,10|0,0:0|3:2,0:0:0:0:
276,373,41508,1,0,3:2:0:0:
449,198,41657,2,0,L|355:181,1,95,10|0,0:0|0:0,0:0:0:0:
163,297,41954,6,0,L|257:280,1,95,2|0,3:2|0:0,0:0:0:0:
92,119,42251,2,0,P|49:98|3:99,1,95,10|0,0:0|0:0,0:0:0:0:
191,210,42548,1,2,3:2:0:0:
154,0,42696,1,0,3:2:0:0:
36,224,42845,2,0,L|53:318,1,95,10|0,0:0|0:0,0:0:0:0:
225,375,43142,6,0,L|242:281,1,95,0|0,3:2|0:0,0:0:0:0:
334,22,43439,1,10,0:0:0:0:
421,237,43587,1,2,0:0:0:0:
189,126,43736,1,2,3:2:0:0:
433,50,43884,1,2,3:2:0:0:
328,317,44033,1,10,0:0:0:0:
278,92,44181,1,2,0:0:0:0:
127,337,44330,6,0,P|79:337|37:317,1,95,6|0,3:2|0:0,0:0:0:0:
189,126,44627,2,0,L|206:220,1,95,10|0,0:0|0:0,0:0:0:0:
397,384,44924,1,2,3:2:0:0:
376,135,45072,1,2,3:2:0:0:
233,361,45221,1,10,0:0:0:0:
415,241,45370,1,2,0:0:0:0:
209,382,45518,6,0,L|115:365,1,95,2|0,3:2|0:0,0:0:0:0:
0,113,45815,2,0,P|50:183|157:178,1,190,10|0,0:0|3:2,0:0:0:0:
282,27,46261,1,0,3:2:0:0:
274,254,46409,2,0,L|257:160,1,95,10|0,0:0|0:0,0:0:0:0:
423,47,46706,6,0,P|465:26|512:27,1,95,2|0,3:2|0:0,0:0:0:0:
445,206,47003,2,0,L|351:189,1,95,10|0,0:0|0:0,3:0:0:0:
150,75,47300,1,2,3:2:0:0:
272,279,47449,1,0,3:2:0:0:
282,27,47597,2,0,L|265:121,1,95,10|0,0:0|0:0,3:0:0:0:
110,367,47894,5,2,3:2:0:0:
351,189,48043,1,2,3:2:0:0:
64,183,48191,1,8,0:0:0:0:
262,379,48340,1,0,3:2:0:0:
150,75,48488,1,10,0:0:0:0:
377,282,48637,1,8,0:0:0:0:
377,282,48711,1,0,3:2:0:0:
377,282,48785,2,0,L|425:273,1,47.5,0|0,3:2|3:2,0:0:0:0:
512,125,48934,2,0,L|462:116,1,47.5,8|8,0:0|0:0,0:0:0:0:
252,36,49082,6,0,L|270:133,1,95,6|0,3:2|0:0,0:0:0:0:
106,318,49379,2,0,P|58:318|16:298,1,95,10|0,0:0|0:0,0:0:0:0:
152,115,49676,1,2,3:2:0:0:
230,323,49825,1,2,3:2:0:0:
261,83,49973,1,10,0:0:0:0:
110,218,50122,1,2,0:0:0:0:
363,275,50270,5,2,3:2:0:0:
181,141,50419,1,2,0:0:0:0:
389,290,50568,2,0,P|437:290|479:270,1,95,10|0,0:0|0:0,0:0:0:0:
291,195,50865,1,0,3:2:0:0:
362,384,51013,1,0,3:2:0:0:
413,168,51162,2,0,L|396:74,1,95,10|0,0:0|0:0,3:0:0:0:
208,17,51459,6,0,L|191:111,1,95,2|0,3:2|0:0,3:0:0:0:
16,249,51756,2,0,L|-1:155,1,95,10|0,0:0|0:0,3:0:0:0:
188,259,52053,1,2,3:2:0:0:
1,384,52201,1,0,3:2:0:0:
212,239,52350,2,0,P|254:218|301:219,1,95,10|0,0:0|0:0,0:0:0:0:
477,334,52647,6,0,L|460:240,1,95,0|0,3:2|0:0,3:0:0:0:
310,35,52944,2,0,L|293:129,1,95,10|0,0:0|0:0,3:0:0:0:
192,366,53241,1,2,3:2:0:0:
378,189,53389,1,2,3:2:0:0:
93,226,53538,1,10,0:0:0:0:
303,348,53686,1,2,0:0:0:0:
180,82,53835,6,0,P|137:61|90:62,1,95,6|0,3:2|0:0,0:0:0:0:
235,265,54132,2,0,L|252:171,1,95,10|0,0:0|0:0,3:0:0:0:
455,62,54429,1,2,3:2:0:0:
395,280,54577,1,2,3:2:0:0:
464,37,54726,1,10,0:0:0:0:
512,241,54874,1,2,0:0:0:0:
316,101,55023,6,0,P|273:80|226:81,1,95,2|0,3:2|0:0,0:0:0:0:
51,297,55320,2,0,L|240:261,1,190,10|0,0:0|3:2,0:0:0:0:
418,161,55766,1,0,3:2:0:0:
367,384,55914,2,0,L|350:290,1,95,10|0,0:0|0:0,3:0:0:0:
218,132,56211,6,0,P|175:111|128:112,1,95,2|0,3:2|0:0,0:0:0:0:
365,20,56508,2,0,P|407:0|454:0,1,95,10|0,0:0|0:0,0:0:0:0:
332,200,56805,1,2,3:2:0:0:
247,0,56954,1,0,3:2:0:0:
343,230,57102,2,0,L|326:324,1,95,10|0,0:0|3:2,3:0:0:0:
54,203,57399,5,10,0:0:0:0:
377,115,57548,1,0,3:2:0:0:
207,334,57696,1,10,3:0:0:0:
225,124,57845,1,0,3:1:0:0:
334,276,57993,1,2,3:2:0:0:
202,233,58142,1,0,1:2:0:0:
377,115,58290,1,10,0:0:0:0:
323,257,58439,1,0,3:2:0:0:
68,39,58587,6,0,L|49:147,1,104.500003189087,14|0,3:2|0:0,0:0:0:0:
220,335,58884,2,0,L|201:232,1,104.500003189087,10|0,0:0|3:2,0:0:0:0:
387,0,59181,1,10,0:0:0:0:
139,161,59330,1,2,3:2:0:0:
405,228,59478,1,10,0:0:0:0:
250,86,59627,1,2,3:2:0:0:
114,354,59775,6,0,P|61:357|16:331,1,104.500003189087,10|0,0:0|3:2,0:0:0:0:
238,181,60072,2,0,L|341:162,1,104.500003189087,10|0,0:0|3:2,0:0:0:0:
197,305,60370,1,8,0:0:0:0:
154,53,60518,1,0,3:2:0:0:
315,264,60667,2,0,L|296:367,1,104.500003189087,10|0,0:0|3:2,0:0:0:0:
29,180,60964,6,0,P|82:183|127:157,1,104.500003189087,14|0,0:0|3:2,0:0:0:0:
357,116,61261,1,10,0:0:0:0:
197,305,61409,1,0,3:2:0:0:
252,30,61558,1,10,0:0:0:0:
405,230,61706,1,0,3:2:0:0:
125,159,61855,1,10,0:0:0:0:
356,13,62003,1,0,3:2:0:0:
279,235,62152,6,0,L|260:132,1,104.500003189087,8|0,0:0|3:2,0:0:0:0:
2,38,62449,1,10,0:0:0:0:
135,333,62597,1,2,3:2:0:0:
252,30,62746,1,10,0:0:0:0:
11,195,62894,1,2,3:2:0:0:
279,235,63043,1,10,0:0:0:0:
129,58,63191,1,2,3:2:0:0:
274,361,63340,6,0,P|327:364|372:338,1,104.500003189087,14|0,0:0|0:0,0:0:0:0:
512,119,63637,2,0,L|409:100,1,104.500003189087,10|0,0:0|3:2,0:0:0:0:
144,227,63934,1,10,0:0:0:0:
327,0,64082,1,2,3:2:0:0:
308,284,64231,1,10,0:0:0:0:
244,61,64379,1,2,3:2:0:0:
170,331,64528,6,0,L|67:312,1,104.500003189087,10|0,0:0|3:2,0:0:0:0:
0,85,64825,2,0,L|103:66,1,104.500003189087,10|0,0:0|3:2,0:0:0:0:
338,98,65122,1,8,0:0:0:0:
144,227,65270,1,0,3:2:0:0:
222,0,65419,2,0,L|241:103,1,104.500003189087,10|0,0:0|3:2,0:0:0:0:
438,359,65716,6,0,L|457:256,1,104.500003189087,14|0,0:0|0:2,0:0:0:0:
379,13,66013,1,10,0:0:0:0:
295,238,66162,1,0,3:2:0:0:
512,70,66310,1,10,0:0:0:0:
483,314,66459,1,0,3:2:0:0:
298,109,66607,2,0,P|252:84|201:87,1,104.500003189087,10|0,0:0|0:0,0:0:0:0:
0,318,66904,5,14,0:0:0:0:
100,30,67053,1,2,3:2:0:0:
182,353,67201,2,0,L|285:334,1,104.500003189087,10|0,0:0|3:2,0:0:0:0:
512,107,67498,5,10,0:0:0:0:
202,190,67647,1,2,3:2:0:0:
480,384,67795,2,0,L|461:281,1,104.500003189087,10|0,0:0|3:2,0:0:0:0:
330,22,68092,6,0,P|284:-2|233:1,1,104.500003189087,14|0,0:0|3:2,0:0:0:0:
61,215,68389,2,0,L|164:196,1,104.500003189087,10|0,0:0|3:2,0:0:0:0:
414,110,68686,1,10,0:0:0:0:
306,353,68835,1,2,3:2:0:0:
286,141,68983,1,10,0:0:0:0:
440,258,69132,1,2,3:2:0:0:
330,22,69280,5,10,0:0:0:0:
272,251,69429,1,2,3:2:0:0:
512,90,69577,2,0,P|466:113|414:110,1,104.500003189087,10|0,0:0|3:2,0:0:0:0:
193,37,69874,1,8,0:0:0:0:
272,251,70023,1,0,3:2:0:0:
182,17,70171,1,10,0:0:0:0:
395,105,70320,1,0,3:2:0:0:
130,226,70469,6,0,L|27:207,1,104.500003189087,14|0,0:0|3:2,0:0:0:0:
245,132,70766,1,10,0:0:0:0:
176,347,70914,1,0,3:2:0:0:
114,109,71063,1,10,0:0:0:0:
322,235,71211,1,0,3:2:0:0:
87,86,71360,1,10,0:0:0:0:
238,274,71508,1,0,3:2:0:0:
309,20,71657,6,0,P|355:-3|406:0,1,104.500003189087,8|0,0:0|3:2,0:0:0:0:
512,241,71954,2,0,L|409:222,1,104.500003189087,10|0,0:0|3:2,0:0:0:0:
114,109,72251,1,10,0:0:0:0:
276,378,72399,1,2,3:2:0:0:
372,76,72548,1,10,0:0:0:0:
238,274,72696,1,2,3:2:0:0:
236,0,72845,6,0,L|255:103,1,104.500003189087,14|0,0:0|0:0,0:0:0:0:
74,300,73142,2,0,L|93:197,1,104.500003189087,10|0,0:0|3:2,0:0:0:0:
343,39,73439,1,10,0:0:0:0:
231,317,73587,1,2,3:2:0:0:
125,62,73736,1,10,0:0:0:0:
346,176,73884,1,2,3:2:0:0:
100,42,74033,6,0,P|54:19|3:22,1,104.500003189087,10|0,0:0|3:2,0:0:0:0:
115,253,74330,2,0,P|166:256|212:233,1,104.500003189087,10|0,0:0|3:2,0:0:0:0:
352,71,74627,1,8,0:0:0:0:
148,161,74775,1,0,3:2:0:0:
364,278,74924,2,0,L|345:175,1,104.500003189087,10|0,0:0|3:2,0:0:0:0:
55,61,75221,6,0,L|36:164,1,104.500003189087,14|0,0:0|3:2,0:0:0:0:
161,384,75518,1,10,0:0:0:0:
148,161,75667,1,0,3:2:0:0:
0,353,75815,1,10,0:0:0:0:
45,112,75964,1,0,3:2:0:0:
242,284,76112,1,10,0:0:0:0:
27,97,76261,1,0,3:2:0:0:
361,69,76409,5,14,0:0:0:0:
111,289,76558,1,0,3:2:0:0:
259,0,76706,5,10,0:0:0:0:
400,306,76855,1,0,3:2:0:0:
133,41,77003,5,10,0:0:0:0:
459,171,77152,1,0,3:2:0:0:
107,29,77300,5,10,0:0:0:0:
240,371,77449,1,0,3:2:0:0:
384,0,77597,6,0,L|364:110,1,109.250002083778,14|0,0:0|0:0,0:0:0:0:
132,297,77894,5,8,0:0:0:0:
256,39,78043,1,2,3:2:0:0:
352,334,78191,1,8,0:0:0:0:
165,102,78340,1,2,3:2:0:0:
240,371,78488,1,8,0:0:0:0:
356,138,78637,1,2,3:2:0:0:
58,196,78785,5,8,0:0:0:0:
256,39,78934,1,2,3:2:0:0:
182,292,79082,1,8,0:0:0:0:
61,76,79231,1,2,3:2:0:0:
260,207,79379,5,10,0:0:0:0:
154,27,79528,1,2,3:2:0:0:
281,233,79676,1,10,0:0:0:0:
58,196,79825,1,2,3:2:0:0:
356,138,79973,6,0,L|463:157,1,109.250002083778,14|0,0:0|0:0,0:0:0:0:
279,365,80270,5,8,0:0:0:0:
193,103,80419,1,2,3:2:0:0:
427,297,80568,1,8,0:0:0:0:
167,214,80716,1,2,3:2:0:0:
417,44,80865,1,8,0:0:0:0:
343,302,81013,1,2,3:2:0:0:
285,8,81162,5,10,0:0:0:0:
483,192,81310,1,2,3:2:0:0:
193,103,81459,1,10,0:0:0:0:
448,26,81607,1,2,3:2:0:0:
277,227,81756,5,10,0:0:0:0:
194,15,81904,1,2,3:2:0:0:
289,251,82053,1,10,0:0:0:0:
365,52,82201,1,2,3:2:0:0:
107,233,82350,6,0,L|-2:213,1,109.250002083778,14|0,0:0|3:2,0:0:0:0:
226,384,82647,5,8,0:0:0:0:
266,101,82795,1,2,3:2:0:0:
26,304,82944,1,8,0:0:0:0:
175,45,83092,1,2,3:2:0:0:
294,305,83241,1,8,0:0:0:0:
268,0,83389,1,2,3:2:0:0:
164,282,83538,5,10,0:0:0:0:
41,27,83686,1,2,3:2:0:0:
308,129,83835,1,10,0:0:0:0:
55,229,83983,1,2,3:2:0:0:
251,22,84132,5,10,0:0:0:0:
284,252,84280,1,2,3:2:0:0:
247,0,84429,1,10,0:0:0:0:
139,194,84577,1,2,3:2:0:0:
412,74,84726,6,0,P|459:47|513:51,1,109.250002083778,14|0,0:0|0:0,0:0:0:0:
399,324,85023,5,8,0:0:0:0:
166,79,85171,1,0,3:2:0:0:
493,139,85320,1,8,0:0:0:0:
187,88,85469,1,2,3:2:0:0:
304,384,85617,1,8,0:0:0:0:
412,74,85766,1,2,3:2:0:0:
157,293,85914,5,10,0:0:0:0:
291,34,86063,1,2,3:2:0:0:
375,314,86211,1,10,0:0:0:0:
112,184,86360,1,2,3:2:0:0:
413,40,86508,5,10,0:0:0:0:
268,384,86657,1,2,3:2:0:0:
157,0,86805,5,10,0:0:0:0:
502,260,86954,1,10,0:0:0:0:
