osu file format v14

[General]
AudioFilename: audio.mp3
AudioLeadIn: 0
PreviewTime: 27319
Countdown: 0
SampleSet: Soft
StackLeniency: 0.7
Mode: 2
LetterboxInBreaks: 0
WidescreenStoryboard: 0

[Editor]
Bookmarks: 604,7611,14618,83815,114472,117976,121479,124983,128487,142501
DistanceSpacing: 1.6
BeatDivisor: 8
GridSize: 16
TimelineZoom: 1.7

[Metadata]
Title:After Pain
TitleUnicode:アフターペイン
Artist:Mu (CV: Arisa Kori)
ArtistUnicode:ムウ (CV: 香里有佐)
Creator:rew0825
Version:Crying B
Source:MILGRAM
Tags:ミルグラム kouri kōri deco*27 rockwell otoiro akka dmym 山中拓也 takuya yamanaka female vocal vocals japanese pop j-pop jpop
BeatmapID:3952443
BeatmapSetID:1915793

[Difficulty]
HPDrainRate:6
CircleSize:4
OverallDifficulty:9
ApproachRate:9
SliderMultiplier:2.3
SliderTickRate:2

[Events]
//Background and Video events
0,0,"bg.jpg",0,0
Video,-90,"vdo.m4v"
//Break Periods
2,145129,157448
//Storyboard Layer 0 (Background)
//Storyboard Layer 1 (Fail)
//Storyboard Layer 2 (Pass)
//Storyboard Layer 3 (Foreground)
//Storyboard Layer 4 (Overlay)
//Storyboard Sound Samples

[TimingPoints]
604,437.956204379562,4,2,25,50,1,0
822,-100,4,2,30,45,0,0
932,-100,4,2,25,50,0,0
1698,-100,4,2,30,45,0,0
1808,-100,4,2,25,50,0,0
3450,-100,4,2,30,45,0,0
3560,-100,4,2,25,50,0,0
4326,-100,4,2,30,45,0,0
4436,-100,4,2,25,50,0,0
5202,-100,4,2,30,45,0,0
5312,-100,4,2,25,50,0,0
6078,-100,4,2,30,45,0,0
6188,-100,4,2,25,50,0,0
6735,-100,4,2,30,45,0,0
6845,-100,4,2,25,50,0,0
9582,-100,4,2,30,45,0,0
9692,-100,4,2,25,50,0,0
10458,-100,4,2,30,45,0,0
10568,-100,4,2,25,50,0,0
11333,-100,4,2,30,45,0,0
11443,-100,4,2,25,50,0,0
11990,-100,4,2,30,45,0,0
12100,-100,4,2,25,50,0,0
14618,-100,4,2,25,60,0,0
20749,-100,4,2,30,55,0,0
20859,-100,4,2,25,60,0,0
28633,-100,4,2,25,70,0,1
28742,-100,4,2,25,70,0,0
33888,-100,4,2,30,65,0,0
33998,-100,4,2,25,70,0,0
34764,-100,4,2,30,65,0,0
34874,-100,4,2,25,70,0,0
37830,-100,4,2,35,65,0,0
37940,-100,4,2,25,70,0,0
42647,-100,4,2,25,70,0,1
42757,-100,4,2,25,70,0,0
47903,-100,4,2,30,65,0,0
48013,-100,4,2,25,70,0,0
48779,-100,4,2,30,65,0,0
48889,-100,4,2,25,70,0,0
51844,-100,4,2,35,65,0,0
51954,-100,4,2,25,70,0,0
54034,-100,4,2,30,65,0,0
54144,-100,4,2,25,70,0,0
56662,-100,4,2,25,70,0,1
57100,-100,4,2,35,65,0,1
57210,-100,4,2,25,70,0,1
60603,-100,4,2,35,65,0,1
60713,-100,4,2,25,70,0,1
64107,-100,4,2,35,65,0,1
64217,-100,4,2,25,70,0,1
67611,-100,4,2,35,65,0,1
67721,-100,4,2,25,70,0,1
70458,-100,4,2,25,50,0,0
70676,-100,4,2,25,20,0,0
72209,-100,4,2,25,50,0,0
72647,-100,4,2,30,45,0,0
72757,-100,4,2,25,50,0,0
73523,-100,4,2,30,45,0,0
73633,-100,4,2,25,50,0,0
75275,-100,4,2,30,45,0,0
75385,-100,4,2,25,50,0,0
76151,-100,4,2,30,45,0,0
76261,-100,4,2,25,50,0,0
77027,-100,4,2,30,45,0,0
77137,-100,4,2,25,50,0,0
77903,-100,4,2,30,45,0,0
78013,-100,4,2,25,50,0,0
78560,-100,4,2,30,45,0,0
78670,-100,4,2,25,50,0,0
79436,-100,4,2,25,60,0,0
82282,-100,4,2,30,55,0,0
82392,-100,4,2,25,60,0,0
83158,-100,4,2,30,55,0,0
83268,-100,4,2,25,60,0,0
83815,-100,4,2,30,55,0,0
83925,-100,4,2,25,60,0,0
86443,-100,4,2,25,70,0,1
86552,-100,4,2,25,70,0,0
91698,-100,4,2,30,65,0,0
91808,-100,4,2,25,70,0,0
92574,-100,4,2,30,65,0,0
92684,-100,4,2,25,70,0,0
95640,-100,4,2,35,65,0,0
95750,-100,4,2,25,70,0,0
100458,-100,4,2,25,70,0,1
100567,-100,4,2,25,70,0,0
105713,-100,4,2,30,65,0,0
105823,-100,4,2,25,70,0,0
106589,-100,4,2,30,65,0,0
106699,-100,4,2,25,70,0,0
109655,-100,4,2,35,65,0,0
109765,-100,4,2,25,70,0,0
113596,-100,4,2,25,60,0,0
114472,-100,4,2,25,50,0,0
128487,-100,4,2,25,60,0,0
145129,437.956204379562,4,2,25,50,1,0
158048,-100,4,2,25,50,0,0
159143,-100,4,2,25,70,0,1
159253,-100,4,2,25,70,0,0
164399,-100,4,2,30,65,0,0
164509,-100,4,2,25,70,0,0
165275,-100,4,2,30,65,0,0
165385,-100,4,2,25,70,0,0
168341,-100,4,2,35,65,0,0
168451,-100,4,2,25,70,0,0
170530,-100,4,2,30,65,0,0
170640,-100,4,2,25,70,0,0
173158,-100,4,2,25,70,0,1
173596,-100,4,2,35,65,0,1
173706,-100,4,2,25,70,0,1
177099,-100,4,2,35,65,0,1
177209,-100,4,2,25,70,0,1
180603,-100,4,2,35,65,0,1
180713,-100,4,2,25,70,0,1
184107,-100,4,2,35,65,0,1
184217,-100,4,2,25,70,0,1
186953,-100,4,2,25,70,0,0
187172,-100,4,2,25,70,0,1
187610,-100,4,2,35,65,0,1
187720,-100,4,2,25,70,0,1
191113,-100,4,2,35,65,0,1
191223,-100,4,2,25,70,0,1
194617,-100,4,2,35,65,0,1
194727,-100,4,2,25,70,0,1
198121,-100,4,2,35,65,0,1
198231,-100,4,2,25,70,0,1
200968,-100,4,2,25,70,0,0
202720,-100,4,2,25,50,0,0

[Colours]
Combo1 : 203,253,128
Combo2 : 254,224,133
Combo3 : 255,244,113

[HitObjects]
159,272,385,5,2,0:0:0:0:
354,272,604,2,0,P|469:215|354:98,1,345,2|2,1:2|0:0,0:0:0:0:
158,97,1479,2,0,P|43:154|158:271,1,345,2|2,1:2|0:0,0:0:0:0:
353,271,2355,5,2,1:2:0:0:
444,201,2574,1,2,1:2:0:0:
353,271,2793,1,2,0:0:0:0:
237,271,3012,1,2,0:0:0:0:
432,271,3231,2,0,P|496:192|339:85,1,345,2|2,1:2|0:0,0:0:0:0:
142,85,4107,6,0,P|27:142|142:259,1,345,2|2,1:2|0:0,0:0:0:0:
337,259,4983,2,0,P|452:202|337:85,1,345,2|2,1:2|0:0,0:0:0:0:
141,84,5859,6,0,P|62:144|141:205,1,230,2|2,1:2|0:0,0:0:0:0:
337,204,6516,2,0,P|416:264|337:325,1,230,2|0,0:0|1:2,0:0:0:0:
140,324,7173,1,8,0:3:0:0:
111,274,7282,1,0,1:0:0:0:
143,225,7392,1,8,0:3:0:0:
201,225,7501,1,8,0:3:0:0:
316,225,7611,6,0,L|436:225,1,115,2|2,1:2|1:2,0:0:0:0:
234,225,8049,2,0,P|156:160|235:101,1,230,2|2,3:2|1:2,0:0:0:0:
350,100,8706,1,2,1:2:0:0:
154,100,8925,2,0,L|154:222,1,115,2|0,3:2|0:0,0:0:0:0:
350,219,9363,6,0,P|429:157|349:100,1,230,2|2,1:2|3:2,0:0:0:0:
233,99,10020,1,2,0:0:0:0:
428,99,10239,2,0,P|425:202|318:215,1,230,2|0,1:2|3:2,0:0:0:0:
432,214,10895,1,2,3:2:0:0:
236,214,11114,6,0,P|131:211|131:108,1,230,2|2,1:2|3:2,0:0:0:0:
326,108,11771,2,0,P|431:111|431:214,1,230,2|2,0:0|1:2,0:0:0:0:
234,213,12428,2,0,L|108:213,1,115,2|2,3:2|0:0,0:0:0:0:
315,213,12866,6,0,L|441:213,1,115,2|0,1:2|1:2,0:0:0:0:
234,213,13304,2,0,P|154:162|235:95,1,230,0|0,3:2|1:2,0:0:0:0:
347,94,13961,1,0,1:2:0:0:
152,94,14180,2,0,L|29:94,1,115,0|0,3:2|3:2,0:0:0:0:
337,94,14618,6,0,P|415:167|337:212,1,230,6|8,1:2|1:2,0:0:0:0:
152,211,15275,1,2,0:0:0:0:
336,211,15494,2,0,P|435:205|465:93,1,230,0|8,1:2|1:2,0:0:0:0:
349,93,16151,1,2,0:0:0:0:
49,93,16370,6,0,L|49:217,1,115,2|2,1:2|0:0,0:0:0:0:
245,208,16808,2,0,L|371:208,1,115,10|2,1:2|0:0,0:0:0:0:
163,208,17246,2,0,P|85:256|163:328,1,230,2|8,1:2|1:2,0:0:0:0:
348,328,17903,1,2,3:2:0:0:
48,328,18122,6,0,P|48:269|187:223,1,230,2|8,1:2|1:2,0:0:0:0:
372,223,18779,1,2,0:0:0:0:
187,223,18998,2,0,P|79:221|47:118,1,230,2|8,1:2|1:2,0:0:0:0:
163,118,19655,1,2,0:0:0:0:
462,118,19874,6,0,P|467:187|336:223,1,230,2|10,1:2|1:2,0:0:0:0:
150,222,20531,2,0,P|73:175|151:102,1,230,2|0,0:0|0:0,0:0:0:0:
324,102,21187,1,8,1:2:0:0:
150,102,21406,1,2,0:0:0:0:
472,102,21625,6,0,L|472:216,1,115,6|2,1:2|0:0,0:0:0:0:
275,217,22063,2,0,L|274:338,1,115,10|0,1:2|0:0,0:0:0:0:
77,331,22501,2,0,L|197:331,1,115,2|2,1:2|0:0,0:0:0:0:
388,331,22939,2,0,L|388:216,1,115,10|0,1:2|0:0,0:0:0:0:
87,216,23377,6,0,L|87:99,1,115,6|0,1:2|0:0,0:0:0:0:
283,101,23815,2,0,L|161:101,1,115,10|2,1:2|0:0,0:0:0:0:
364,101,24253,2,0,L|364:220,1,115,2|0,1:2|0:0,0:0:0:0:
167,216,24691,2,0,L|46:216,1,115,8|2,1:2|0:0,0:0:0:0:
340,216,25129,5,6,1:2:0:0:
372,263,25239,1,8,0:0:0:0:
340,310,25348,1,8,0:0:0:0:
276,310,25458,1,8,0:0:0:0:
161,310,25567,1,2,1:2:0:0:
129,263,25676,1,8,0:0:0:0:
161,216,25786,1,10,0:0:0:0:
225,216,25895,1,8,0:0:0:0:
425,216,26005,5,6,1:2:0:0:
456,168,26114,1,8,0:0:0:0:
424,119,26224,1,8,0:0:0:0:
361,119,26333,1,8,0:0:0:0:
245,119,26443,2,0,L|243:186,1,57.5,2|8,1:2|0:0,0:0:0:0:
358,176,26662,2,0,L|359:246,1,57.5,10|8,0:0|0:0,0:0:0:0:
156,233,26881,6,0,L|38:233,1,115,2|2,1:2|1:2,0:0:0:0:
237,233,27319,2,0,L|116:233,1,115,2|2,1:2|1:2,0:0:0:0:
318,233,27757,2,0,L|440:233,1,115,10|10,0:2|0:2,0:0:0:0:
132,233,28195,2,0,L|131:349,1,115,8|10,1:1|0:2,0:0:0:0:
454,347,28633,6,0,L|334:347,1,115,6|2,1:2|0:0,0:0:0:0:
154,347,29071,2,0,L|155:232,1,115,10|2,1:2|0:0,0:0:0:0:
455,232,29509,2,0,L|455:116,1,115,2|2,1:2|0:0,0:0:0:0:
270,117,29947,1,10,1:2:0:0:
454,117,30166,1,2,0:0:0:0:
154,117,30385,6,0,L|34:117,1,115,2|2,1:2|0:0,0:0:0:0:
234,117,30822,2,0,L|363:117,1,115,10|2,1:2|0:0,0:0:0:0:
48,117,31260,2,0,L|48:235,1,115,2|2,1:2|0:0,0:0:0:0:
232,232,31698,1,10,1:2:0:0:
47,232,31917,1,2,0:0:0:0:
346,232,32136,6,0,L|467:232,1,115,0|2,1:2|0:0,0:0:0:0:
264,232,32574,2,0,L|389:232,1,115,10|2,1:2|0:0,0:0:0:0:
78,232,33012,2,0,P|16:152|105:105,1,230,2|10,1:2|1:2,0:0:0:0:
405,105,33669,6,0,P|467:185|378:232,1,230,2|2,0:0|0:0,0:0:0:0:
192,231,34326,1,10,1:2:0:0:
491,231,34545,2,0,P|490:289|350:342,1,230,2|0,0:0|0:0,0:0:0:0:
165,342,35202,1,8,1:2:0:0:
349,342,35421,1,2,0:0:0:0:
26,342,35640,6,0,P|26:277|159:214,1,230,6|10,1:2|1:2,0:0:0:0:
343,213,36297,1,2,0:0:0:0:
43,213,36516,2,0,B|38:8|38:8|40:56,1,230,2|10,1:2|1:2,0:0:0:0:
339,34,37173,6,0,L|341:152,1,115,2|0,0:0|1:2,0:0:0:0:
144,146,37611,2,0,P|65:203|145:264,1,230,2|0,0:0|0:0,0:0:0:0:
341,263,38268,2,0,P|420:218|341:145,1,230,0|10,1:2|1:2,0:0:0:0:
158,144,38925,1,2,0:0:0:0:
457,144,39144,6,0,L|321:143,1,115,2|2,1:2|0:0,0:0:0:0:
145,143,39582,2,0,L|143:260,1,115,10|0,1:2|0:0,0:0:0:0:
443,257,40020,2,0,P|444:199|308:134,1,230,2|10,1:2|1:2,0:0:0:0:
491,134,40676,1,2,0:0:0:0:
191,134,40895,6,0,L|190:255,1,115,0|0,1:2|1:2,0:0:0:0:
249,248,41224,1,0,1:2:0:0:
364,248,41333,2,0,L|364:364,1,115,8|2,1:2|3:2,0:0:0:0:
306,363,41662,1,0,3:0:0:0:
105,363,41771,6,0,L|104:305,1,57.5,2|8,1:2|1:2,0:0:0:0:
220,305,41990,2,0,L|286:304,1,57.5,2|8,1:2|1:2,0:0:0:0:
161,304,42209,2,0,L|43:304,1,115,10|8,1:2|0:0,0:0:0:0:
369,304,42647,6,0,L|487:305,1,115,6|2,1:2|0:0,0:0:0:0:
287,304,43085,2,0,L|168:305,1,115,10|2,1:2|0:0,0:0:0:0:
472,304,43523,2,0,L|355:304,1,115,2|2,1:2|0:0,0:0:0:0:
172,304,43961,1,10,1:2:0:0:
356,304,44180,1,2,0:0:0:0:
56,304,44399,6,0,L|56:189,1,115,2|2,1:2|0:0,0:0:0:0:
252,189,44837,2,0,L|376:189,1,115,10|2,1:2|0:0,0:0:0:0:
66,189,45275,2,0,L|189:189,1,115,2|2,1:2|0:0,0:0:0:0:
365,189,45713,1,10,1:2:0:0:
180,189,45932,1,2,0:0:0:0:
479,189,46151,6,0,L|478:71,1,115,0|2,1:2|0:0,0:0:0:0:
281,74,46589,2,0,L|162:74,1,115,10|2,1:2|0:0,0:0:0:0:
466,74,47027,2,0,P|466:133|326:176,1,230,2|10,1:2|1:2,0:0:0:0:
26,176,47684,6,0,L|275:176,1,230,2|2,0:0|0:0,0:0:0:0:
71,176,48341,1,10,1:2:0:0:
347,176,48560,2,0,P|427:239|347:291,1,230,2|0,0:0|0:0,0:0:0:0:
162,291,49217,1,8,1:2:0:0:
346,291,49436,1,2,0:0:0:0:
23,291,49655,6,0,L|23:177,1,115,6|2,1:2|0:0,0:0:0:0:
207,176,50093,1,10,1:2:0:0:
22,176,50312,1,2,0:0:0:0:
321,176,50531,2,0,P|400:129|321:58,1,230,2|10,1:2|1:2,0:0:0:0:
23,57,51187,6,0,L|22:179,1,115,2|0,0:0|1:2,0:0:0:0:
322,171,51625,2,0,P|401:228|320:285,1,230,2|0,0:0|0:0,0:0:0:0:
123,284,52282,2,0,P|236:263|259:164,1,230,0|10,1:2|1:2,0:0:0:0:
74,161,52939,1,2,0:0:0:0:
373,161,53158,6,0,L|374:284,1,115,2|2,1:2|0:0,0:0:0:0:
189,275,53596,1,10,1:2:0:0:
488,275,53815,2,0,P|491:212|356:164,1,230,2|2,0:0|0:0,0:0:0:0:
171,164,54472,1,10,1:2:0:0:
355,164,54691,1,2,0:0:0:0:
55,164,54910,6,0,L|176:164,1,115,0|0,1:2|1:2,0:0:0:0:
354,164,55348,1,0,1:2:0:0:
169,164,55567,1,2,1:2:0:0:
468,164,55786,1,10,1:2:0:0:
283,164,56005,1,2,3:2:0:0:
468,164,56224,2,0,L|469:286,1,115,2|0,1:2|3:0,0:0:0:0:
145,278,56662,5,6,1:2:0:0:
329,278,56881,2,0,P|408:227|328:159,1,230,2|2,0:0|0:0,0:0:0:0:
29,158,57538,2,0,P|26:99|165:50,1,230,2|10,1:2|1:2,0:0:0:0:
347,48,58195,1,2,0:0:0:0:
47,48,58414,6,0,L|46:169,1,115,2|2,1:2|0:0,0:0:0:0:
230,162,58852,1,10,1:2:0:0:
45,162,59071,1,2,0:0:0:0:
344,162,59290,2,0,L|346:276,1,115,2|0,1:2|0:0,0:0:0:0:
149,276,59728,2,0,L|33:277,1,115,8|0,1:2|0:0,0:0:0:0:
325,283,60166,5,2,1:2:0:0:
140,283,60385,2,0,P|62:239|141:169,1,230,2|2,0:0|0:0,0:0:0:0:
440,169,61041,2,0,P|440:106|303:52,1,230,2|10,1:2|1:2,0:0:0:0:
489,51,61698,1,2,0:0:0:0:
189,51,61917,6,0,L|189:170,1,115,2|2,1:2|0:0,0:0:0:0:
373,166,62355,1,10,1:2:0:0:
73,166,62574,1,2,0:0:0:0:
373,166,62793,2,0,P|452:235|372:280,1,230,2|8,1:2|1:2,0:0:0:0:
188,280,63450,1,0,0:0:0:0:
487,280,63669,5,6,1:2:0:0:
302,280,63888,2,0,P|302:221|443:168,1,230,0|2,0:0|0:0,0:0:0:0:
140,166,64545,2,0,P|63:122|143:50,1,230,2|10,1:2|1:2,0:0:0:0:
327,49,65202,1,2,0:0:0:0:
27,49,65421,6,0,L|147:50,1,115,2|2,1:2|0:0,0:0:0:0:
326,49,65859,2,0,L|325:168,1,115,10|2,1:2|0:0,0:0:0:0:
24,163,66297,2,0,P|17:224|151:268,1,230,2|8,1:2|1:2,0:0:0:0:
335,268,66954,1,0,0:0:0:0:
35,268,67173,5,2,1:2:0:0:
219,268,67392,2,0,P|215:207|74:154,1,230,2|2,0:0|0:0,0:0:0:0:
376,153,68049,2,0,P|456:219|374:270,1,230,2|10,1:2|1:2,0:0:0:0:
192,271,68706,1,2,0:0:0:0:
491,271,68925,6,0,L|491:155,1,115,2|2,1:2|0:0,0:0:0:0:
294,156,69363,2,0,L|409:157,1,115,10|2,1:2|0:0,0:0:0:0:
211,157,69801,2,0,B|211:275,1,115,2|0,1:2|0:0,0:0:0:0:
396,271,70239,1,8,1:2:0:0:
211,271,70458,5,2,0:0:0:0:
256,192,70676,12,0,71990,0:0:0:0:
353,295,72209,5,2,0:0:0:0:
158,295,72428,2,0,P|158:185|354:150,1,345,6|2,1:2|0:0,0:0:0:0:
158,295,73304,2,0,P|158:185|354:150,1,345,2|2,1:2|0:0,0:0:0:0:
158,295,74180,5,2,1:2:0:0:
67,225,74399,1,2,1:2:0:0:
158,295,74618,1,2,0:0:0:0:
274,295,74837,1,2,0:0:0:0:
79,295,75056,2,0,P|15:216|172:109,1,345,2|2,1:2|0:0,0:0:0:0:
369,109,75932,6,0,P|369:219|173:254,1,345,2|2,1:2|0:0,0:0:0:0:
369,109,76808,2,0,P|369:219|173:254,1,345,2|2,1:2|0:0,0:0:0:0:
368,282,77684,6,0,P|416:237|319:156,1,230,2|2,1:2|0:0,0:0:0:0:
122,155,78341,2,0,P|74:110|171:29,1,230,2|0,0:0|1:2,0:0:0:0:
367,28,78998,1,8,0:3:0:0:
397,76,79107,1,0,1:0:0:0:
367,125,79217,1,8,0:3:0:0:
309,125,79326,1,8,0:3:0:0:
106,125,79436,6,0,L|105:243,1,115,6|2,1:2|1:2,0:0:0:0:
301,239,79874,2,0,P|377:202|301:122,1,230,2|2,3:2|1:2,0:0:0:0:
116,121,80531,1,2,1:2:0:0:
299,121,80749,2,0,L|430:121,1,115,2|2,3:2|0:0,0:0:0:0:
96,121,81187,6,0,L|96:244,1,115,2|0,1:2|1:2,0:0:0:0:
280,236,81625,2,0,L|161:236,1,115,2|2,3:2|0:0,0:0:0:0:
349,236,82063,2,0,P|425:161|345:122,1,230,2|0,1:2|3:2,0:0:0:0:
161,121,82720,1,2,3:2:0:0:
460,121,82939,6,0,P|497:219|401:243,1,230,2|2,1:2|3:2,0:0:0:0:
216,243,83596,2,0,P|278:157|396:132,1,230,2|2,0:0|1:2,0:0:0:0:
211,102,84253,1,2,3:2:0:0:
395,102,84472,1,2,0:0:0:0:
95,102,84691,6,0,L|93:226,1,115,0|0,1:2|1:2,0:0:0:0:
289,216,85129,2,0,L|160:217,1,115,0|2,1:2|1:2,0:0:0:0:
370,216,85567,2,0,L|373:97,1,115,2|2,1:2|1:2,0:0:0:0:
188,101,86005,1,2,3:2:0:0:
372,101,86224,1,2,3:2:0:0:
49,101,86443,6,0,L|48:217,1,115,6|2,1:2|0:0,0:0:0:0:
244,215,86881,2,0,L|369:215,1,115,10|2,1:2|0:0,0:0:0:0:
58,215,87319,2,0,L|58:99,1,115,2|2,1:2|0:0,0:0:0:0:
242,100,87757,1,10,1:2:0:0:
57,100,87976,1,2,0:0:0:0:
356,100,88195,6,0,L|478:99,1,115,2|2,1:2|0:0,0:0:0:0:
274,99,88633,2,0,L|156:98,1,115,10|2,1:2|0:0,0:0:0:0:
459,98,89071,2,0,L|460:218,1,115,2|2,1:2|0:0,0:0:0:0:
275,212,89509,1,10,1:2:0:0:
459,212,89728,1,2,0:0:0:0:
159,212,89947,6,0,L|286:212,1,115,0|2,1:2|0:0,0:0:0:0:
470,212,90385,2,0,L|470:95,1,115,10|2,1:2|0:0,0:0:0:0:
170,97,90822,2,0,P|91:157|172:215,1,230,2|10,1:2|1:2,0:0:0:0:
471,215,91479,6,0,P|468:270|319:320,1,230,2|2,0:0|0:0,0:0:0:0:
140,323,92136,1,10,1:2:0:0:
439,323,92355,2,0,P|496:267|401:194,1,230,2|0,0:0|0:0,0:0:0:0:
218,193,93012,1,8,1:2:0:0:
402,193,93231,1,2,0:0:0:0:
79,193,93450,6,0,P|76:141|223:88,1,230,6|10,1:2|1:2,0:0:0:0:
401,83,94107,1,2,0:0:0:0:
101,83,94326,2,0,P|23:144|102:208,1,230,2|10,1:2|1:2,0:0:0:0:
286,208,94983,6,0,L|409:208,1,115,2|0,0:0|1:2,0:0:0:0:
100,208,95421,2,0,P|95:145|232:91,1,230,2|0,0:0|0:0,0:0:0:0:
424,88,96078,2,0,P|421:149|276:200,1,230,0|10,1:2|1:2,0:0:0:0:
97,203,96735,1,2,0:0:0:0:
396,203,96954,6,0,L|398:319,1,115,2|2,1:2|0:0,0:0:0:0:
201,317,97392,2,0,L|83:316,1,115,10|0,1:2|0:0,0:0:0:0:
386,316,97830,2,0,P|463:278|379:212,1,230,2|10,1:2|1:2,0:0:0:0:
196,210,98487,1,2,0:0:0:0:
495,210,98706,6,0,L|496:93,1,115,0|0,1:2|1:2,0:0:0:0:
438,95,99034,1,0,1:2:0:0:
322,95,99144,2,0,L|203:95,1,115,8|2,1:2|3:2,0:0:0:0:
265,95,99472,1,0,3:0:0:0:
467,95,99582,6,0,L|466:157,1,57.5,2|8,1:2|1:2,0:0:0:0:
350,152,99801,2,0,L|349:218,1,57.5,2|8,1:2|1:2,0:0:0:0:
471,209,100020,2,0,L|353:210,1,115,10|8,1:2|0:0,0:0:0:0:
25,209,100458,6,0,L|26:94,1,115,6|2,1:2|0:0,0:0:0:0:
221,94,100895,2,0,L|101:94,1,115,10|2,1:2|0:0,0:0:0:0:
406,94,101333,2,0,L|407:213,1,115,2|2,1:2|0:0,0:0:0:0:
222,208,101771,1,10,1:2:0:0:
406,208,101990,1,2,0:0:0:0:
106,208,102209,6,0,L|229:208,1,115,2|2,1:2|0:0,0:0:0:0:
417,208,102647,2,0,L|417:94,1,115,10|2,1:2|0:0,0:0:0:0:
116,93,103085,2,0,L|115:211,1,115,2|2,1:2|0:0,0:0:0:0:
299,207,103523,1,10,1:2:0:0:
114,207,103742,1,2,0:0:0:0:
413,207,103961,6,0,L|280:207,1,115,0|2,1:2|0:0,0:0:0:0:
101,207,104399,2,0,L|99:324,1,115,10|2,1:2|0:0,0:0:0:0:
399,321,104837,2,0,P|477:274|400:200,1,230,2|10,1:2|1:2,0:0:0:0:
99,200,105494,6,0,P|97:141|237:87,1,230,2|2,0:0|0:0,0:0:0:0:
49,85,106151,1,10,1:2:0:0:
348,85,106370,2,0,P|337:153|196:190,1,230,2|0,0:0|0:0,0:0:0:0:
383,191,107027,1,8,1:2:0:0:
198,191,107246,1,2,0:0:0:0:
491,191,107465,6,0,L|491:313,1,115,6|2,1:2|0:0,0:0:0:0:
306,306,107903,1,10,1:2:0:0:
490,306,108122,1,2,0:0:0:0:
190,306,108341,2,0,P|100:305|64:186,1,230,2|10,1:2|1:2,0:0:0:0:
364,186,108998,6,0,L|367:68,1,115,2|0,0:0|1:2,0:0:0:0:
66,71,109436,2,0,P|55:158|172:190,1,230,2|0,0:0|0:0,0:0:0:0:
360,192,110093,2,0,P|263:192|198:299,1,230,0|10,1:2|1:2,0:0:0:0:
382,296,110749,1,2,0:0:0:0:
82,296,110968,6,0,L|207:297,1,115,2|2,1:2|0:0,0:0:0:0:
381,296,111406,1,10,1:2:0:0:
81,296,111625,2,0,L|80:181,1,115,2|0,0:0|1:2,0:0:0:0:
276,180,112063,2,0,L|277:66,1,115,2|10,0:0|1:2,0:0:0:0:
92,65,112501,1,2,0:0:0:0:
391,65,112720,5,0,1:2:0:0:
207,65,112939,1,0,1:2:0:0:
392,64,113159,2,0,L|390:179,1,115,0|0,1:2|1:2,0:0:0:0:
93,179,113596,2,0,L|216:180,1,115,2|0,1:2|0:0,0:0:0:0:
404,179,114034,2,0,L|406:298,1,115,0|0,0:0|0:0,0:0:0:0:
105,294,114472,6,0,P|104:254|254:185,1,230,6|2,1:2|0:0,0:0:0:0:
297,121,115056,1,2,0:0:0:0:
250,183,115202,1,2,0:0:0:0:
111,183,115348,1,10,0:3:0:0:
64,122,115494,1,2,0:0:0:0:
111,183,115640,1,2,0:0:0:0:
188,183,115786,1,2,0:0:0:0:
326,181,116078,1,2,0:0:0:0:
188,183,116224,6,0,P|117:128|204:63,1,230,2|2,1:2|0:0,0:0:0:0:
251,16,116808,1,2,0:0:0:0:
204,63,116954,1,2,0:0:0:0:
66,63,117100,1,10,0:3:0:0:
20,117,117246,1,2,0:0:0:0:
66,63,117392,1,2,0:0:0:0:
143,63,117538,1,2,0:0:0:0:
141,131,117684,1,2,0:0:0:0:
64,132,117830,1,2,0:0:0:0:
307,131,117976,6,0,P|349:131|456:269,1,230,0|2,1:2|0:0,0:0:0:0:
418,331,118560,1,2,0:0:0:0:
342,331,118706,1,2,0:0:0:0:
204,331,118852,1,10,0:3:0:0:
158,269,118998,1,2,0:0:0:0:
204,331,119144,1,2,0:0:0:0:
281,331,119290,1,2,0:0:0:0:
281,254,119436,1,2,0:0:0:0:
205,254,119582,1,2,0:0:0:0:
343,254,119728,6,0,P|421:202|337:138,1,230,2|2,1:2|0:0,0:0:0:0:
255,136,120312,1,2,0:0:0:0:
216,74,120458,1,2,0:0:0:0:
353,74,120603,1,10,0:3:0:0:
426,74,120749,1,10,0:3:0:0:
353,74,120895,1,10,0:3:0:0:
216,74,121041,1,10,0:3:0:0:
144,74,121187,1,10,0:3:0:0:
216,74,121333,1,10,0:3:0:0:
453,74,121479,5,0,1:2:0:0:
314,74,121771,1,2,0:0:0:0:
267,135,121917,1,2,0:0:0:0:
311,197,122063,1,2,0:0:0:0:
387,197,122209,1,2,0:0:0:0:
248,197,122355,1,10,0:3:0:0:
109,197,122647,1,2,0:0:0:0:
185,197,122793,1,2,0:0:0:0:
231,136,122939,1,2,0:0:0:0:
184,75,123085,1,2,0:0:0:0:
322,75,123231,6,0,P|402:130|320:191,1,230,0|2,1:2|0:0,0:0:0:0:
184,191,123961,1,2,0:0:0:0:
322,191,124107,1,10,0:3:0:0:
460,191,124399,1,2,0:0:0:0:
391,191,124545,1,2,0:0:0:0:
460,191,124691,1,2,0:0:0:0:
462,114,124837,1,2,0:0:0:0:
224,114,124983,6,0,P|118:116|61:215,1,230,0|2,1:2|0:0,0:0:0:0:
406,214,125859,2,0,P|484:160|405:91,1,230,10|2,0:3|0:0,0:0:0:0:
59,90,126735,6,0,P|29:178|131:238,1,230,2|2,1:2|0:0,0:0:0:0:
453,238,127611,1,10,0:3:0:0:
130,238,128049,1,2,1:2:0:0:
69,238,128158,1,0,1:2:0:0:
37,189,128268,1,0,1:2:0:0:
70,142,128377,1,0,1:2:0:0:
306,142,128487,6,0,P|378:229|303:261,1,230,4|2,1:2|1:2,0:0:0:0:
248,206,129071,1,2,0:0:0:0:
303,261,129217,1,2,0:0:0:0:
441,261,129363,1,2,1:2:0:0:
496,207,129509,1,2,0:0:0:0:
441,261,129655,1,2,0:0:0:0:
303,261,129801,1,2,1:2:0:0:
441,261,130093,1,2,0:0:0:0:
203,261,130239,6,0,P|124:213|204:147,1,230,2|2,1:2|1:2,0:0:0:0:
273,147,130822,1,2,0:0:0:0:
204,147,130968,1,2,0:0:0:0:
65,147,131114,1,2,1:2:0:0:
65,223,131260,1,2,0:0:0:0:
136,223,131406,1,2,0:0:0:0:
274,223,131552,1,2,1:2:0:0:
204,223,131698,1,2,0:0:0:0:
274,223,131844,1,2,0:0:0:0:
36,223,131990,6,0,P|30:147|155:87,1,230,0|2,1:2|1:2,0:0:0:0:
206,146,132574,1,2,0:0:0:0:
152,86,132720,1,2,0:0:0:0:
290,86,132866,1,2,1:2:0:0:
344,146,133012,1,2,0:0:0:0:
290,86,133158,1,2,0:0:0:0:
152,86,133304,1,2,1:2:0:0:
98,147,133450,1,2,0:0:0:0:
152,86,133596,1,2,0:0:0:0:
389,86,133742,6,0,P|471:147|390:201,1,230,2|2,1:2|1:2,0:0:0:0:
323,201,134326,1,2,0:0:0:0:
255,201,134472,1,2,0:0:0:0:
393,201,134618,1,2,1:2:0:0:
447,147,134764,1,2,0:0:0:0:
393,201,134910,1,2,0:0:0:0:
255,201,135056,1,2,1:2:0:0:
324,201,135202,1,2,0:0:0:0:
255,201,135348,1,2,0:0:0:0:
492,201,135494,6,0,P|493:248|346:314,1,230,0|2,1:2|1:2,0:0:0:0:
350,246,136078,1,2,0:0:0:0:
419,246,136224,1,2,0:0:0:0:
280,246,136370,1,2,1:2:0:0:
141,246,136662,1,2,0:0:0:0:
280,246,136808,1,2,1:2:0:0:
350,246,136954,1,2,0:0:0:0:
280,246,137100,1,2,0:0:0:0:
42,246,137246,6,0,P|32:191|166:126,1,230,2|2,1:2|1:2,0:0:0:0:
302,124,137976,1,2,0:0:0:0:
163,124,138122,1,2,1:2:0:0:
302,124,138414,1,2,0:0:0:0:
163,124,138560,1,2,1:2:0:0:
93,124,138706,1,2,0:0:0:0:
163,124,138852,1,2,0:0:0:0:
400,124,138998,5,0,1:2:0:0:
192,124,139436,2,0,L|191:239,1,115,2|0,1:2|0:0,0:0:0:0:
387,238,139874,2,0,L|388:358,1,115,2|0,1:2|0:0,0:0:0:0:
191,352,140312,2,0,L|66:350,1,115,2|0,1:2|0:0,0:0:0:0:
375,350,140749,6,0,L|376:228,1,115,2|0,1:2|0:0,0:0:0:0:
179,235,141187,2,0,L|178:116,1,115,2|0,1:2|0:0,0:0:0:0:
362,120,141625,1,2,1:2:0:0:
177,120,141844,2,0,L|293:121,1,115,0|2,0:0|1:2,0:0:0:0:
95,120,142282,1,2,0:0:0:0:
139,237,158048,5,10,0:0:0:0:
116,202,158103,1,0,0:0:0:0:
139,237,158158,1,0,0:0:0:0:
339,237,158267,2,0,L|457:236,1,115,10|10,0:0|0:0,0:0:0:0:
153,236,158705,2,0,L|39:236,1,115,8|0,0:1|0:0,0:0:0:0:
361,236,159143,6,0,L|361:121,1,115,6|2,1:2|0:0,0:0:0:0:
164,121,159581,2,0,L|49:122,1,115,10|2,1:2|0:0,0:0:0:0:
349,121,160019,2,0,L|465:121,1,115,2|2,1:2|0:0,0:0:0:0:
279,121,160457,1,10,1:2:0:0:
463,121,160676,1,2,0:0:0:0:
163,121,160895,6,0,L|47:121,1,115,2|2,1:2|0:0,0:0:0:0:
244,121,161333,2,0,L|374:121,1,115,10|2,1:2|0:0,0:0:0:0:
58,121,161771,2,0,L|178:121,1,115,2|2,1:2|0:0,0:0:0:0:
357,121,162209,1,10,1:2:0:0:
173,121,162428,1,2,0:0:0:0:
472,121,162647,6,0,L|473:237,1,115,0|2,1:2|0:0,0:0:0:0:
276,235,163085,2,0,L|411:236,1,115,10|2,1:2|0:0,0:0:0:0:
90,235,163523,2,0,P|15:176|100:117,1,230,2|10,1:2|1:2,0:0:0:0:
399,116,164180,6,0,L|164:114,1,230,2|2,0:0|0:0,0:0:0:0:
353,114,164837,1,10,1:2:0:0:
53,114,165056,2,0,P|31:172|154:230,1,230,2|0,0:0|0:0,0:0:0:0:
337,230,165712,1,8,1:2:0:0:
152,230,165931,1,2,0:0:0:0:
451,230,166150,6,0,L|452:114,1,115,6|2,1:2|0:0,0:0:0:0:
255,115,166588,2,0,L|135:115,1,115,10|2,1:2|0:0,0:0:0:0:
440,115,167026,2,0,P|461:171|337:232,1,230,2|10,1:2|1:2,0:0:0:0:
37,232,167683,6,0,L|156:231,1,115,2|0,0:0|1:2,0:0:0:0:
452,231,168121,2,0,P|463:172|332:119,1,230,2|0,0:0|0:0,0:0:0:0:
135,119,168778,2,0,P|79:206|170:230,1,230,0|10,1:2|1:2,0:0:0:0:
353,230,169435,1,2,0:0:0:0:
53,230,169654,6,0,L|173:231,1,115,2|2,1:2|0:0,0:0:0:0:
352,230,170092,1,10,1:2:0:0:
52,230,170311,2,0,P|20:172|137:105,1,230,2|2,0:0|0:0,0:0:0:0:
317,102,170968,1,10,1:2:0:0:
132,102,171187,1,2,0:0:0:0:
431,102,171406,6,0,B|449:158|449:158|432:218,1,115,0|0,1:2|1:2,0:0:0:0:
374,216,171734,1,0,1:2:0:0:
258,216,171844,2,0,L|380:216,1,115,8|2,1:2|3:2,0:0:0:0:
315,216,172172,1,0,3:0:0:0:
112,216,172282,6,0,L|112:154,1,57.5,2|8,1:2|1:2,0:0:0:0:
227,158,172501,2,0,L|293:157,1,57.5,2|8,1:2|1:2,0:0:0:0:
168,157,172720,2,0,L|50:157,1,115,10|8,1:2|0:2,0:0:0:0:
376,157,173158,5,6,1:2:0:0:
191,157,173377,2,0,P|111:211|191:273,1,230,2|2,0:0|0:0,0:0:0:0:
490,273,174034,2,0,P|496:209|365:151,1,230,2|10,1:2|1:2,0:0:0:0:
179,151,174691,1,2,0:0:0:0:
478,151,174910,6,0,L|479:270,1,115,2|2,1:2|0:0,0:0:0:0:
294,265,175347,1,10,1:2:0:0:
478,265,175566,1,2,0:0:0:0:
178,265,175785,2,0,L|63:265,1,115,2|0,1:2|0:0,0:0:0:0:
259,265,176223,2,0,L|384:265,1,115,8|0,1:2|0:0,0:0:0:0:
73,265,176661,5,2,1:2:0:0:
257,265,176880,2,0,P|332:264|381:136,1,230,2|2,0:0|0:0,0:0:0:0:
80,135,177537,2,0,P|80:76|222:34,1,230,2|10,1:2|1:2,0:0:0:0:
34,32,178194,1,2,0:0:0:0:
333,32,178413,6,0,L|333:146,1,115,2|2,1:2|0:0,0:0:0:0:
136,147,178851,1,10,1:2:0:0:
435,147,179070,1,2,0:0:0:0:
136,147,179289,2,0,P|57:204|138:261,1,230,2|8,1:2|1:2,0:0:0:0:
323,260,179946,1,0,0:0:0:0:
23,260,180165,5,6,1:2:0:0:
207,260,180384,2,0,P|208:199|71:147,1,230,0|2,0:0|0:0,0:0:0:0:
371,146,181041,2,0,P|449:218|371:264,1,230,2|10,1:2|1:2,0:0:0:0:
185,263,181698,1,2,0:0:0:0:
484,263,181917,6,0,L|484:149,1,115,2|2,1:2|0:0,0:0:0:0:
299,148,182355,1,10,1:2:0:0:
483,148,182574,1,2,0:0:0:0:
183,148,182793,2,0,L|183:265,1,115,2|0,1:2|0:0,0:0:0:0:
379,263,183231,2,0,L|495:263,1,115,8|0,1:2|0:0,0:0:0:0:
193,263,183669,5,2,1:2:0:0:
379,263,183888,2,0,P|457:212|376:145,1,230,2|2,0:0|0:0,0:0:0:0:
76,144,184545,2,0,P|68:75|201:36,1,230,2|10,1:2|1:2,0:0:0:0:
381,33,185201,1,2,0:0:0:0:
81,33,185420,6,0,L|199:33,1,115,2|2,1:2|1:2,0:0:0:0:
381,33,185858,1,2,1:2:0:0:
81,33,186077,1,2,1:2:0:0:
381,33,186296,2,0,L|381:152,1,115,10|8,0:2|0:2,0:0:0:0:
184,148,186734,2,0,L|55:149,1,115,0|10,1:0|0:0,0:0:0:0:
392,148,187172,5,6,1:2:0:0:
207,148,187391,2,0,P|209:207|350:248,1,230,2|2,0:0|0:0,0:0:0:0:
49,248,188048,2,0,P|100:147|206:147,1,230,2|10,1:2|1:2,0:0:0:0:
21,146,188705,1,2,0:0:0:0:
320,146,188924,6,0,L|321:272,1,115,2|2,1:2|0:0,0:0:0:0:
136,260,189362,1,10,1:2:0:0:
320,260,189581,1,2,0:0:0:0:
20,260,189800,2,0,L|19:144,1,115,2|0,1:2|0:0,0:0:0:0:
215,145,190238,2,0,L|91:145,1,115,8|0,1:2|0:0,0:0:0:0:
400,145,190676,5,2,1:2:0:0:
215,145,190895,2,0,P|155:145|82:280,1,230,2|2,0:0|0:0,0:0:0:0:
371,278,191552,2,0,P|451:227|370:161,1,230,2|10,1:2|1:2,0:0:0:0:
187,160,192209,1,2,0:0:0:0:
486,160,192428,6,0,L|360:158,1,115,2|2,1:2|0:0,0:0:0:0:
185,45,192866,1,10,1:2:0:0:
485,45,193085,1,2,0:0:0:0:
185,45,193304,2,0,L|184:162,1,115,2|0,1:2|0:0,0:0:0:0:
380,159,193742,2,0,L|495:159,1,115,8|0,1:2|0:0,0:0:0:0:
181,159,194180,5,6,1:2:0:0:
365,159,194399,2,0,P|445:216|364:273,1,230,0|2,0:0|0:0,0:0:0:0:
64,273,195056,2,0,L|254:140,1,230,2|10,1:2|1:2,0:0:0:0:
68,141,195712,1,2,0:0:0:0:
367,141,195931,6,0,L|367:261,1,115,2|2,1:2|0:0,0:0:0:0:
182,256,196369,1,10,1:2:0:0:
366,256,196588,1,2,0:0:0:0:
66,256,196807,2,0,L|198:255,1,115,2|0,1:2|0:0,0:0:0:0:
377,255,197245,2,0,L|378:136,1,115,8|0,1:2|0:0,0:0:0:0:
77,140,197683,5,2,1:2:0:0:
261,140,197902,2,0,L|61:263,1,230,2|2,0:0|0:0,0:0:0:0:
365,260,198559,2,0,P|441:210|362:138,1,230,2|10,1:2|1:2,0:0:0:0:
176,138,199216,1,2,0:0:0:0:
475,138,199435,6,0,L|475:260,1,115,2|2,1:2|0:0,0:0:0:0:
290,253,199873,1,10,1:2:0:0:
474,253,200092,1,2,0:0:0:0:
174,253,200311,2,0,L|174:134,1,115,2|0,1:2|0:0,0:0:0:0:
358,138,200749,1,8,1:2:0:0:
173,138,200968,5,2,0:0:0:0:
353,272,202720,5,2,0:0:0:0:
158,272,202939,2,0,P|43:215|158:98,1,345,2|2,0:0|0:0,0:0:0:0:
354,97,203815,2,0,P|469:154|354:271,1,345,2|2,0:0|0:0,0:0:0:0:
159,271,204691,5,2,0:0:0:0:
68,201,204910,1,2,0:0:0:0:
159,271,205129,1,2,0:0:0:0:
275,271,205347,1,2,0:0:0:0:
80,271,205566,2,0,P|16:192|173:85,1,345,2|2,0:0|0:0,0:0:0:0:
370,85,206442,6,0,P|485:142|370:259,1,345,2|2,0:0|0:0,0:0:0:0:
175,259,207318,2,0,P|60:202|175:85,1,345,2|2,0:0|0:0,0:0:0:0:
371,84,208194,6,0,P|450:144|371:205,1,230,2|2,0:0|0:0,0:0:0:0:
175,204,208851,2,0,P|18:104|177:-31,1,460,2|2,0:0|0:0,0:0:0:0:
373,203,209946,6,0,L|489:203,2,115,2|2|2,0:0|0:0|0:0,0:0:0:0:
50,203,210822,2,0,L|172:202,2,115,2|2|2,0:0|0:0|0:0,0:0:0:0:
372,203,211698,6,0,P|440:202|494:67,1,230,2|2,0:0|0:0,0:0:0:0:
385,69,212355,1,2,0:0:0:0:
189,69,212574,2,0,P|121:70|67:205,1,230,2|0,0:0|0:0,0:0:0:0:
176,203,213231,1,2,0:0:0:0:
371,203,213450,6,0,P|451:265|367:324,1,230,2|2,0:0|0:0,0:0:0:0:
269,325,214107,1,2,0:0:0:0:
108,325,214545,1,2,0:0:0:0:
211,325,214764,1,2,0:0:0:0:
406,325,214983,1,2,0:0:0:0:
