osu file format v14

[General]
AudioFilename: audio.mp3
AudioLeadIn: 0
PreviewTime: 7887
Countdown: 0
SampleSet: Normal
StackLeniency: 0.7
Mode: 1
LetterboxInBreaks: 0
WidescreenStoryboard: 1

[Editor]
Bookmarks: 7887,15629,23371,31113
DistanceSpacing: 1.1
BeatDivisor: 4
GridSize: 32
TimelineZoom: 1.7

[Metadata]
Title:Your Best Friend (Extended Edit)
TitleUnicode:Your Best Friend (Extended Edit)
Artist:MtH
ArtistUnicode:MtH
Creator:Froskya
Version:Futsuu Is Your Best Friend
Source:UNDERTALE
Tags:siivagunner siiva gunner silvagunner silva gilvasunner gilva sunner toby "radiation" fox parody seven grand dad the flintstones high quality rip chiptune mashup mash up flowey flower yabba dabba doo instrumental vgm music videogame video game ost electronic original soundtrack sound track long longer version ver loop revialink
BeatmapID:3599693
BeatmapSetID:1758841

[Difficulty]
HPDrainRate:10
CircleSize:2
OverallDifficulty:3
ApproachRate:10
SliderMultiplier:1.4
SliderTickRate:1

[Events]
//Background and Video events
0,0,"bg.png",0,0
//Break Periods
//Storyboard Layer 0 (Background)
//Storyboard Layer 1 (Fail)
//Storyboard Layer 2 (Pass)
//Storyboard Layer 3 (Foreground)
//Storyboard Layer 4 (Overlay)
//Storyboard Sound Samples

[TimingPoints]
149,483.870967741935,4,1,0,50,1,0

[HitObjects]
256,192,149,5,0,0:0:0:0:
256,192,632,1,8,0:0:0:0:
256,192,1116,1,0,0:0:0:0:
256,192,1600,1,8,0:0:0:0:
256,192,2084,1,0,0:0:0:0:
256,192,2568,1,8,0:0:0:0:
256,192,3052,1,0,0:0:0:0:
256,192,4019,1,0,0:0:0:0:
256,192,4503,1,8,0:0:0:0:
256,192,4987,1,0,0:0:0:0:
256,192,5471,1,8,0:0:0:0:
256,192,5955,1,0,0:0:0:0:
256,192,6439,1,8,0:0:0:0:
256,192,6923,1,0,0:0:0:0:
256,192,7890,1,8,0:0:0:0:
256,192,8374,1,0,0:0:0:0:
256,192,9100,1,8,0:0:0:0:
256,192,9584,1,8,0:0:0:0:
256,192,9826,1,8,0:0:0:0:
256,192,10310,1,0,0:0:0:0:
256,192,11036,1,8,0:0:0:0:
256,192,11278,1,8,0:0:0:0:
256,192,11519,1,0,0:0:0:0:
256,192,11761,1,8,0:0:0:0:
256,192,12245,1,8,0:0:0:0:
256,192,12487,1,8,0:0:0:0:
256,192,12729,1,0,0:0:0:0:
256,192,13213,1,0,0:0:0:0:
256,192,13697,1,8,0:0:0:0:
256,192,14665,1,0,0:0:0:0:
256,192,15148,1,8,0:0:0:0:
256,192,15632,1,8,0:0:0:0:
256,192,16116,1,0,0:0:0:0:
256,192,16842,1,8,0:0:0:0:
256,192,17326,1,8,0:0:0:0:
256,192,17568,1,8,0:0:0:0:
256,192,18052,1,0,0:0:0:0:
256,192,18778,1,8,0:0:0:0:
256,192,19019,1,0,0:0:0:0:
256,192,19261,1,0,0:0:0:0:
256,192,19503,1,8,0:0:0:0:
256,192,19987,1,8,0:0:0:0:
256,192,20229,1,8,0:0:0:0:
256,192,20471,1,0,0:0:0:0:
256,192,20955,1,0,0:0:0:0:
256,192,21439,1,8,0:0:0:0:
256,192,22407,1,8,0:0:0:0:
256,192,23374,1,8,0:0:0:0:
256,192,23858,1,0,0:0:0:0:
256,192,24584,1,8,0:0:0:0:
256,192,25068,1,8,0:0:0:0:
256,192,25310,1,8,0:0:0:0:
256,192,25794,1,0,0:0:0:0:
256,192,26519,1,8,0:0:0:0:
256,192,26761,1,8,0:0:0:0:
256,192,27003,1,0,0:0:0:0:
256,192,27245,1,8,0:0:0:0:
256,192,27729,1,8,0:0:0:0:
256,192,27971,1,8,0:0:0:0:
256,192,28213,1,0,0:0:0:0:
256,192,28697,1,0,0:0:0:0:
256,192,29181,1,8,0:0:0:0:
256,192,30148,1,0,0:0:0:0:
256,192,30632,1,8,0:0:0:0:
256,192,31116,1,8,0:0:0:0:
256,192,31600,1,0,0:0:0:0:
256,192,32326,1,8,0:0:0:0:
256,192,32810,1,8,0:0:0:0:
256,192,33052,1,8,0:0:0:0:
256,192,33536,1,0,0:0:0:0:
256,192,34261,1,8,0:0:0:0:
256,192,34503,1,0,0:0:0:0:
256,192,34745,1,0,0:0:0:0:
256,192,34987,1,8,0:0:0:0:
256,192,35471,1,8,0:0:0:0:
256,192,35713,1,8,0:0:0:0:
256,192,35955,1,0,0:0:0:0:
256,192,36439,1,0,0:0:0:0:
256,192,36923,1,8,0:0:0:0:
256,192,37890,1,8,0:0:0:0:
