osu file format v14

[General]
AudioFilename: audio.mp3
AudioLeadIn: 0
PreviewTime: 67836
Countdown: 0
SampleSet: Normal
StackLeniency: 0.7
Mode: 1
LetterboxInBreaks: 0
WidescreenStoryboard: 0

[Editor]
Bookmarks: 875,952,10327,17827,21577,36577,51577,66577,68452,83452,100327,107827
DistanceSpacing: 1.47
BeatDivisor: 3
GridSize: 32
TimelineZoom: 2.799999

[Metadata]
Title:Magic Time, Future Show!
TitleUnicode:Magic Time, Future Show!
Artist:Ms.
ArtistUnicode:Ms.
Creator:JUDYDANNY
Version:30min feeling
Source:GROOVE COASTER 4 STARLIGHT ROAD
Tags:Taiko w/ feat. 初音ミク Hatsune Miku グルーヴコースター4 スターライトロード
BeatmapID:1892731
BeatmapSetID:907048

[Difficulty]
HPDrainRate:7
CircleSize:5
OverallDifficulty:6
ApproachRate:5
SliderMultiplier:1.2
SliderTickRate:1

[Events]
//Background and Video events
0,0,"karibg.jpg",0,90
//Break Periods
//Storyboard Layer 0 (Background)
//Storyboard Layer 1 (Fail)
//Storyboard Layer 2 (Pass)
//Storyboard Layer 3 (Foreground)
//Storyboard Sound Samples

[TimingPoints]
954,234.375,4,1,0,90,1,0
70329,-100,4,1,0,90,0,1
83454,-100,4,1,0,90,0,0
85329,-100,4,1,0,90,0,1
100329,-100,4,1,0,90,0,0

[HitObjects]
256,172,485,5,8,0:0:0:0:
261,167,641,1,8,0:0:0:0:
261,167,719,1,8,0:0:0:0:
261,167,954,1,0,0:0:0:0:
254,191,1188,1,8,0:0:0:0:
254,191,1422,1,8,0:0:0:0:
254,191,1657,1,8,0:0:0:0:
254,191,1891,1,8,0:0:0:0:
254,165,2047,1,8,0:0:0:0:
254,165,2282,1,8,0:0:0:0:
225,136,2516,1,8,0:0:0:0:
225,136,2594,1,8,0:0:0:0:
225,136,2750,1,8,0:0:0:0:
241,175,2829,1,0,0:0:0:0:
241,175,3063,1,0,0:0:0:0:
241,175,3297,1,8,0:0:0:0:
241,175,3532,1,8,0:0:0:0:
242,174,3766,1,8,0:0:0:0:
242,174,3922,1,8,0:0:0:0:
190,150,4157,1,8,0:0:0:0:
190,150,4391,1,8,0:0:0:0:
195,99,4469,1,8,0:0:0:0:
196,108,4625,1,8,0:0:0:0:
195,125,4704,1,0,0:0:0:0:
195,125,4938,1,8,0:0:0:0:
195,125,5172,1,8,0:0:0:0:
195,125,5407,1,8,0:0:0:0:
206,119,5563,1,8,0:0:0:0:
195,125,5641,1,0,0:0:0:0:
206,119,5797,1,0,0:0:0:0:
206,119,5993,1,8,0:0:0:0:
207,111,6266,1,8,0:0:0:0:
207,111,6344,1,8,0:0:0:0:
207,111,6500,1,8,0:0:0:0:
207,111,6579,1,0,0:0:0:0:
207,111,6735,1,0,0:0:0:0:
207,111,6813,1,8,0:0:0:0:
207,111,6969,1,8,0:0:0:0:
207,111,7047,1,0,0:0:0:0:
207,111,7204,1,0,0:0:0:0:
207,111,7282,1,8,0:0:0:0:
207,111,7438,1,8,0:0:0:0:
207,111,7516,1,0,0:0:0:0:
207,111,7672,1,0,0:0:0:0:
207,111,7750,1,8,0:0:0:0:
207,111,7907,1,8,0:0:0:0:
207,111,7985,1,0,0:0:0:0:
207,111,8141,1,0,0:0:0:0:
207,111,8219,1,8,0:0:0:0:
207,111,8454,1,12,0:0:0:0:
207,111,8688,1,12,0:0:0:0:
206,112,8922,1,12,0:0:0:0:
206,112,9157,1,12,0:0:0:0:
206,112,9391,1,12,0:0:0:0:
225,94,9860,1,8,0:0:0:0:
148,153,10016,1,8,0:0:0:0:
148,153,10094,1,8,0:0:0:0:
148,153,10329,1,4,0:0:0:0:
148,153,10563,1,8,0:0:0:0:
148,153,10797,1,0,0:0:0:0:
181,115,10954,1,0,0:0:0:0:
148,153,11032,1,8,0:0:0:0:
123,102,11188,1,0,0:0:0:0:
148,153,11266,1,8,0:0:0:0:
148,153,11500,1,0,0:0:0:0:
146,155,11735,1,8,0:0:0:0:
169,87,11891,1,8,0:0:0:0:
146,155,11969,1,0,0:0:0:0:
123,102,12125,1,8,0:0:0:0:
146,155,12204,1,0,0:0:0:0:
146,155,12438,1,8,0:0:0:0:
146,155,12672,1,0,0:0:0:0:
157,134,12829,1,0,0:0:0:0:
157,134,12907,1,8,0:0:0:0:
157,134,13063,1,8,0:0:0:0:
136,117,13141,1,0,0:0:0:0:
157,134,13297,1,8,0:0:0:0:
157,134,13375,1,8,0:0:0:0:
157,134,13532,1,0,0:0:0:0:
157,134,13610,1,0,0:0:0:0:
157,134,13766,1,8,0:0:0:0:
157,134,13844,1,8,0:0:0:0:
157,134,14000,1,0,0:0:0:0:
157,134,14079,1,0,0:0:0:0:
157,134,14313,1,8,0:0:0:0:
162,93,14469,1,0,0:0:0:0:
157,134,14547,1,0,0:0:0:0:
162,93,14704,1,0,0:0:0:0:
157,134,14782,1,8,0:0:0:0:
162,93,14938,1,8,0:0:0:0:
162,93,15016,1,0,0:0:0:0:
162,93,15250,1,8,0:0:0:0:
162,93,15407,1,8,0:0:0:0:
162,93,15485,1,0,0:0:0:0:
162,93,15641,1,8,0:0:0:0:
162,93,15719,1,8,0:0:0:0:
162,93,15875,1,0,0:0:0:0:
157,134,15954,1,8,0:0:0:0:
157,134,16188,1,0,0:0:0:0:
162,93,16422,1,8,0:0:0:0:
157,134,16657,1,8,0:0:0:0:
162,93,16813,1,8,0:0:0:0:
162,93,16891,1,0,0:0:0:0:
162,93,17047,1,0,0:0:0:0:
157,134,17125,1,8,0:0:0:0:
162,93,17282,1,8,0:0:0:0:
157,134,17360,1,8,0:0:0:0:
162,93,17516,1,12,0:0:0:0:
162,93,17750,1,8,0:0:0:0:
161,121,17829,1,0,0:0:0:0:
196,159,18063,1,8,0:0:0:0:
196,159,18297,1,0,0:0:0:0:
196,159,18532,1,8,0:0:0:0:
196,159,18766,1,0,0:0:0:0:
196,159,19000,1,8,0:0:0:0:
196,159,19235,1,0,0:0:0:0:
231,91,19391,1,12,0:0:0:0:
231,91,19704,1,0,0:0:0:0:
231,91,19860,1,8,0:0:0:0:
231,91,19938,1,8,0:0:0:0:
231,91,20094,1,8,0:0:0:0:
231,91,20172,1,0,0:0:0:0:
231,91,20329,1,8,0:0:0:0:
231,91,20407,1,8,0:0:0:0:
231,91,20563,1,8,0:0:0:0:
231,91,20641,1,0,0:0:0:0:
231,91,21110,1,12,0:0:0:0:
214,79,21344,1,8,0:0:0:0:
214,79,21461,1,8,0:0:0:0:
231,91,21579,1,0,0:0:0:0:
217,102,21813,1,8,0:0:0:0:
217,102,22047,1,0,0:0:0:0:
217,102,22282,1,8,0:0:0:0:
217,102,22516,1,0,0:0:0:0:
193,151,22672,1,8,0:0:0:0:
193,151,22907,1,0,0:0:0:0:
193,151,23141,1,8,0:0:0:0:
193,151,23219,1,8,0:0:0:0:
193,151,23454,1,0,0:0:0:0:
193,151,23688,1,8,0:0:0:0:
193,151,23922,1,0,0:0:0:0:
193,151,24157,1,8,0:0:0:0:
193,151,24391,1,0,0:0:0:0:
193,151,24547,1,8,0:0:0:0:
193,151,24782,1,8,0:0:0:0:
193,151,25016,1,0,0:0:0:0:
204,32,25094,1,0,0:0:0:0:
193,151,25329,1,4,0:0:0:0:
193,151,25563,1,8,0:0:0:0:
193,151,25719,1,0,0:0:0:0:
183,120,25797,1,0,0:0:0:0:
183,120,25954,1,0,0:0:0:0:
193,151,26032,1,8,0:0:0:0:
195,92,26188,1,8,0:0:0:0:
188,145,26266,1,0,0:0:0:0:
188,145,26500,1,8,0:0:0:0:
188,145,26735,1,0,0:0:0:0:
195,134,26891,1,0,0:0:0:0:
188,145,26969,1,8,0:0:0:0:
195,134,27125,1,8,0:0:0:0:
188,145,27204,1,0,0:0:0:0:
195,134,27438,1,8,0:0:0:0:
218,122,27594,1,8,0:0:0:0:
195,134,27672,1,0,0:0:0:0:
195,134,27907,1,8,0:0:0:0:
218,122,27985,1,8,0:0:0:0:
218,122,28063,1,8,0:0:0:0:
195,134,28141,1,0,0:0:0:0:
218,122,28375,1,8,0:0:0:0:
218,122,28532,1,8,0:0:0:0:
218,122,28610,1,8,0:0:0:0:
218,122,28766,1,8,0:0:0:0:
218,122,28844,1,8,0:0:0:0:
218,122,29000,1,8,0:0:0:0:
218,122,29079,1,0,0:0:0:0:
229,118,29235,1,8,0:0:0:0:
229,118,29313,1,8,0:0:0:0:
229,118,29547,1,0,0:0:0:0:
229,118,29704,1,8,0:0:0:0:
229,118,29782,1,8,0:0:0:0:
229,118,29938,1,8,0:0:0:0:
229,118,30016,1,0,0:0:0:0:
229,118,30172,1,8,0:0:0:0:
229,118,30250,1,8,0:0:0:0:
229,118,30485,1,0,0:0:0:0:
229,118,30641,1,8,0:0:0:0:
229,118,30719,1,8,0:0:0:0:
229,118,30875,1,8,0:0:0:0:
229,118,30954,1,0,0:0:0:0:
229,118,31110,1,0,0:0:0:0:
229,118,31188,1,8,0:0:0:0:
219,78,31422,1,0,0:0:0:0:
229,118,31579,1,0,0:0:0:0:
229,118,31657,1,8,0:0:0:0:
229,118,31813,1,8,0:0:0:0:
229,118,31891,1,8,0:0:0:0:
229,118,32047,1,8,0:0:0:0:
227,88,32360,1,8,0:0:0:0:
227,88,32418,1,8,0:0:0:0:
216,52,32477,1,8,0:0:0:0:
152,32,32536,1,8,0:0:0:0:
241,67,32594,1,0,0:0:0:0:
208,42,32829,1,4,0:0:0:0:
183,38,33063,1,8,0:0:0:0:
160,115,33219,1,0,0:0:0:0:
148,60,33297,1,0,0:0:0:0:
148,60,33454,1,0,0:0:0:0:
148,60,33532,1,8,0:0:0:0:
148,60,33688,1,8,0:0:0:0:
148,60,33766,1,0,0:0:0:0:
148,60,34000,1,8,0:0:0:0:
144,42,34157,1,8,0:0:0:0:
148,60,34235,1,0,0:0:0:0:
148,60,34391,1,0,0:0:0:0:
148,60,34469,1,8,0:0:0:0:
148,60,34625,1,0,0:0:0:0:
148,60,34704,1,0,0:0:0:0:
148,60,34938,1,8,0:0:0:0:
148,60,35172,1,0,0:0:0:0:
148,60,35329,1,0,0:0:0:0:
148,60,35407,1,8,0:0:0:0:
148,60,35563,1,8,0:0:0:0:
148,60,35641,1,0,0:0:0:0:
148,60,35875,1,8,0:0:0:0:
174,43,36032,1,0,0:0:0:0:
174,43,36110,1,8,0:0:0:0:
136,56,36266,1,0,0:0:0:0:
148,60,36344,1,8,0:0:0:0:
148,60,36422,1,8,0:0:0:0:
148,60,36500,1,8,0:0:0:0:
148,60,36579,1,0,0:0:0:0:
136,56,36696,1,0,0:0:0:0:
136,56,36813,1,8,0:0:0:0:
136,56,37047,1,0,0:0:0:0:
136,56,37164,1,8,0:0:0:0:
136,56,37282,1,0,0:0:0:0:
136,56,37399,1,8,0:0:0:0:
136,56,37516,1,0,0:0:0:0:
136,56,37633,1,0,0:0:0:0:
136,56,37750,1,8,0:0:0:0:
136,56,37985,1,8,0:0:0:0:
136,56,38102,1,0,0:0:0:0:
136,56,38219,1,8,0:0:0:0:
136,56,38336,1,8,0:0:0:0:
136,56,38395,1,8,0:0:0:0:
136,56,38454,1,0,0:0:0:0:
136,56,38571,1,0,0:0:0:0:
136,56,38688,1,8,0:0:0:0:
136,56,38805,1,8,0:0:0:0:
136,56,38922,1,0,0:0:0:0:
136,56,39039,1,8,0:0:0:0:
136,56,39157,1,8,0:0:0:0:
148,23,39391,1,0,0:0:0:0:
148,23,39508,1,8,0:0:0:0:
148,23,39625,1,0,0:0:0:0:
136,56,39743,1,0,0:0:0:0:
136,56,39860,1,8,0:0:0:0:
98,85,40016,1,8,0:0:0:0:
98,85,40094,1,8,0:0:0:0:
98,85,40329,1,4,0:0:0:0:
98,85,40563,1,8,0:0:0:0:
115,62,40719,1,0,0:0:0:0:
115,62,40797,1,0,0:0:0:0:
115,62,40954,1,0,0:0:0:0:
115,62,41032,1,8,0:0:0:0:
158,30,41188,1,8,0:0:0:0:
115,62,41266,1,0,0:0:0:0:
115,62,41500,1,8,0:0:0:0:
115,62,41735,1,0,0:0:0:0:
115,62,41891,1,0,0:0:0:0:
115,62,41969,1,8,0:0:0:0:
115,62,42125,1,8,0:0:0:0:
115,62,42204,1,0,0:0:0:0:
115,62,42438,1,8,0:0:0:0:
115,62,42594,1,0,0:0:0:0:
115,62,42672,1,0,0:0:0:0:
115,62,42829,1,0,0:0:0:0:
115,62,42907,1,8,0:0:0:0:
146,64,43063,1,0,0:0:0:0:
115,62,43141,1,8,0:0:0:0:
115,62,43375,1,8,0:0:0:0:
115,62,43532,1,8,0:0:0:0:
115,62,43610,1,8,0:0:0:0:
115,62,43766,1,8,0:0:0:0:
115,62,43844,1,8,0:0:0:0:
115,62,44000,1,8,0:0:0:0:
115,62,44079,1,0,0:0:0:0:
115,62,44235,1,8,0:0:0:0:
115,62,44313,1,8,0:0:0:0:
115,62,44547,1,0,0:0:0:0:
115,62,44704,1,8,0:0:0:0:
115,62,44782,1,8,0:0:0:0:
146,64,44938,1,8,0:0:0:0:
115,62,45016,1,0,0:0:0:0:
146,64,45172,1,8,0:0:0:0:
146,63,45250,1,8,0:0:0:0:
146,63,45485,1,0,0:0:0:0:
146,64,45641,1,8,0:0:0:0:
146,64,45719,1,8,0:0:0:0:
171,53,45875,1,8,0:0:0:0:
146,64,45954,1,0,0:0:0:0:
171,53,46110,1,0,0:0:0:0:
171,53,46188,1,8,0:0:0:0:
171,53,46422,1,0,0:0:0:0:
171,53,46579,1,0,0:0:0:0:
171,53,46657,1,8,0:0:0:0:
171,53,46813,1,8,0:0:0:0:
171,53,46891,1,8,0:0:0:0:
171,53,47125,1,8,0:0:0:0:
171,53,47360,1,8,0:0:0:0:
190,77,47418,1,8,0:0:0:0:
171,53,47477,1,8,0:0:0:0:
190,77,47536,1,8,0:0:0:0:
166,62,47594,1,0,0:0:0:0:
190,77,47829,1,12,0:0:0:0:
153,71,48063,1,8,0:0:0:0:
153,71,48219,1,8,0:0:0:0:
153,71,48297,1,0,0:0:0:0:
153,71,48454,1,0,0:0:0:0:
153,71,48532,1,8,0:0:0:0:
153,71,48688,1,8,0:0:0:0:
153,71,48766,1,0,0:0:0:0:
153,71,49000,1,8,0:0:0:0:
176,89,49157,1,0,0:0:0:0:
153,71,49235,1,0,0:0:0:0:
153,71,49391,1,8,0:0:0:0:
153,71,49469,1,8,0:0:0:0:
153,71,49625,1,8,0:0:0:0:
153,71,49704,1,0,0:0:0:0:
176,68,49860,1,0,0:0:0:0:
153,71,49938,1,8,0:0:0:0:
176,68,50172,1,0,0:0:0:0:
153,71,50329,1,0,0:0:0:0:
153,71,50407,1,8,0:0:0:0:
176,68,50563,1,8,0:0:0:0:
153,71,50641,1,0,0:0:0:0:
153,71,50875,1,8,0:0:0:0:
153,71,51032,1,0,0:0:0:0:
153,71,51110,1,8,0:0:0:0:
153,71,51266,1,8,0:0:0:0:
153,71,51344,1,8,0:0:0:0:
170,38,51422,1,8,0:0:0:0:
153,71,51500,1,8,0:0:0:0:
153,71,51579,1,0,0:0:0:0:
139,37,51813,1,8,0:0:0:0:
139,37,52047,1,0,0:0:0:0:
139,37,52204,1,8,0:0:0:0:
168,36,52438,1,8,0:0:0:0:
168,36,52516,1,0,0:0:0:0:
139,37,52750,1,8,0:0:0:0:
139,37,52985,1,0,0:0:0:0:
139,37,53219,1,8,0:0:0:0:
139,37,53454,1,0,0:0:0:0:
177,36,53610,1,8,0:0:0:0:
136,37,53688,1,8,0:0:0:0:
177,36,53844,1,0,0:0:0:0:
177,36,53922,1,0,0:0:0:0:
177,36,54079,1,8,0:0:0:0:
136,37,54157,1,8,0:0:0:0:
177,36,54313,1,0,0:0:0:0:
177,36,54391,1,0,0:0:0:0:
136,37,54625,1,8,0:0:0:0:
177,36,54704,1,8,0:0:0:0:
177,36,54782,1,8,0:0:0:0:
136,37,54860,1,0,0:0:0:0:
136,37,55094,1,8,0:0:0:0:
136,37,55329,1,4,0:0:0:0:
177,36,55563,1,8,0:0:0:0:
167,55,55797,1,0,0:0:0:0:
167,55,56032,1,8,0:0:0:0:
167,55,56188,1,0,0:0:0:0:
167,55,56266,1,0,0:0:0:0:
181,49,56500,1,8,0:0:0:0:
181,49,56735,1,0,0:0:0:0:
181,49,56969,1,8,0:0:0:0:
181,49,57204,1,4,0:0:0:0:
181,49,57438,1,8,0:0:0:0:
181,49,57672,1,0,0:0:0:0:
171,42,57829,1,8,0:0:0:0:
181,49,57907,1,8,0:0:0:0:
181,49,58063,1,0,0:0:0:0:
181,49,58141,1,0,0:0:0:0:
171,42,58375,1,8,0:0:0:0:
171,42,58610,1,0,0:0:0:0:
171,42,58844,1,8,0:0:0:0:
171,42,59079,1,0,0:0:0:0:
171,42,60407,1,0,0:0:0:0:
171,42,60719,1,0,0:0:0:0:
171,42,60954,1,0,0:0:0:0:
192,138,62125,1,8,0:0:0:0:
192,138,62282,1,8,0:0:0:0:
192,138,62360,1,8,0:0:0:0:
192,138,62516,1,8,0:0:0:0:
192,138,62594,1,8,0:0:0:0:
186,137,62750,1,8,0:0:0:0:
192,138,62829,1,8,0:0:0:0:
168,114,63063,1,0,0:0:0:0:
168,114,63297,1,8,0:0:0:0:
168,114,63532,1,0,0:0:0:0:
168,114,63688,1,0,0:0:0:0:
168,114,63766,1,8,0:0:0:0:
168,114,63922,1,8,0:0:0:0:
168,114,64000,1,0,0:0:0:0:
168,114,64235,1,8,0:0:0:0:
168,114,64469,1,8,0:0:0:0:
168,114,64704,1,4,0:0:0:0:
154,91,64938,1,0,0:0:0:0:
168,114,65094,1,12,0:0:0:0:
168,114,65407,1,12,0:0:0:0:
171,104,65641,1,0,0:0:0:0:
207,28,65719,1,0,0:0:0:0:
171,104,65797,1,8,0:0:0:0:
171,104,65875,1,0,0:0:0:0:
171,104,65954,1,0,0:0:0:0:
171,104,66032,1,8,0:0:0:0:
171,104,66110,1,0,0:0:0:0:
171,104,66188,1,0,0:0:0:0:
171,104,66266,1,8,0:0:0:0:
171,104,66344,1,8,0:0:0:0:
171,104,66422,1,8,0:0:0:0:
171,104,66500,1,8,0:0:0:0:
171,104,66579,1,0,0:0:0:0:
171,104,66735,1,0,0:0:0:0:
186,64,66969,1,8,0:0:0:0:
186,64,67204,1,8,0:0:0:0:
186,64,67438,1,8,0:0:0:0:
186,64,67868,1,0,0:0:0:0:
186,64,67926,1,0,0:0:0:0:
186,64,67985,1,8,0:0:0:0:
186,64,68219,1,8,0:0:0:0:
186,64,68454,1,12,0:0:0:0:
186,64,68610,1,12,0:0:0:0:
186,64,68844,1,12,0:0:0:0:
186,64,69079,1,12,0:0:0:0:
186,64,69313,1,12,0:0:0:0:
186,64,69625,1,0,0:0:0:0:
186,64,69860,1,8,0:0:0:0:
186,64,69938,1,8,0:0:0:0:
186,64,70016,1,0,0:0:0:0:
186,64,70094,1,8,0:0:0:0:
186,64,70172,1,8,0:0:0:0:
186,64,70250,1,8,0:0:0:0:
186,64,70329,1,4,0:0:0:0:
174,23,70563,1,8,0:0:0:0:
174,23,70797,1,0,0:0:0:0:
174,23,70954,1,0,0:0:0:0:
172,28,71032,1,8,0:0:0:0:
174,23,71188,1,0,0:0:0:0:
172,28,71266,1,8,0:0:0:0:
206,12,71422,1,8,0:0:0:0:
178,24,71500,1,8,0:0:0:0:
178,24,71657,1,8,0:0:0:0:
178,24,71735,1,0,0:0:0:0:
178,24,71891,1,0,0:0:0:0:
206,12,71969,1,8,0:0:0:0:
206,12,72047,1,8,0:0:0:0:
178,24,72125,1,8,0:0:0:0:
172,28,72204,1,0,0:0:0:0:
172,28,72438,1,8,0:0:0:0:
178,24,72594,1,0,0:0:0:0:
172,28,72672,1,0,0:0:0:0:
178,24,72829,1,0,0:0:0:0:
172,28,72907,1,8,0:0:0:0:
178,24,73063,1,8,0:0:0:0:
172,28,73141,1,0,0:0:0:0:
178,24,73297,1,0,0:0:0:0:
172,28,73375,1,8,0:0:0:0:
178,24,73532,1,8,0:0:0:0:
172,28,73610,1,0,0:0:0:0:
178,24,73766,1,0,0:0:0:0:
172,28,73844,1,8,0:0:0:0:
178,24,74000,1,0,0:0:0:0:
172,28,74079,1,0,0:0:0:0:
172,28,74313,1,0,0:0:0:0:
178,24,74391,1,0,0:0:0:0:
178,24,74469,1,0,0:0:0:0:
172,28,74547,1,8,0:0:0:0:
172,28,74782,1,8,0:0:0:0:
178,24,74860,1,8,0:0:0:0:
178,24,74938,1,8,0:0:0:0:
172,28,75016,1,0,0:0:0:0:
172,28,75250,1,0,0:0:0:0:
178,24,75329,1,0,0:0:0:0:
178,24,75407,1,0,0:0:0:0:
172,28,75485,1,8,0:0:0:0:
178,24,75719,1,0,0:0:0:0:
178,24,75954,1,8,0:0:0:0:
178,24,76110,1,8,0:0:0:0:
172,31,76188,1,0,0:0:0:0:
172,28,76422,1,12,0:0:0:0:
172,28,76579,1,0,0:0:0:0:
168,47,76657,1,8,0:0:0:0:
171,29,76735,1,8,0:0:0:0:
172,28,76813,1,8,0:0:0:0:
171,29,76891,1,0,0:0:0:0:
168,47,77047,1,8,0:0:0:0:
168,47,77125,1,8,0:0:0:0:
168,47,77204,1,8,0:0:0:0:
168,47,77282,1,8,0:0:0:0:
168,47,77360,1,0,0:0:0:0:
168,47,77594,1,8,0:0:0:0:
168,47,77750,1,8,0:0:0:0:
172,28,77829,1,0,0:0:0:0:
191,22,77985,1,0,0:0:0:0:
172,28,78063,1,8,0:0:0:0:
171,46,78219,1,8,0:0:0:0:
172,28,78297,1,0,0:0:0:0:
171,46,78454,1,0,0:0:0:0:
172,28,78532,1,8,0:0:0:0:
171,46,78688,1,8,0:0:0:0:
171,46,78766,1,0,0:0:0:0:
171,46,79000,1,8,0:0:0:0:
171,46,79157,1,8,0:0:0:0:
171,46,79235,1,0,0:0:0:0:
171,46,79391,1,0,0:0:0:0:
172,28,79469,1,8,0:0:0:0:
172,28,79704,1,0,0:0:0:0:
172,28,79938,1,8,0:0:0:0:
191,22,80094,1,8,0:0:0:0:
172,28,80172,1,0,0:0:0:0:
171,46,80329,1,0,0:0:0:0:
172,28,80407,1,8,0:0:0:0:
171,46,80563,1,8,0:0:0:0:
172,28,80641,1,0,0:0:0:0:
171,46,80797,1,0,0:0:0:0:
171,46,80875,1,8,0:0:0:0:
171,46,81110,1,0,0:0:0:0:
191,22,81266,1,0,0:0:0:0:
172,28,81344,1,8,0:0:0:0:
171,45,81500,1,8,0:0:0:0:
172,28,81579,1,0,0:0:0:0:
172,28,81813,1,8,0:0:0:0:
191,22,81969,1,8,0:0:0:0:
172,28,82047,1,0,0:0:0:0:
171,45,82204,1,0,0:0:0:0:
171,45,82282,1,8,0:0:0:0:
171,45,82438,1,0,0:0:0:0:
171,45,82516,1,8,0:0:0:0:
171,45,82594,1,8,0:0:0:0:
171,45,82672,1,8,0:0:0:0:
172,28,82750,1,0,0:0:0:0:
181,19,82907,1,0,0:0:0:0:
172,28,82985,1,8,0:0:0:0:
171,45,83141,1,8,0:0:0:0:
171,45,83219,1,8,0:0:0:0:
171,45,83297,1,0,0:0:0:0:
171,45,83375,1,0,0:0:0:0:
171,45,83454,1,12,0:0:0:0:
171,45,83610,1,12,0:0:0:0:
171,45,83844,1,12,0:0:0:0:
171,45,84079,1,12,0:0:0:0:
171,45,84313,1,12,0:0:0:0:
171,45,84625,1,0,0:0:0:0:
171,45,84860,1,8,0:0:0:0:
171,45,84938,1,8,0:0:0:0:
171,45,85016,1,0,0:0:0:0:
171,45,85094,1,8,0:0:0:0:
171,45,85172,1,8,0:0:0:0:
171,45,85250,1,8,0:0:0:0:
171,45,85329,1,4,0:0:0:0:
174,23,85563,1,8,0:0:0:0:
174,23,85797,1,0,0:0:0:0:
174,23,85954,1,0,0:0:0:0:
172,28,86032,1,8,0:0:0:0:
174,23,86188,1,0,0:0:0:0:
172,28,86266,1,8,0:0:0:0:
200,19,86422,1,8,0:0:0:0:
178,24,86500,1,8,0:0:0:0:
178,24,86657,1,8,0:0:0:0:
178,24,86735,1,0,0:0:0:0:
178,24,86891,1,0,0:0:0:0:
172,28,86969,1,8,0:0:0:0:
200,19,87047,1,8,0:0:0:0:
178,24,87125,1,8,0:0:0:0:
172,28,87204,1,0,0:0:0:0:
172,28,87438,1,8,0:0:0:0:
178,24,87594,1,0,0:0:0:0:
172,28,87672,1,0,0:0:0:0:
178,24,87829,1,0,0:0:0:0:
172,28,87907,1,8,0:0:0:0:
178,24,88063,1,8,0:0:0:0:
172,28,88141,1,0,0:0:0:0:
200,19,88297,1,8,0:0:0:0:
200,19,88375,1,8,0:0:0:0:
178,24,88532,1,8,0:0:0:0:
172,28,88610,1,0,0:0:0:0:
200,19,88766,1,8,0:0:0:0:
172,28,88844,1,8,0:0:0:0:
200,19,88922,1,0,0:0:0:0:
200,19,89000,1,8,0:0:0:0:
172,28,89079,1,0,0:0:0:0:
172,28,89313,1,0,0:0:0:0:
178,24,89391,1,0,0:0:0:0:
178,24,89469,1,0,0:0:0:0:
172,28,89547,1,8,0:0:0:0:
172,28,89782,1,8,0:0:0:0:
178,24,89860,1,8,0:0:0:0:
178,24,89938,1,8,0:0:0:0:
172,28,90016,1,0,0:0:0:0:
172,28,90250,1,0,0:0:0:0:
178,24,90329,1,0,0:0:0:0:
178,24,90407,1,0,0:0:0:0:
172,28,90485,1,8,0:0:0:0:
178,24,90719,1,0,0:0:0:0:
178,24,90954,1,8,0:0:0:0:
178,24,91110,1,8,0:0:0:0:
172,31,91188,1,0,0:0:0:0:
172,28,91422,1,12,0:0:0:0:
172,28,91579,1,0,0:0:0:0:
168,47,91657,1,8,0:0:0:0:
171,29,91735,1,8,0:0:0:0:
172,28,91813,1,8,0:0:0:0:
171,29,91891,1,0,0:0:0:0:
168,47,92047,1,8,0:0:0:0:
168,47,92125,1,8,0:0:0:0:
168,47,92204,1,0,0:0:0:0:
168,47,92282,1,0,0:0:0:0:
168,47,92360,1,8,0:0:0:0:
189,30,92516,1,8,0:0:0:0:
168,47,92594,1,8,0:0:0:0:
168,47,92750,1,8,0:0:0:0:
172,28,92829,1,0,0:0:0:0:
172,28,93063,1,8,0:0:0:0:
171,46,93219,1,8,0:0:0:0:
172,28,93297,1,0,0:0:0:0:
171,46,93454,1,0,0:0:0:0:
172,28,93532,1,8,0:0:0:0:
171,46,93688,1,8,0:0:0:0:
171,46,93766,1,0,0:0:0:0:
195,25,93922,1,0,0:0:0:0:
171,46,94000,1,8,0:0:0:0:
171,46,94157,1,8,0:0:0:0:
171,46,94235,1,0,0:0:0:0:
171,46,94391,1,0,0:0:0:0:
172,28,94469,1,8,0:0:0:0:
195,25,94625,1,0,0:0:0:0:
172,28,94704,1,0,0:0:0:0:
172,28,94938,1,8,0:0:0:0:
172,28,95172,1,0,0:0:0:0:
171,46,95329,1,0,0:0:0:0:
172,28,95407,1,8,0:0:0:0:
171,46,95563,1,8,0:0:0:0:
172,28,95641,1,0,0:0:0:0:
171,46,95797,1,0,0:0:0:0:
171,46,95875,1,8,0:0:0:0:
171,46,96110,1,0,0:0:0:0:
188,22,96266,1,0,0:0:0:0:
172,28,96344,1,8,0:0:0:0:
171,45,96500,1,8,0:0:0:0:
172,28,96579,1,0,0:0:0:0:
172,28,96813,1,8,0:0:0:0:
188,22,96969,1,8,0:0:0:0:
172,28,97047,1,0,0:0:0:0:
171,45,97204,1,0,0:0:0:0:
171,45,97282,1,8,0:0:0:0:
171,45,97438,1,0,0:0:0:0:
171,45,97516,1,8,0:0:0:0:
188,22,97594,1,0,0:0:0:0:
188,22,97672,1,0,0:0:0:0:
188,22,97750,1,8,0:0:0:0:
188,22,97907,1,0,0:0:0:0:
171,10,97985,1,8,0:0:0:0:
188,22,98141,1,0,0:0:0:0:
177,15,98219,1,8,0:0:0:0:
196,50,98297,1,8,0:0:0:0:
196,50,98375,1,8,0:0:0:0:
177,15,98454,1,0,0:0:0:0:
177,15,98688,1,0,0:0:0:0:
196,50,98922,1,12,0:0:0:0:
196,50,99157,1,8,0:0:0:0:
196,50,99391,1,0,0:0:0:0:
199,46,99860,1,8,0:0:0:0:
199,46,100250,1,8,0:0:0:0:
199,46,100329,1,0,0:0:0:0:
199,46,100563,1,0,0:0:0:0:
199,46,100719,1,0,0:0:0:0:
199,46,100954,1,0,0:0:0:0:
199,46,101188,1,0,0:0:0:0:
199,46,101422,1,0,0:0:0:0:
199,46,101500,1,0,0:0:0:0:
199,46,101657,1,0,0:0:0:0:
199,46,101735,1,8,0:0:0:0:
199,46,101969,1,0,0:0:0:0:
199,46,102204,1,8,0:0:0:0:
199,46,102360,1,8,0:0:0:0:
199,46,102438,1,0,0:0:0:0:
199,46,102594,1,0,0:0:0:0:
199,46,102672,1,8,0:0:0:0:
199,46,102829,1,0,0:0:0:0:
199,46,103063,1,0,0:0:0:0:
199,46,103375,1,8,0:0:0:0:
199,46,103532,1,8,0:0:0:0:
199,46,103610,1,8,0:0:0:0:
199,46,103766,1,8,0:0:0:0:
199,46,103844,1,8,0:0:0:0:
199,46,104000,1,8,0:0:0:0:
199,46,104079,1,0,0:0:0:0:
199,46,104313,1,8,0:0:0:0:
199,46,104469,1,0,0:0:0:0:
199,46,104704,1,8,0:0:0:0:
199,46,104938,1,0,0:0:0:0:
199,46,105172,1,8,0:0:0:0:
199,46,105250,1,0,0:0:0:0:
199,46,105407,1,0,0:0:0:0:
199,46,105485,1,8,0:0:0:0:
199,46,105719,1,0,0:0:0:0:
199,46,105954,1,8,0:0:0:0:
199,46,106110,1,0,0:0:0:0:
199,46,106188,1,8,0:0:0:0:
199,46,106344,1,8,0:0:0:0:
199,46,106422,1,0,0:0:0:0:
199,46,106579,1,8,0:0:0:0:
199,46,106813,1,8,0:0:0:0:
199,46,107360,1,8,0:0:0:0:
199,46,107438,1,8,0:0:0:0:
199,46,107516,1,8,0:0:0:0:
199,46,107594,1,8,0:0:0:0:
199,46,107672,1,8,0:0:0:0:
199,46,107750,1,8,0:0:0:0:
199,46,107829,1,0,0:0:0:0:
