osu file format v14

[General]
AudioFilename: audio.mp3
AudioLeadIn: 0
PreviewTime: 37880
Countdown: 3
SampleSet: None
StackLeniency: 0.7
Mode: 0
LetterboxInBreaks: 0
WidescreenStoryboard: 1

[Editor]
DistanceSpacing: 1.3
BeatDivisor: 4
GridSize: 32
TimelineZoom: 1.4

[Metadata]
Title:Inferno
TitleUnicode:インフェルノ
Artist:Mrs.GREEN APPLE
ArtistUnicode:Mrs.GREEN APPLE
Creator:Lewtoo
Version:Sang Lai's Extra
Source:Enen no Shouboutai
Tags:
BeatmapID:2096026
BeatmapSetID:998579

[Difficulty]
HPDrainRate:5.3
CircleSize:4.7
OverallDifficulty:9
ApproachRate:9.2
SliderMultiplier:1.85
SliderTickRate:8

[Events]
//Background and Video events
0,0,"fire.jpg",0,0
//Break Periods
//Storyboard Layer 0 (Background)
//Storyboard Layer 1 (Fail)
//Storyboard Layer 2 (Pass)
//Storyboard Layer 3 (Foreground)
//Storyboard Sound Samples

[TimingPoints]
750,324.324324324324,4,2,22,65,1,0
5777,-133.333333333333,4,2,22,45,0,0
16317,-105.263157894737,4,2,22,55,0,0
26695,-133.333333333334,4,2,22,40,0,0
38371,-95.2380952380952,4,2,22,75,0,1
47452,-95.2380952380952,4,2,22,75,0,0
48749,-95.2380952380952,4,2,22,75,0,1
59128,-95.2380952380952,4,2,22,85,0,1
64317,-95.2380952380952,4,2,22,75,0,0
74695,-95.2380952380952,4,2,22,75,0,1
85074,-95.2380952380952,4,2,22,85,0,1
87668,-181.818181818182,4,2,22,75,0,0
89290,-181.818181818182,4,2,22,5,0,0

[Colours]
Combo1 : 222,90,3
Combo2 : 255,32,32
Combo3 : 19,22,45
Combo4 : 128,255,255

[HitObjects]
312,305,344,6,0,P|261:286|231:260,1,92.5
165,168,668,1,0,0:0:0:0:
203,91,831,1,0,0:0:0:0:
318,90,993,2,0,P|380:114|427:155,1,92.5
458,217,1317,6,0,P|443:274|402:322,1,92.5
298,284,1641,1,0,0:0:0:0:
297,201,1804,1,0,0:0:0:0:
173,155,1966,2,0,P|135:131|105:75,2,92.5
321,169,2452,1,0,0:0:0:0:
329,277,2614,2,0,P|383:296|439:290,1,92.5
449,200,2939,6,0,P|397:177|365:140,1,92.5
243,40,3263,1,0,0:0:0:0:
138,96,3426,1,0,0:0:0:0:
188,141,3587,2,0,P|227:170|251:210,1,92.5
406,225,3912,1,0,0:0:0:0:
219,306,4074,1,0,0:0:0:0:
363,269,4236,2,0,P|280:297|254:276,1,92.5
127,257,4561,5,0,0:0:0:0:
218,65,4723,1,0,0:0:0:0:
32,172,4885,1,0,0:0:0:0:
236,200,5047,1,0,0:0:0:0:
81,53,5209,1,0,0:0:0:0:
126,271,5372,1,0,0:0:0:0:
283,96,5534,6,0,P|338:159|265:221,1,185
211,105,6182,1,0,0:0:0:0:
39,167,6506,1,0,0:0:0:0:
192,38,6830,1,0,0:0:0:0:
377,198,7316,5,0,0:0:0:0:
182,286,7479,1,0,0:0:0:0:
323,124,7966,2,0,L|231:157,1,69.3750026464463
111,191,8290,5,0,0:0:0:0:
327,266,8452,1,0,0:0:0:0:
199,98,8614,1,0,0:0:0:0:
201,268,8777,1,0,0:0:0:0:
332,106,8939,1,0,0:0:0:0:
263,187,9101,1,0,0:0:0:0:
439,237,9263,2,0,P|422:293|390:315,1,69.3750026464463
286,285,9587,1,0,0:0:0:0:
228,151,9750,1,0,0:0:0:0:
68,271,10074,1,0,0:0:0:0:
244,74,10398,5,0,0:0:0:0:
412,193,10560,1,0,0:0:0:0:
169,251,10722,1,0,0:0:0:0:
343,207,11046,2,0,P|287:268|235:262,1,138.750005292893
174,198,11695,1,0,0:0:0:0:
328,199,12020,1,0,0:0:0:0:
328,199,12101,1,0,0:0:0:0:
328,199,12182,1,0,0:0:0:0:
216,299,12506,1,0,0:0:0:0:
96,140,12668,1,0,0:0:0:0:
337,256,13155,5,0,0:0:0:0:
131,110,13317,1,0,0:0:0:0:
386,135,13480,1,0,0:0:0:0:
185,258,13642,1,0,0:0:0:0:
265,54,13804,1,0,0:0:0:0:
358,244,13966,1,0,0:0:0:0:
133,145,14128,1,0,0:0:0:0:
369,103,14290,1,0,0:0:0:0:
210,279,14453,1,0,0:0:0:0:
239,100,14615,2,0,P|310:76|330:86,1,69.3750026464463
259,284,15101,2,0,P|190:308|181:300,1,69.3750026464463
271,180,15587,5,0,0:0:0:0:
414,208,15749,1,0,0:0:0:0:
311,306,15912,1,0,0:0:0:0:
93,323,16236,1,0,0:0:0:0:
188,83,16561,1,0,0:0:0:0:
296,276,16885,1,0,0:0:0:0:
113,216,17209,1,0,0:0:0:0:
113,216,17290,1,0,0:0:0:0:
113,216,17371,1,0,0:0:0:0:
309,162,17696,1,0,0:0:0:0:
150,299,17858,1,0,0:0:0:0:
169,218,18344,5,0,0:0:0:0:
175,42,18507,1,0,0:0:0:0:
266,184,18669,1,0,0:0:0:0:
94,111,18831,1,0,0:0:0:0:
276,75,18993,1,0,0:0:0:0:
356,140,19155,2,0,P|412:227|350:288,1,175.749995306969
257,291,19641,1,0,0:0:0:0:
193,343,19803,1,0,0:0:0:0:
137,281,19965,1,0,0:0:0:0:
200,233,20127,1,0,0:0:0:0:
262,143,20452,1,0,0:0:0:0:
354,96,20776,5,0,0:0:0:0:
445,221,20938,1,0,0:0:0:0:
273,216,21100,1,0,0:0:0:0:
477,300,21425,1,0,0:0:0:0:
159,236,21749,1,0,0:0:0:0:
336,47,22074,1,0,0:0:0:0:
170,264,22398,1,0,0:0:0:0:
170,264,22479,1,0,0:0:0:0:
170,264,22560,1,0,0:0:0:0:
341,253,22885,1,0,0:0:0:0:
186,117,23047,1,0,0:0:0:0:
130,140,23533,5,0,0:0:0:0:
230,298,23695,1,0,0:0:0:0:
319,141,23857,1,0,0:0:0:0:
109,254,24020,1,0,0:0:0:0:
224,72,24182,1,0,0:0:0:0:
341,261,24344,1,0,0:0:0:0:
155,111,24507,1,0,0:0:0:0:
194,290,24669,1,0,0:0:0:0:
336,167,24831,1,0,0:0:0:0:
99,216,24993,1,0,0:0:0:0:
256,81,25155,1,0,0:0:0:0:
59,73,25966,5,0,0:0:0:0:
200,180,26128,1,0,0:0:0:0:
46,186,26290,2,0,P|127:148|145:64,1,175.749995306969
198,135,26777,1,0,0:0:0:0:
322,31,26939,2,0,P|303:116|249:159,1,138.750005292893
325,195,27426,1,0,0:0:0:0:
276,314,27588,2,0,P|351:281|385:210,1,138.750005292893
294,224,28074,1,0,0:0:0:0:
429,317,28236,5,0,0:0:0:0:
424,199,28560,2,0,P|381:229|345:307,1,138.750005292893
306,200,29047,1,0,0:0:0:0:
220,218,29209,2,0,P|245:151|299:108,1,138.750005292893
191,124,29696,1,0,0:0:0:0:
145,51,29858,2,0,P|113:83|99:134,2,69.3750026464463
397,105,30831,6,0,P|345:173|339:175,1,69.3750026464463
248,134,31155,2,0,P|252:107|281:66,1,69.3750026464463
422,154,31480,2,0,P|414:192|382:225,1,69.3750026464463
338,304,31804,5,0,0:0:0:0:
112,218,32128,1,0,0:0:0:0:
254,135,32453,1,0,0:0:0:0:
257,329,32777,1,0,0:0:0:0:
403,206,33101,1,0,0:0:0:0:
108,198,33426,1,0,0:0:0:0:
259,118,33750,1,0,0:0:0:0:
364,293,34074,6,0,P|307:338|241:328,2,138.750005292893
256,123,35371,6,2,L|256:277,1,138.750005292893
181,192,35858,2,2,L|350:194,1,138.750005292893
361,116,36668,5,0,0:0:0:0:
194,192,36831,1,0,0:0:0:0:
394,259,36993,1,0,0:0:0:0:
283,98,37155,1,0,0:0:0:0:
283,287,37317,1,0,0:0:0:0:
361,116,37479,5,0,0:0:0:0:
361,116,37641,1,14,0:0:0:0:
361,116,37804,1,0,0:0:0:0:
296,46,37966,2,2,P|221:65|205:77,1,69.3750026464463
215,168,38290,5,2,0:0:0:0:
101,204,38452,1,2,0:0:0:0:
85,142,38614,2,2,P|141:95|197:81,1,97.1249970359803
306,172,38939,5,2,0:0:0:0:
436,112,39100,1,2,0:0:0:0:
462,169,39263,2,2,P|446:235|404:275,1,97.1249970359803
270,202,39587,5,2,0:0:0:0:
100,214,39749,1,2,0:0:0:0:
101,153,39912,2,2,P|150:107|221:95,1,97.1249970359803
260,193,40236,5,2,0:0:0:0:
408,226,40399,1,2,0:0:0:0:
400,284,40561,2,2,P|327:337|286:330,1,97.1249970359803
288,231,40885,5,2,0:0:0:0:
154,173,41047,1,2,0:0:0:0:
188,120,41209,2,2,P|268:136|307:118,1,97.1249970359803
400,178,41533,5,2,0:0:0:0:
420,57,41696,1,2,0:0:0:0:
325,62,41858,1,2,0:0:0:0:
297,69,41939,1,2,0:0:0:0:
274,81,42020,1,2,0:0:0:0:
244,95,42101,1,2,0:0:0:0:
219,113,42182,1,2,0:0:0:0:
201,139,42263,1,2,0:0:0:0:
188,170,42344,1,2,0:0:0:0:
183,201,42426,1,2,0:0:0:0:
193,232,42507,1,2,0:0:0:0:
255,78,42993,5,2,0:0:0:0:
408,236,43155,2,2,P|381:133|364:113,1,97.1249970359803
408,61,43479,5,2,0:0:0:0:
288,109,43642,1,2,0:0:0:0:
221,235,43804,2,2,P|169:170|169:125,1,97.1249970359803
262,142,44128,5,2,0:0:0:0:
152,50,44290,1,2,0:0:0:0:
105,81,44452,2,2,P|82:201|83:203,1,97.1249970359803
232,174,44777,5,2,0:0:0:0:
159,328,44939,1,2,0:0:0:0:
215,326,45101,2,2,P|300:295|328:256,1,97.1249970359803
265,218,45425,5,2,0:0:0:0:
393,117,45588,1,2,0:0:0:0:
331,104,45750,2,2,P|250:68|208:78,1,97.1249970359803
134,90,46074,5,2,0:0:0:0:
206,197,46236,1,2,0:0:0:0:
146,181,46398,2,2,L|94:151,4,48.5624985179902
160,76,46884,5,2,0:0:0:0:
105,128,47046,1,2,0:0:0:0:
88,166,47127,1,2,0:0:0:0:
86,202,47208,1,2,0:0:0:0:
97,233,47289,1,2,0:0:0:0:
129,257,47371,1,2,0:0:0:0:
191,129,47695,5,0,0:0:0:0:
212,106,47776,1,0,0:0:0:0:
240,84,47857,1,0,0:0:0:0:
270,72,47938,1,0,0:0:0:0:
307,68,48019,1,0,0:0:0:0:
341,72,48100,1,0,0:0:0:0:
377,93,48181,1,0,0:0:0:0:
395,213,48343,6,2,P|343:326|341:328,1,97.1249970359803
252,315,48668,5,0,0:0:0:0:
318,247,48830,1,2,0:0:0:0:
199,294,48992,2,2,P|161:214|177:177,1,97.1249970359803
263,186,49317,5,0,0:0:0:0:
254,88,49479,1,2,0:0:0:0:
418,168,49641,2,2,P|383:61|378:58,1,97.1249970359803
290,192,49966,5,0,0:0:0:0:
210,122,50127,1,2,0:0:0:0:
128,117,50289,2,2,P|87:217|95:226,1,97.1249970359803
201,181,50614,5,0,0:0:0:0:
277,265,50776,1,2,0:0:0:0:
336,258,50938,2,2,P|415:172|414:169,1,97.1249970359803
284,165,51263,5,0,0:0:0:0:
324,68,51425,1,2,0:0:0:0:
208,35,51587,2,0,P|122:95|121:113,1,97.1249970359803
229,188,51912,5,0,0:0:0:0:
98,240,52073,1,2,0:0:0:0:
163,258,52235,2,0,P|216:143|294:83,1,194.249994071961
324,69,52722,1,2,0:0:0:0:
412,68,52884,5,0,0:0:0:0:
432,92,52965,1,0,0:0:0:0:
445,122,53046,1,0,0:0:0:0:
453,153,53127,1,0,0:0:0:0:
454,179,53208,1,0,0:0:0:0:
448,208,53289,1,0,0:0:0:0:
435,235,53371,1,0,0:0:0:0:
410,257,53452,1,0,0:0:0:0:
390,277,53533,2,2,P|266:319|145:220,1,291.374991107941
64,224,54181,2,2,P|148:96|290:86,1,291.374991107941
448,224,54830,2,2,P|378:100|236:90,1,291.374991107941
255,140,55479,6,2,L|166:191,1,97.1249970359803
98,122,55804,2,2,L|187:203,1,97.1249970359803
148,282,56128,2,2,L|173:174,1,97.1249970359803
189,128,56453,2,2,P|228:77|276:87,1,97.1249970359803
321,70,56777,5,2,0:0:0:0:
436,207,56939,1,2,0:0:0:0:
266,149,57101,1,2,0:0:0:0:
420,80,57263,1,2,0:0:0:0:
341,262,57426,2,2,P|255:326|112:233,1,291.374991107941
108,173,58074,1,2,0:0:0:0:
134,109,58722,2,0,B|133:220,1,97.1249970359803
224,209,59047,1,0,0:0:0:0:
232,99,59209,1,0,0:0:0:0:
339,205,59372,6,2,L|338:98,1,97.1249970359803
433,101,59695,1,0,0:0:0:0:
432,221,59858,1,0,0:0:0:0:
341,157,60020,6,2,L|223:154,1,97.1249970359803
209,64,60344,1,0,0:0:0:0:
340,64,60506,1,0,0:0:0:0:
227,132,60669,6,2,L|331:134,1,97.1249970359803
351,231,60993,1,0,0:0:0:0:
212,226,61155,1,0,0:0:0:0:
335,114,61317,6,2,L|256:193,1,97.1249970359803
342,250,61642,6,2,L|255:193,1,97.1249970359803
173,121,61966,6,2,L|256:191,1,97.1249970359803
385,239,62290,6,2,L|255:192,1,97.1249970359803
147,138,62615,6,2,L|255:190,1,97.1249970359803
417,116,62939,5,2,0:0:0:0:
397,308,63101,1,2,0:0:0:0:
317,127,63263,1,2,0:0:0:0:
482,235,63426,1,2,0:0:0:0:
280,240,63588,1,2,0:0:0:0:
431,141,63750,1,2,0:0:0:0:
283,93,63912,2,0,P|139:79|83:137,1,194.249994071961
64,192,64399,5,0,0:0:0:0:
256,320,64561,1,0,0:0:0:0:
64,192,65047,5,0,0:0:0:0:
317,127,65209,1,0,0:0:0:0:
317,127,65290,1,0,0:0:0:0:
317,127,65371,1,0,0:0:0:0:
88,139,65696,5,0,0:0:0:0:
309,68,65858,1,0,0:0:0:0:
309,68,65939,1,0,0:0:0:0:
309,68,66020,1,0,0:0:0:0:
126,91,66344,5,0,0:0:0:0:
381,173,66506,1,0,0:0:0:0:
381,173,66587,1,0,0:0:0:0:
381,173,66668,1,0,0:0:0:0:
101,145,66992,5,0,0:0:0:0:
361,228,67154,1,0,0:0:0:0:
361,228,67236,1,0,0:0:0:0:
361,228,67317,1,0,0:0:0:0:
384,128,67641,5,0,0:0:0:0:
160,192,67803,1,0,0:0:0:0:
160,192,67885,1,0,0:0:0:0:
160,192,67966,1,0,0:0:0:0:
384,192,68289,5,0,0:0:0:0:
384,192,68371,1,0,0:0:0:0:
384,192,68452,1,0,0:0:0:0:
384,320,68938,5,0,0:0:0:0:
256,192,69100,1,0,0:0:0:0:
351,97,69587,5,0,0:0:0:0:
256,192,69750,1,0,0:0:0:0:
128,320,70236,5,0,0:0:0:0:
256,192,70399,1,0,0:0:0:0:
160,96,70885,5,0,0:0:0:0:
256,192,71047,1,0,0:0:0:0:
416,192,71534,5,0,0:0:0:0:
256,192,71696,1,0,0:0:0:0:
64,192,72182,5,0,0:0:0:0:
256,192,72344,1,0,0:0:0:0:
256,192,72425,1,0,0:0:0:0:
256,192,72506,1,0,0:0:0:0:
256,192,72587,1,0,0:0:0:0:
256,192,72668,1,0,0:0:0:0:
297,270,72993,5,8,0:0:0:0:
297,270,73155,1,8,0:0:0:0:
128,160,73641,5,8,0:0:0:0:
288,96,73804,1,8,0:0:0:0:
58,41,74128,5,0,0:0:0:0:
243,102,74290,1,0,0:0:0:0:
47,165,74453,1,0,0:0:0:0:
164,34,74615,1,0,0:0:0:0:
154,213,74777,1,0,0:0:0:0:
305,92,74939,1,0,0:0:0:0:
338,106,75020,1,0,0:0:0:0:
366,129,75101,1,0,0:0:0:0:
383,153,75182,1,0,0:0:0:0:
399,191,75263,1,0,0:0:0:0:
389,267,75425,5,0,0:0:0:0:
233,165,75587,1,0,0:0:0:0:
291,336,75749,1,0,0:0:0:0:
343,168,75911,1,0,0:0:0:0:
196,265,76073,1,0,0:0:0:0:
104,220,76236,1,0,0:0:0:0:
97,174,76317,1,0,0:0:0:0:
101,136,76398,1,0,0:0:0:0:
129,105,76479,1,0,0:0:0:0:
173,85,76560,1,0,0:0:0:0:
307,109,76722,5,0,0:0:0:0:
361,129,76884,2,0,L|393:151,6,32.3749990119934
447,286,77371,5,0,0:0:0:0:
408,329,77533,2,2,P|288:335|196:269,1,194.249994071961
79,184,78020,5,0,0:0:0:0:
50,133,78182,2,2,P|177:66|258:77,1,194.249994071961
312,89,78831,5,0,0:0:0:0:
339,110,78912,1,0,0:0:0:0:
363,137,78993,1,0,0:0:0:0:
381,164,79074,1,0,0:0:0:0:
390,204,79155,1,0,0:0:0:0:
387,235,79236,1,0,0:0:0:0:
369,273,79317,1,0,0:0:0:0:
343,293,79399,1,0,0:0:0:0:
305,303,79480,1,0,0:0:0:0:
253,109,79804,5,0,0:0:0:0:
45,214,80128,1,0,0:0:0:0:
367,95,80453,1,0,0:0:0:0:
97,42,80777,1,0,0:0:0:0:
392,237,81101,1,0,0:0:0:0:
107,173,81426,1,0,0:0:0:0:
416,232,81749,1,0,0:0:0:0:
139,308,82073,5,0,0:0:0:0:
157,284,82154,1,0,0:0:0:0:
184,250,82235,1,0,0:0:0:0:
208,231,82316,1,0,0:0:0:0:
241,209,82398,1,0,0:0:0:0:
269,196,82479,1,0,0:0:0:0:
303,185,82560,1,0,0:0:0:0:
339,184,82641,1,0,0:0:0:0:
379,193,82722,2,2,B|416:196|436:217,4,48.5624985179902
260,123,83208,5,0,0:0:0:0:
270,289,83371,1,0,0:0:0:0:
110,203,83533,1,0,0:0:0:0:
316,190,83695,1,0,0:0:0:0:
153,298,83857,1,0,0:0:0:0:
221,134,84019,1,0,0:0:0:0:
321,57,84181,1,0,0:0:0:0:
364,175,84343,1,0,0:0:0:0:
237,169,84506,1,0,0:0:0:0:
333,88,84668,1,0,0:0:0:0:
383,203,84830,1,0,0:0:0:0:
253,256,84993,5,0,0:0:0:0:
253,256,85155,1,0,0:0:0:0:
130,139,85317,5,0,0:0:0:0:
130,139,85479,1,0,0:0:0:0:
298,75,85641,5,0,0:0:0:0:
298,75,85804,1,0,0:0:0:0:
378,230,85966,5,0,0:0:0:0:
378,230,86128,1,0,0:0:0:0:
217,291,86290,5,0,0:0:0:0:
217,291,86452,1,0,0:0:0:0:
215,202,86614,5,0,0:0:0:0:
215,202,86777,1,0,0:0:0:0:
190,71,86939,5,0,0:0:0:0:
298,247,87101,1,0,0:0:0:0:
106,164,87263,1,0,0:0:0:0:
306,115,87426,1,0,0:0:0:0:
173,275,87588,1,0,0:0:0:0:
239,65,87750,1,0,0:0:0:0:
266,273,87912,1,0,0:0:0:0:
127,129,88074,1,0,0:0:0:0:
345,112,88236,1,0,0:0:0:0:
156,243,88399,1,0,0:0:0:0:
250,175,88561,6,0,L|258:188,12,8.47916692543031
