osu file format v14

[General]
AudioFilename: audio.mp3
AudioLeadIn: 0
PreviewTime: 38159
Countdown: 0
SampleSet: None
StackLeniency: 0.7
Mode: 0
LetterboxInBreaks: 0
WidescreenStoryboard: 0

[Editor]
Bookmarks: 44078
DistanceSpacing: 0.2
BeatDivisor: 8
GridSize: 32
TimelineZoom: 3.999999

[Metadata]
Title:Inferno
TitleUnicode:インフェルノ
Artist:Mrs.GREEN APPLE
ArtistUnicode:Mrs.GREEN APPLE
Creator:Atomosphere
Version:Reignite
Source:炎炎ノ消防隊
Tags:enen no shouboutai
BeatmapID:2093824
BeatmapSetID:1000423

[Difficulty]
HPDrainRate:5
CircleSize:4.3
OverallDifficulty:8.3
ApproachRate:9
SliderMultiplier:1.6
SliderTickRate:1

[Events]
//Background and Video events
0,0,"cropped-1600-900-1022832.jpg",0,0
//Break Periods
//Storyboard Layer 0 (Background)
//Storyboard Layer 1 (Fail)
//Storyboard Layer 2 (Pass)
//Storyboard Layer 3 (Foreground)
//Storyboard Sound Samples

[TimingPoints]
781,324.324324324324,4,3,1,80,1,0
781,-113.636363636364,4,3,1,80,0,0
5970,-133.333333333333,4,3,1,80,0,0
7916,-142.857142857143,4,3,1,80,0,0
8564,-133.333333333333,4,3,1,80,0,0
16348,-128.205128205128,4,3,1,80,0,0
22835,-121.951219512195,4,3,1,80,0,0
26402,-200,4,3,1,80,0,0
26726,-153.846153846154,4,3,1,80,0,0
37916,-66.6666666666667,4,3,1,80,0,0
38078,-55.5555555555556,4,3,1,80,0,0
38402,-100,4,3,1,80,0,1
47159,-58.8235294117647,4,3,1,80,0,1
47483,-100,4,3,1,80,0,0
48780,-93.4579439252336,4,3,1,80,0,1
59159,-100,4,3,1,80,0,0
74726,-90.9090909090909,4,3,1,80,0,1
85105,-100,4,3,1,80,0,0

[Colours]
Combo1 : 141,158,241
Combo2 : 196,60,60
Combo3 : 128,64,64

[HitObjects]
328,37,781,6,0,L|302:189,1,140.800004296875
288,261,1267,1,0,0:0:0:0:
137,354,1429,2,0,L|56:367,1,70.4000021484376
218,203,1753,2,0,P|179:198|148:191,1,70.4000021484376
304,175,2078,5,0,0:0:0:0:
304,175,2240,1,0,0:0:0:0:
387,314,2402,2,0,P|383:279|376:245,1,70.4000021484376
236,104,2726,1,0,0:0:0:0:
400,149,2889,1,0,0:0:0:0:
233,97,3051,2,0,L|216:18,1,70.4000021484376
121,172,3375,6,0,B|83:178|83:178|56:207,1,70.4000021484376
223,310,3699,2,0,B|236:274|236:274|225:236,1,70.4000021484376
51,328,4023,2,0,B|75:357|75:357|113:366,1,70.4000021484376
132,270,4348,1,0,0:0:0:0:
132,270,4672,5,0,0:0:0:0:
327,350,4835,1,0,0:0:0:0:
303,261,4997,1,0,0:0:0:0:
312,237,5078,1,0,0:0:0:0:
326,218,5159,1,0,0:0:0:0:
347,205,5240,1,0,0:0:0:0:
371,199,5321,2,0,L|421:219,1,35.2000010742188
428,43,5483,2,0,L|461:57,1,35.2000010742188
416,128,5808,5,0,0:0:0:0:
346,78,5970,2,0,P|280:78|239:131,2,120.000004577637
170,94,6780,1,0,0:0:0:0:
85,79,6943,2,0,L|97:137,1,60.0000022888184
167,351,7267,6,0,P|167:321|175:292,1,60.0000022888184
251,252,7591,2,0,L|353:271,1,90.0000034332277
366,272,7916,2,0,L|353:206,1,55.9999982910157
466,99,8240,2,0,L|453:33,1,55.9999982910157
282,173,8564,6,0,L|216:160,1,60.0000022888184
42,113,8889,2,0,P|39:85|60:44,1,60.0000022888184
141,109,9213,2,0,L|126:182,1,60.0000022888184
28,358,9537,2,0,P|51:320|92:305,1,90.0000034332277
162,340,9862,1,0,0:0:0:0:
331,247,10024,1,0,0:0:0:0:
258,334,10186,2,0,L|247:276,1,60.0000022888184
474,107,10510,6,0,P|429:164|362:164,1,120.000004577637
215,20,10997,1,0,0:0:0:0:
305,129,11159,2,0,L|293:70,1,60.0000022888184
103,235,11483,6,0,P|134:241|162:247,1,60.0000022888184
266,243,11808,2,0,P|254:272|254:323,1,60.0000022888184
324,360,12132,2,0,L|429:338,1,90.0000034332277
438,337,12456,2,0,L|451:279,1,60.0000022888184
266,243,12780,2,0,L|279:185,1,60.0000022888184
180,340,13105,6,0,L|122:353,1,60.0000022888184
283,167,13429,2,0,L|225:180,1,60.0000022888184
153,138,13672,1,0,0:0:0:0:
147,135,13753,2,0,L|89:148,1,60.0000022888184
22,215,14078,2,0,P|22:250|47:293,1,60.0000022888184
233,238,14402,2,0,P|233:203|208:160,1,60.0000022888184
180,340,14726,6,0,L|267:320,1,90.0000034332277
345,301,15051,1,0,0:0:0:0:
408,119,15213,1,0,0:0:0:0:
422,207,15375,6,0,P|425:237|435:269,1,60.0000022888184
320,133,15699,2,0,L|257:146,1,60.0000022888184
103,92,16024,1,0,0:0:0:0:
26,43,16186,1,0,0:0:0:0:
84,186,16348,6,0,L|71:255,1,62.4000020947266
189,364,16672,2,0,P|233:315|276:311,1,93.60000314209
333,336,16997,1,0,0:0:0:0:
367,128,17159,1,0,0:0:0:0:
404,274,17321,2,0,L|387:206,1,62.4000020947266
282,7,17645,5,0,0:0:0:0:
217,187,17808,1,0,0:0:0:0:
275,116,17970,2,0,P|238:97|208:95,1,62.4000020947266
51,286,18294,1,0,0:0:0:0:
215,198,18456,1,0,0:0:0:0:
73,133,18618,2,0,P|80:170|87:210,1,62.4000020947266
142,363,18862,1,0,0:0:0:0:
144,357,18943,6,0,P|173:326|209:311,1,62.4000020947266
380,185,19267,2,0,L|367:259,1,62.4000020947266
292,299,19510,1,0,0:0:0:0:
293,307,19591,2,0,P|301:342|306:381,1,62.4000020947266
463,233,19916,1,0,0:0:0:0:
289,133,20078,5,0,0:0:0:0:
290,139,20159,1,0,0:0:0:0:
291,144,20240,2,0,L|217:157,1,62.4000020947266
93,29,20564,2,0,P|63:25|31:18,1,62.4000020947266
131,120,20808,1,0,0:0:0:0:
131,126,20889,2,0,L|144:200,1,62.4000020947266
9,373,21213,2,0,P|30:326|90:310,1,93.60000314209
144,357,21537,6,0,L|218:344,1,62.4000020947266
350,192,21862,1,0,0:0:0:0:
315,341,22024,1,0,0:0:0:0:
311,336,22105,1,0,0:0:0:0:
308,330,22186,2,0,P|299:305|297:260,1,62.4000020947266
392,54,22510,2,0,P|401:79|403:124,1,62.4000020947266
141,187,22835,6,0,L|127:107,1,65.6000010009766
306,98,23159,2,0,P|260:55|196:62,1,131.200002001953
51,172,23645,1,0,0:0:0:0:
169,348,23808,2,0,L|154:268,1,65.6000010009766
225,217,24051,1,0,0:0:0:0:
229,213,24132,5,0,0:0:0:0:
363,300,24294,1,0,0:0:0:0:
306,98,24456,1,0,0:0:0:0:
333,200,24618,1,0,0:0:0:0:
339,198,24699,1,0,0:0:0:0:
345,196,24780,1,0,0:0:0:0:
385,19,24943,1,0,0:0:0:0:
203,68,25105,6,0,P|168:62|134:55,1,65.6000010009766
58,40,25348,1,0,0:0:0:0:
45,37,25429,1,0,0:0:0:0:
85,134,25591,1,0,0:0:0:0:
112,228,25753,5,0,0:0:0:0:
54,27,25916,1,0,3:0:0:0:
14,334,26078,1,0,0:0:0:0:
14,334,26402,6,0,L|89:314,1,60
146,366,26726,2,0,P|182:324|243:312,1,103.999995239258
359,356,27213,1,0,0:0:0:0:
305,223,27375,2,0,L|315:282,1,51.999997619629
469,179,27699,1,0,0:0:0:0:
378,149,27862,1,0,0:0:0:0:
287,119,28024,6,0,L|278:67,1,51.999997619629
209,186,28348,2,0,P|178:169|119:170,1,77.9999964294435
65,234,28672,2,0,L|73:285,1,51.999997619629
192,310,28997,2,0,L|200:361,1,51.999997619629
284,326,29321,6,0,P|328:288|394:292,1,103.999995239258
443,340,29726,1,0,0:0:0:0:
453,338,29808,2,0,L|497:330,2,25.9999988098145
365,376,30132,1,0,0:0:0:0:
454,251,30294,2,0,P|456:227|464:187,1,51.999997619629
488,59,30618,6,0,B|453:53|422:45|422:45|413:65|383:82,1,103.999995239258
327,126,31105,2,0,L|283:116,1,25.9999988098145
228,173,31267,2,0,P|202:171|184:163,1,38.9999982147218
133,104,31429,2,0,L|137:74,3,17.3333325398763
47,134,31753,2,0,P|51:148|52:159,1,25.9999988098145
8,308,31916,6,0,P|52:260|108:260,1,103.999995239258
152,309,32321,1,0,0:0:0:0:
154,317,32402,1,0,0:0:0:0:
283,360,32564,2,0,L|359:344,1,77.9999964294435
369,342,32889,1,0,0:0:0:0:
483,193,33051,1,0,0:0:0:0:
410,261,33213,6,0,P|386:209|398:143,1,103.999995239258
232,198,33862,2,0,P|277:174|306:131,1,103.999995239258
296,41,34348,1,0,0:0:0:0:
139,111,34510,2,0,L|155:171,1,51.999997619629
41,352,34835,1,0,0:0:0:0:
59,262,34997,1,0,0:0:0:0:
127,322,35159,2,0,L|177:335,2,51.999997619629
256,192,35645,1,0,0:0:0:0:
177,335,35808,5,0,0:0:0:0:
178,244,35970,2,0,L|171:218,2,25.9999988098145
335,335,36213,1,0,0:0:0:0:
333,343,36294,1,0,0:0:0:0:
334,243,36456,2,0,L|308:249,1,25.9999988098145
185,128,36618,2,0,L|181:115,2,12.9999994049073
274,103,36780,1,0,0:0:0:0:
363,78,36943,1,0,0:0:0:0:
172,125,37105,5,0,0:0:0:0:
293,11,37267,1,0,0:0:0:0:
293,11,37348,1,0,3:0:0:0:
254,200,37510,1,0,0:0:0:0:
256,192,37591,1,0,0:0:0:0:
219,373,37753,1,0,0:0:0:0:
252,295,37916,6,0,P|273:280|257:306,1,80.0000030517579
138,329,38078,6,0,B|72:384|1:374|-34:283|73:270|59:335,1,215.999993408203
292,28,38402,6,0,P|278:100|257:184,1,160
170,238,38889,1,0,0:0:0:0:
170,238,38970,1,0,0:0:0:0:
170,238,39051,1,0,0:0:0:0:
8,80,39213,1,0,0:0:0:0:
140,147,39375,6,0,L|62:165,1,80
252,295,39699,2,0,B|305:306|348:315|348:315|397:269,1,160
458,81,40186,1,0,0:0:0:0:
455,74,40267,1,0,0:0:0:0:
452,67,40348,2,0,P|412:77|374:85,1,80
331,282,40672,2,0,P|369:273|409:265,1,80
284,71,40997,6,0,B|203:88|212:24|116:40,1,160
26,13,41483,1,0,0:0:0:0:
31,18,41564,1,0,0:0:0:0:
35,24,41645,2,0,P|48:65|67:121,1,80
13,345,41970,2,0,P|56:290|123:290,1,120
178,334,42294,5,0,0:0:0:0:
19,207,42456,1,0,0:0:0:0:
171,97,42618,2,0,P|158:138|139:194,1,80
297,308,42943,1,0,0:0:0:0:
297,308,43024,1,0,0:0:0:0:
297,308,43105,1,0,0:0:0:0:
357,89,43267,1,0,0:0:0:0:
230,241,43429,1,0,0:0:0:0:
318,217,43591,6,0,P|387:194|482:162,1,160
483,78,44078,1,0,0:0:0:0:
483,78,44159,1,0,0:0:0:0:
483,78,44240,1,0,0:0:0:0:
387,284,44402,1,0,0:0:0:0:
204,165,44564,2,0,P|217:203|230:241,1,80
8,151,44889,6,0,P|86:155|138:98,1,160,0|0,3:0|3:0,3:0:0:0:
216,36,45375,1,0,0:0:0:0:
209,32,45456,1,0,0:0:0:0:
202,29,45537,2,0,P|164:16|126:3,1,80
12,261,45862,2,0,P|50:248|88:235,1,80
363,97,46186,5,0,0:0:0:0:
199,265,46348,1,0,0:0:0:0:
286,177,46510,2,0,B|221:183|232:139|137:156,1,120
163,155,46835,1,0,0:0:0:0:
337,313,46997,1,0,0:0:0:0:
499,195,47159,6,0,B|433:140|362:150|327:241|434:254|420:189,1,204.000003890991
431,13,47483,5,0,0:0:0:0:
333,324,47645,1,0,0:0:0:0:
325,315,48132,5,0,0:0:0:0:
266,69,48294,1,0,0:0:0:0:
