osu file format v14

[General]
AudioFilename: audio.mp3
AudioLeadIn: 0
PreviewTime: 48334
Countdown: 0
SampleSet: Normal
StackLeniency: 0.4
Mode: 0
LetterboxInBreaks: 0
WidescreenStoryboard: 1

[Editor]
Bookmarks: 76272,90990,91647,99897
DistanceSpacing: 1.5
BeatDivisor: 4
GridSize: 16
TimelineZoom: 1

[Metadata]
Title:Boku no Koto
TitleUnicode:僕のこと
Artist:Mrs. GREEN APPLE
ArtistUnicode:Mrs. GREEN APPLE
Creator:Zenpakuwu
Version:Insane
Source:
Tags:about me Mrs. GREEN APPLE Single
BeatmapID:2137939
BeatmapSetID:1021542

[Difficulty]
HPDrainRate:5
CircleSize:4.5
OverallDifficulty:7.5
ApproachRate:8.5
SliderMultiplier:1.8
SliderTickRate:1

[Events]
//Background and Video events
0,0,"__hatsune_miku_vocaloid_drawn_by_cizzi__1fb110e6cfca6263c37e417f0d9a85a8.jpg",0,0
//Break Periods
//Storyboard Layer 0 (Background)
//Storyboard Layer 1 (Fail)
//Storyboard Layer 2 (Pass)
//Storyboard Layer 3 (Foreground)
//Storyboard Layer 4 (Overlay)
//Storyboard Sound Samples

[TimingPoints]
147,375,4,1,1,100,1,0
897,-250,4,1,1,100,0,0
1272,375,4,1,1,100,1,0
1272,-250,4,1,1,100,0,0
1365,-250,4,1,1,5,0,0
1553,-250,4,1,1,100,0,0
1740,-250,4,1,1,5,0,0
1928,-250,4,1,1,100,0,0
2115,-250,4,1,1,5,0,0
2303,-250,4,1,1,100,0,0
2490,-250,4,1,1,5,0,0
2678,-250,4,1,1,100,0,0
2959,-250,4,1,1,5,0,0
3240,-250,4,1,1,100,0,0
3615,-250,4,1,1,5,0,0
3897,-250,4,1,1,100,0,0
4365,-250,4,1,1,5,0,0
4553,-250,4,1,1,100,0,0
4740,-250,4,1,1,5,0,0
4928,-250,4,1,1,100,0,0
5115,-250,4,1,1,5,0,0
5303,-250,4,1,1,100,0,0
5490,-250,4,1,1,5,0,0
5678,-250,4,1,1,100,0,0
5865,-250,4,1,1,5,0,0
6053,-250,4,1,1,100,0,0
7365,-250,4,1,1,5,0,0
7553,-250,4,1,1,100,0,0
7740,-250,4,1,1,5,0,0
7928,-250,4,1,1,100,0,0
8115,-250,4,1,1,5,0,0
8303,-250,4,1,1,100,0,0
8584,-250,4,1,1,5,0,0
8678,-250,4,1,1,100,0,0
9053,-250,4,1,1,5,0,0
9240,-250,4,1,1,100,0,0
9803,-250,4,1,1,5,0,0
9990,-250,4,1,1,100,0,0
10740,-250,4,1,1,5,0,0
10928,-250,4,1,1,100,0,0
11490,-250,4,1,1,5,0,0
11678,-250,4,1,1,100,0,0
12240,-250,4,1,1,5,0,0
12428,-250,4,1,1,100,0,0
12522,-125,4,1,1,100,0,0
12615,-125,4,1,1,5,0,0
12803,-125,4,1,1,100,0,0
12897,-83.3333333333333,4,1,1,100,0,0
13084,-83.3333333333333,4,1,1,5,0,0
13272,-250,4,1,1,100,0,0
13459,-250,4,1,1,5,0,0
13740,-250,4,1,1,100,0,0
14584,-250,4,1,1,5,0,0
14772,-250,4,1,1,100,0,0
15334,-250,4,1,1,5,0,0
15522,-250,4,1,1,100,0,0
16365,-250,4,1,1,5,0,0
16553,-250,4,1,1,100,0,0
16740,-250,4,1,1,5,0,0
16928,-250,4,1,1,100,0,0
17115,-250,4,1,1,5,0,0
17303,-250,4,1,1,100,0,0
17490,-250,4,1,1,5,0,0
17678,-250,4,1,1,100,0,0
18053,-250,4,1,1,5,0,0
18334,-250,4,1,1,100,0,0
18897,-250,4,1,1,5,0,0
19178,-250,4,1,1,100,0,0
23772,-142.857142857143,4,1,1,100,0,0
25365,-142.857142857143,4,1,1,5,0,0
25553,-142.857142857143,4,1,1,100,0,0
25740,-142.857142857143,4,1,1,5,0,0
25928,-142.857142857143,4,1,1,100,0,0
26115,-142.857142857143,4,1,1,5,0,0
26303,-142.857142857143,4,1,1,100,0,0
26490,-142.857142857143,4,1,1,100,0,0
26678,-142.857142857143,4,1,1,100,0,0
26865,-142.857142857143,4,1,1,5,0,0
27053,-142.857142857143,4,1,1,100,0,0
27990,-142.857142857143,4,1,1,5,0,0
28178,-142.857142857143,4,1,1,100,0,0
28365,-142.857142857143,4,1,1,5,0,0
28553,-142.857142857143,4,1,1,100,0,0
28740,-142.857142857143,4,1,1,5,0,0
28928,-142.857142857143,4,1,1,100,0,0
29115,-142.857142857143,4,1,1,5,0,0
29303,-142.857142857143,4,1,1,100,0,0
29490,-142.857142857143,4,1,1,5,0,0
29678,-142.857142857143,4,1,1,100,0,0
29865,-142.857142857143,4,1,1,5,0,0
30053,-142.857142857143,4,1,1,100,0,0
30990,-142.857142857143,4,1,1,5,0,0
31178,-142.857142857143,4,1,1,100,0,0
31365,-142.857142857143,4,1,1,5,0,0
31553,-142.857142857143,4,1,1,100,0,0
31740,-142.857142857143,4,1,1,5,0,0
31928,-142.857142857143,4,1,1,100,0,0
32115,-142.857142857143,4,1,1,5,0,0
32303,-142.857142857143,4,1,1,100,0,0
32490,-142.857142857143,4,1,1,100,0,0
32678,-142.857142857143,4,1,1,100,0,0
32865,-142.857142857143,4,1,1,5,0,0
33053,-142.857142857143,4,1,1,100,0,0
34365,-142.857142857143,4,1,1,5,0,0
34553,-142.857142857143,4,1,1,100,0,0
34740,-142.857142857143,4,1,1,5,0,0
34928,-142.857142857143,4,1,1,100,0,0
35115,-142.857142857143,4,1,1,5,0,0
35303,-142.857142857143,4,1,1,100,0,0
35490,-142.857142857143,4,1,1,5,0,0
35678,-142.857142857143,4,1,1,100,0,0
36522,-100,4,1,1,100,0,0
36897,-76.9230769230769,4,1,1,100,0,0
36990,-76.9230769230769,4,1,1,5,0,0
37272,-142.857142857143,4,1,1,100,0,0
37459,-142.857142857143,4,1,1,5,0,0
37740,-142.857142857143,4,1,1,100,0,0
38115,-142.857142857143,4,1,1,5,0,0
38303,-142.857142857143,4,1,1,100,0,0
38490,-142.857142857143,4,1,1,5,0,0
38678,-142.857142857143,4,1,1,100,0,0
38865,-142.857142857143,4,1,1,5,0,0
39053,-142.857142857143,4,1,1,100,0,0
39240,-142.857142857143,4,1,1,5,0,0
39428,-142.857142857143,4,1,1,100,0,0
39990,-142.857142857143,4,1,1,5,0,0
40178,-142.857142857143,4,1,1,100,0,0
41115,-142.857142857143,4,1,1,5,0,0
41303,-142.857142857143,4,1,1,100,0,0
41490,-142.857142857143,4,1,1,5,0,0
41678,-142.857142857143,4,1,1,100,0,0
42990,-142.857142857143,4,1,1,5,0,0
43178,-142.857142857143,4,1,1,100,0,0
43365,-142.857142857143,4,1,1,5,0,0
43553,-142.857142857143,4,1,1,100,0,0
43740,-142.857142857143,4,1,1,5,0,0
43928,-142.857142857143,4,1,1,100,0,0
44115,-142.857142857143,4,1,1,5,0,0
44303,-142.857142857143,4,1,1,100,0,0
45240,-142.857142857143,4,1,1,5,0,0
45428,-142.857142857143,4,1,1,100,0,0
46365,-142.857142857143,4,1,1,5,0,0
46553,-142.857142857143,4,1,1,100,0,0
46740,-142.857142857143,4,1,1,5,0,0
46928,-142.857142857143,4,1,1,100,0,0
47115,-142.857142857143,4,1,1,5,0,0
47303,-142.857142857143,4,1,1,100,0,0
47490,-142.857142857143,4,1,1,5,0,0
47678,-142.857142857143,4,1,1,100,0,0
48990,-142.857142857143,4,1,1,5,0,0
49178,-142.857142857143,4,1,1,100,0,0
49272,-100,4,1,1,100,0,0
73272,-90.9090909090909,4,1,1,100,0,1
95772,-90.9090909090909,4,1,1,100,0,0
97272,-133.333333333333,4,1,1,100,0,0
110772,-117.647058823529,4,1,1,100,0,0
116772,-250,4,1,1,100,0,0
116865,-250,4,1,1,5,0,0
117053,-250,4,1,1,100,0,0
117240,-250,4,1,1,5,0,0
117428,-250,4,1,1,100,0,0
117615,-250,4,1,1,5,0,0
117803,-250,4,1,1,100,0,0
117990,-250,4,1,1,5,0,0
118178,-250,4,1,1,100,0,0
118459,-250,4,1,1,5,0,0
118740,-250,4,1,1,100,0,0
119115,-250,4,1,1,5,0,0
119303,-250,4,1,1,100,0,0
119865,-250,4,1,1,5,0,0
120053,-250,4,1,1,100,0,0
120240,-250,4,1,1,5,0,0
120428,-250,4,1,1,100,0,0
120615,-250,4,1,1,5,0,0
120803,-250,4,1,1,100,0,0
120990,-250,4,1,1,5,0,0
121178,-250,4,1,1,100,0,0
122865,-250,4,1,1,5,0,0
123053,-250,4,1,1,100,0,0
123240,-250,4,1,1,5,0,0
123428,-250,4,1,1,100,0,0
123615,-250,4,1,1,5,0,0
123803,-250,4,1,1,100,0,0
123990,-250,4,1,1,5,0,0
124178,-250,4,1,1,100,0,0
124459,-250,4,1,1,5,0,0
124740,-250,4,1,1,100,0,0
125209,-250,4,1,1,5,0,0
125490,-250,4,1,1,100,0,0
126240,-250,4,1,1,5,0,0
126428,-250,4,1,1,100,0,0
126990,-250,4,1,1,5,0,0
127178,-250,4,1,1,100,0,0
127740,-250,4,1,1,5,0,0
127928,-250,4,1,1,100,0,0
128022,-125,4,1,1,100,0,0
128115,-125,4,1,1,5,0,0
128303,-125,4,1,1,100,0,0
128397,-83.3333333333333,4,1,1,100,0,0
128490,-83.3333333333333,4,1,1,5,0,0
128678,-83.3333333333333,4,1,1,100,0,0
128772,-250,4,1,1,100,0,0
129147,-250,4,1,1,20,0,0
129428,-250,4,1,1,100,0,0
129615,-250,4,1,1,5,0,0
129803,-250,4,1,1,100,0,0
129990,-250,4,1,1,5,0,0
130178,-250,4,1,1,100,0,0
130740,-250,4,1,1,5,0,0
130928,-250,4,1,1,100,0,0
131115,-250,4,1,1,5,0,0
131303,-250,4,1,1,100,0,0
131865,-250,4,1,1,5,0,0
132053,-250,4,1,1,100,0,0
132240,-250,4,1,1,5,0,0
132428,-250,4,1,1,100,0,0
132615,-250,4,1,1,5,0,0
132803,-250,4,1,1,100,0,0
132990,-250,4,1,1,5,0,0
133178,-250,4,1,1,100,0,0
135897,-250,4,1,1,5,0,0
136178,-250,4,1,1,100,0,0

[Colours]
Combo1 : 0,0,160
Combo2 : 255,255,255
Combo3 : 255,128,128
Combo4 : 128,128,255

[HitObjects]
400,179,897,5,0,0:0:0:0:
396,37,1272,2,0,P|384:59|384:75,1,36
366,39,1647,2,0,P|354:61|354:77,1,36,0|0,0:0|0:0,0:0:0:0:
323,41,2022,2,0,L|323:87,1,36
280,207,2397,2,0,P|290:192|293:174,1,36,0|0,0:0|0:0,0:0:0:0:
239,55,2772,6,0,P|254:93|242:132,1,72
165,99,3334,1,0,0:0:0:0:
92,54,3522,2,0,L|72:92,1,36
6,200,3897,1,0,0:0:0:0:
36,202,4272,6,0,P|48:180|48:164,1,36
65,201,4647,2,0,P|77:179|77:163,1,36
108,200,5022,2,0,L|108:154,1,36
84,52,5397,2,0,P|72:74|72:90,1,36,0|0,0:0|0:0,0:0:0:0:
36,198,5772,6,0,L|36:234,1,36
37,330,6147,1,0,0:0:0:0:
64,348,6522,2,0,L|54:362,2,12,0|0|0,0:0|0:0|0:0,0:0:0:0:
115,288,6897,1,0,0:0:0:0:
142,288,7272,6,0,P|154:266|154:250,1,36
167,148,7647,2,0,P|179:170|179:186,1,36
219,301,8022,2,0,L|219:255,1,36
270,149,8397,2,0,P|261:163|258:181,1,36
354,282,8772,6,0,P|339:244|351:205,1,72
386,160,9334,1,0,0:0:0:0:
386,160,9522,2,0,P|349:144|310:156,1,72,0|0,0:0|0:0,0:0:0:0:
290,46,10084,1,0,0:0:0:0:
290,46,10272,5,0,0:0:0:0:
257,44,10647,2,0,P|245:66|245:82,1,36
220,194,11022,1,0,0:0:0:0:
189,194,11397,2,0,P|177:172|177:156,1,36
176,34,11772,5,0,0:0:0:0:
144,35,12147,2,0,P|123:47|130:62,1,36
130,177,12522,2,0,P|170:155|139:127,1,72,0|0,0:0|0:0,0:0:0:0:
284,94,12897,2,0,P|227:80|251:128,1,107.999996704102,0|0,0:0|0:0,0:0:0:0:
64,168,13272,6,0,P|110:163|133:181,1,72,0|0,0:0|0:0,0:0:0:0:
184,236,13834,1,0,0:0:0:0:
184,236,14022,1,0,0:0:0:0:
213,235,14397,2,0,P|223:250|226:267,1,36
239,363,14772,5,0,0:0:0:0:
276,363,15147,2,0,P|266:348|263:331,1,36
266,236,15522,1,0,0:0:0:0:
296,236,15897,1,0,0:0:0:0:
331,238,16272,6,0,P|343:260|343:276,1,36
363,239,16647,2,0,P|375:261|375:277,1,36
413,239,17022,2,0,L|413:285,1,36
469,368,17397,2,0,P|459:353|456:335,1,36
512,211,17772,6,0,L|512:287,1,72,0|0,0:0|0:0,0:0:0:0:
414,163,18522,2,0,P|478:143|508:163,1,108,0|0,0:0|0:0,0:0:0:0:
461,213,19272,6,0,L|461:137,1,72,0|0,0:0|0:0,0:0:0:0:
361,84,20022,2,0,L|361:160,1,72,0|0,0:0|0:0,0:0:0:0:
408,198,20772,6,0,P|344:218|314:198,1,108,0|0,0:0|0:0,0:0:0:0:
274,145,21522,1,0,0:0:0:0:
205,211,22084,1,0,0:0:0:0:
204,145,22272,5,0,0:0:0:0:
49,49,24334,5,0,0:0:0:0:
49,49,24428,1,0,0:0:0:0:
49,49,24522,1,2,0:0:0:0:
72,140,24709,1,2,0:0:0:0:
155,54,24897,1,4,0:0:0:0:
192,164,25084,1,4,0:0:0:0:
282,37,25272,6,0,P|291:81|282:121,1,62.9999980773926,8|0,0:0|0:0,0:0:0:0:
374,36,25647,2,0,P|365:80|374:120,1,62.9999980773926,0|0,0:0|0:0,0:0:0:0:
430,138,26022,2,0,L|430:201,2,62.9999980773926,2|0|0,0:0|0:0|0:0,0:0:0:0:
490,25,26584,1,0,0:0:0:0:
490,25,26772,6,0,B|502:62|502:62|490:104,1,62.9999980773926,8|0,0:0|0:0,0:0:0:0:
496,177,27147,1,8,0:0:0:0:
359,102,27334,1,0,0:0:0:0:
359,102,27522,1,0,0:0:0:0:
337,110,27897,2,0,L|257:141,1,62.9999980773926,0|0,0:0|0:0,0:0:0:0:
218,95,28272,6,0,P|209:139|218:179,1,62.9999980773926,8|0,0:0|0:0,0:0:0:0:
151,298,28647,2,0,L|151:219,1,62.9999980773926,0|0,0:0|0:0,0:0:0:0:
43,293,29022,2,0,P|69:256|76:215,1,62.9999980773926,2|0,0:0|0:0,0:0:0:0:
88,91,29397,2,0,P|97:135|88:175,1,62.9999980773926,0|0,0:0|0:0,0:0:0:0:
73,239,29772,5,8,0:0:0:0:
79,263,30147,1,8,0:0:0:0:
90,285,30522,2,0,L|164:314,1,62.9999980773926,2|4,0:0|0:0,0:0:0:0:
230,347,30897,2,0,P|221:303|230:263,1,62.9999980773926,4|0,0:0|0:0,0:0:0:0:
244,140,31272,6,0,P|253:184|244:224,1,62.9999980773926,8|0,0:0|0:0,0:0:0:0:
163,144,31647,2,0,L|163:223,1,62.9999980773926,0|0,0:0|0:0,0:0:0:0:
100,351,32022,2,0,P|109:307|100:267,2,62.9999980773926,2|0|0,0:0|0:0|0:0,0:0:0:0:
22,359,32584,1,0,0:0:0:0:
22,359,32772,6,0,B|35:319|35:319|22:280,1,62.9999980773926,8|0,0:0|0:0,0:0:0:0:
16,207,33147,1,8,0:0:0:0:
164,272,33334,1,0,0:0:0:0:
164,272,33522,1,0,0:0:0:0:
196,270,34272,6,0,P|205:226|196:186,1,62.9999980773926,8|0,0:0|0:0,0:0:0:0:
269,271,34647,2,0,P|278:227|269:187,1,62.9999980773926,0|0,0:0|0:0,0:0:0:0:
363,272,35022,2,0,L|347:188,1,62.9999980773926,2|0,0:0|0:0,0:0:0:0:
270,74,35397,2,0,L|270:153,1,62.9999980773926,0|0,0:0|0:0,0:0:0:0:
267,268,35772,5,8,0:0:0:0:
371,72,36147,2,0,P|346:108|365:134,1,62.9999980773926,0|2,0:0|0:0,0:0:0:0:
382,180,36428,1,2,0:0:0:0:
382,180,36522,2,0,P|332:191|356:220,1,90,2|2,0:0|0:0,0:0:0:0:
181,206,36897,2,0,P|249:203|235:131,1,116.999994644165,4|0,0:0|0:0,0:0:0:0:
329,100,37272,6,0,L|195:98,1,125.999996154785,8|0,0:0|0:0,0:0:0:0:
154,23,37834,1,0,0:0:0:0:
154,23,38022,2,0,P|110:32|70:23,1,62.9999980773926,2|0,0:0|0:0,0:0:0:0:
14,97,38397,2,0,L|93:97,1,62.9999980773926,0|0,0:0|0:0,0:0:0:0:
194,148,38772,6,0,P|150:139|110:148,1,62.9999980773926,8|0,0:0|0:0,0:0:0:0:
19,206,39147,1,8,0:0:0:0:
19,239,39522,1,2,0:0:0:0:
20,271,39897,2,0,P|57:296|98:303,1,62.9999980773926,0|0,0:0|0:0,0:0:0:0:
229,300,40272,6,0,P|274:300|341:232,2,125.999996154785,8|0|2,0:0|0:0|0:0,0:0:0:0:
256,166,41397,2,0,L|263:236,1,62.9999980773926,0|0,0:0|0:0,0:0:0:0:
338,312,41772,6,0,P|339:267|323:229,1,62.9999980773926,8|0,0:0|0:0,0:0:0:0:
324,148,42147,1,8,0:0:0:0:
321,122,42522,1,2,0:0:0:0:
319,96,42897,2,0,L|326:166,1,62.9999980773926
300,262,43272,6,0,P|345:262|383:246,1,62.9999980773926,8|0,0:0|0:0,0:0:0:0:
417,153,43647,2,0,P|418:197|402:235,1,62.9999980773926,8|0,0:0|0:0,0:0:0:0:
423,279,44022,2,0,P|453:286|485:285,2,62.9999980773926,2|0|0,0:0|0:0|0:0,0:0:0:0:
356,324,44584,6,0,L|354:355,2,31.4999990386963,2|2|8,0:0|0:0|0:0,0:0:0:0:
361,256,44959,1,2,0:0:0:0:
232,280,45147,2,0,P|277:280|315:264,1,62.9999980773926,8|0,0:0|0:0,0:0:0:0:
311,149,45522,1,2,0:0:0:0:
258,188,45709,1,0,0:0:0:0:
172,86,45897,1,0,0:0:0:0:
193,148,46084,1,0,0:0:0:0:
248,36,46272,6,0,P|249:80|233:118,1,62.9999980773926,8|0,0:0|0:0,0:0:0:0:
131,153,46647,2,0,P|176:153|214:137,1,62.9999980773926,8|0,0:0|0:0,0:0:0:0:
326,168,47022,2,0,P|282:168|244:152,1,62.9999980773926,2|0,0:0|0:0,0:0:0:0:
110,82,47397,2,0,P|155:81|193:97,1,62.9999980773926,0|0,0:0|0:0,0:0:0:0:
401,140,47772,5,6,0:0:0:0:
405,107,48147,1,6,0:0:0:0:
266,25,48428,1,2,0:0:0:0:
266,25,48522,1,2,0:0:0:0:
230,128,48709,1,2,0:0:0:0:
323,220,48897,2,0,L|262:159,1,62.9999980773926,4|0,0:0|0:0,0:0:0:0:
164,67,49272,6,0,L|246:143,1,90,8|0,0:0|0:0,0:0:0:0:
240,216,49647,2,0,P|232:247|209:267,1,45,2|2,0:0|0:0,0:0:0:0:
135,324,49834,2,0,P|166:316|186:293,1,45,2|2,0:0|0:0,0:0:0:0:
141,229,50022,6,0,L|61:158,1,90,10|0,0:0|0:0,0:0:0:0:
164,67,50397,1,2,0:0:0:0:
164,67,50490,1,2,0:0:0:0:
164,67,50584,1,2,0:0:0:0:
164,67,50678,1,2,0:0:0:0:
164,67,50772,6,0,L|155:171,1,90,8|0,0:0|0:0,0:0:0:0:
164,270,51147,2,0,P|172:301|195:321,1,45,2|2,0:0|0:0,0:0:0:0:
268,377,51334,2,0,P|237:369|217:346,1,45,2|2,0:0|0:0,0:0:0:0:
228,259,51522,5,10,0:0:0:0:
277,313,51709,1,2,0:0:0:0:
338,189,51897,1,2,0:0:0:0:
289,240,52084,1,2,0:0:0:0:
417,320,52272,6,0,L|330:233,1,90,10|0,0:0|0:0,0:0:0:0:
252,149,52647,2,0,P|234:122|234:91,1,45,2|2,0:0|0:0,0:0:0:0:
241,0,52834,2,0,P|226:28|229:58,1,45,2|2,0:0|0:0,0:0:0:0:
307,76,53022,6,0,L|412:85,1,90,10|0,0:0|0:0,0:0:0:0:
452,218,53397,1,2,0:0:0:0:
452,218,53490,1,2,0:0:0:0:
452,218,53584,1,2,0:0:0:0:
452,218,53678,1,2,0:0:0:0:
452,218,53772,6,0,L|348:208,1,90,10|0,0:0|0:0,0:0:0:0:
241,197,54147,2,0,P|209:192|182:206,1,45,2|2,0:0|0:0,0:0:0:0:
102,252,54334,2,0,P|121:226|149:216,1,45,2|2,0:0|0:0,0:0:0:0:
191,272,54522,5,10,0:0:0:0:
191,272,54709,1,2,0:0:0:0:
161,142,54897,1,2,0:0:0:0:
161,142,55084,1,2,0:0:0:0:
318,223,55272,6,0,P|284:194|241:197,1,90,10|0,0:0|0:0,0:0:0:0:
227,331,55647,2,0,L|295:343,1,45,2|2,0:0|0:0,0:0:0:0:
352,302,55834,2,0,L|420:290,1,45,2|2,0:0|0:0,0:0:0:0:
456,342,56022,1,10,0:0:0:0:
422,219,56209,1,0,0:0:0:0:
501,283,56397,2,0,L|513:215,1,45,2|2,0:0|0:0,0:0:0:0:
472,158,56584,2,0,L|460:90,1,45,2|2,0:0|0:0,0:0:0:0:
337,185,56772,6,0,P|397:123|371:42,1,180,10|2,0:0|0:0,0:0:0:0:
234,106,57334,1,0,0:0:0:0:
394,127,57522,6,0,L|283:112,1,90,10|2,0:0|0:0,0:0:0:0:
139,92,57897,1,2,0:0:0:0:
170,182,58084,1,2,0:0:0:0:
22,83,58272,5,8,0:0:0:0:
96,201,58459,1,0,0:0:0:0:
20,178,58647,2,0,L|8:246,1,45,2|2,0:0|0:0,0:0:0:0:
54,310,58834,2,0,L|106:279,1,45,2|2,0:0|0:0,0:0:0:0:
185,232,59022,1,10,0:0:0:0:
185,232,59209,1,0,0:0:0:0:
214,152,59397,2,2,L|262:146,3,45
152,89,59772,6,0,P|125:166|217:235,1,180,10|2,0:0|0:0,0:0:0:0:
307,132,60334,1,2,0:0:0:0:
127,172,60522,6,0,L|234:147,1,90,10|2,0:0|0:0,0:0:0:0:
295,43,60897,2,0,L|310:154,1,90,4|4,0:0|0:0,0:0:0:0:
398,352,61272,6,0,L|316:276,1,90,8|0,0:0|0:0,0:0:0:0:
242,215,61647,2,0,P|250:184|273:164,1,45,2|2,0:0|0:0,0:0:0:0:
346,108,61834,2,0,P|315:116|295:139,1,45,2|2,0:0|0:0,0:0:0:0:
330,200,62022,6,0,L|410:271,1,90,10|0,0:0|0:0,0:0:0:0:
321,290,62397,1,2,0:0:0:0:
321,290,62490,1,2,0:0:0:0:
321,290,62584,1,2,0:0:0:0:
321,290,62678,1,2,0:0:0:0:
321,290,62772,6,0,L|330:186,1,90,10|0,0:0|0:0,0:0:0:0:
332,116,63147,2,0,P|324:85|301:65,1,45,2|2,0:0|0:0,0:0:0:0:
228,9,63334,2,0,P|259:17|279:40,1,45,2|2,0:0|0:0,0:0:0:0:
338,8,63522,5,10,0:0:0:0:
338,8,63709,1,2,0:0:0:0:
240,96,63897,1,2,0:0:0:0:
129,191,64084,1,2,0:0:0:0:
158,118,64272,6,0,L|248:211,1,90,8|0,0:0|0:0,0:0:0:0:
275,235,64647,2,0,P|290:263|287:293,1,45,2|2,0:0|0:0,0:0:0:0:
271,384,64834,2,0,P|288:357|287:326,1,45,2|2,0:0|0:0,0:0:0:0:
218,306,65022,6,0,L|113:297,1,90,10|0,0:0|0:0,0:0:0:0:
59,203,65397,1,2,0:0:0:0:
59,203,65490,1,2,0:0:0:0:
59,203,65584,1,2,0:0:0:0:
59,203,65678,1,2,0:0:0:0:
59,203,65772,6,0,L|163:213,1,90,10|0,0:0|0:0,0:0:0:0:
251,216,66147,2,0,P|282:208|302:185,1,45,2|2,0:0|0:0,0:0:0:0:
358,112,66334,2,0,P|350:143|327:163,1,45,2|2,0:0|0:0,0:0:0:0:
278,134,66522,5,10,0:0:0:0:
278,134,66709,1,2,0:0:0:0:
185,183,66897,1,2,0:0:0:0:
193,76,67084,1,2,0:0:0:0:
137,13,67272,6,0,P|110:47|111:92,1,90,8|0,0:0|0:0,0:0:0:0:
185,183,67647,2,2,L|206:128,1,45
257,87,67834,2,2,L|314:61,1,45
342,12,68022,6,0,P|369:46|368:90,1,90,8|0,0:0|0:0,0:0:0:0:
294,157,68397,2,2,L|282:213,1,45
249,281,68584,2,2,L|190:297,1,45
166,351,68772,6,0,P|138:316|139:272,1,90,8|0,0:0|0:0,0:0:0:0:
284,201,69147,2,2,L|315:251,1,45
372,295,69334,2,2,L|431:311,1,45
457,364,69522,6,0,P|484:329|483:285,1,90,8|0,0:0|0:0,0:0:0:0:
405,187,69897,5,2,0:0:0:0:
306,115,70084,1,2,0:0:0:0:
212,185,70272,6,0,P|193:202|110:180,1,90,8|0,0:0|0:0,0:0:0:0:
127,0,70647,2,2,L|136:49,1,45
150,105,70834,2,2,L|159:154,1,45
172,211,71022,6,0,L|194:329,1,90,10|2,0:0|0:0,0:0:0:0:
316,242,71397,1,2,0:0:0:0:
316,242,71584,1,2,0:0:0:0:
187,197,72334,6,0,L|194:137,2,45,2|2|8,0:0|0:0|0:0,0:0:0:0:
168,298,72709,1,4,0:0:0:0:
91,232,72897,1,4,0:0:0:0:
61,324,73084,1,4,0:0:0:0:
27,174,73272,6,0,B|-16:224|19:273,1,99.0000030212403,8|0,0:0|0:0,0:0:0:0:
103,161,73647,1,8,0:0:0:0:
233,283,73834,1,8,0:0:0:0:
318,113,74022,1,2,0:0:0:0:
176,208,74209,1,2,0:0:0:0:
224,70,74397,1,0,0:0:0:0:
288,208,74584,1,8,0:0:0:0:
169,35,74772,6,0,B|139:75|182:125,1,99.0000030212403,0|2,0:0|0:0,0:0:0:0:
379,86,75147,2,0,B|359:39|294:50,1,99.0000030212403,0|0,0:0|0:0,0:0:0:0:
174,181,75522,1,2,0:0:0:0:
224,70,75709,1,0,0:0:0:0:
126,230,75897,1,0,0:0:0:0:
29,169,76084,1,2,0:0:0:0:
29,169,76178,1,2,0:0:0:0:
29,169,76272,6,0,B|-14:219|21:268,1,99.0000030212403,8|0,0:0|0:0,0:0:0:0:
91,339,76647,1,8,0:0:0:0:
195,331,76834,1,8,0:0:0:0:
225,153,77022,1,2,0:0:0:0:
321,299,77209,1,0,0:0:0:0:
339,119,77397,1,0,0:0:0:0:
490,223,77584,6,0,L|382:273,1,99.0000030212403,8|0,0:0|0:0,0:0:0:0:
275,231,77959,1,2,0:0:0:0:
387,173,78147,2,0,B|430:223|395:272,1,99.0000030212403,0|0,0:0|0:0,0:0:0:0:
286,305,78522,2,0,L|178:355,1,99.0000030212403,2|0,0:0|0:0,0:0:0:0:
167,345,78897,2,0,L|257:304,1,99.0000030212403,8|0,0:0|0:0,0:0:0:0:
394,191,79272,6,0,L|286:141,1,99.0000030212403,8|0,0:0|0:0,0:0:0:0:
32,148,79647,2,0,L|140:198,1,99.0000030212403,8|0,0:0|0:0,0:0:0:0:
304,149,80022,2,0,B|334:190|291:240,1,99.0000030212403,2|0,0:0|0:0,0:0:0:0:
122,188,80397,2,0,B|93:148|136:98,1,99.0000030212403,0|8,0:0|0:0,0:0:0:0:
256,18,80772,5,0,0:0:0:0:
371,126,80959,1,2,0:0:0:0:
210,160,81147,1,8,0:0:0:0:
210,160,81334,1,8,0:0:0:0:
91,265,81522,5,2,0:0:0:0:
127,114,81709,2,0,L|211:166,1,99.0000030212403,8|0,0:0|0:0,0:0:0:0:
344,238,82084,1,2,0:0:0:0:
344,238,82178,1,2,0:0:0:0:
344,238,82272,6,0,P|406:257|433:207,1,99.0000030212403,8|0,0:0|0:0,0:0:0:0:
382,72,82647,2,0,L|385:184,1,99.0000030212403,8|0,0:0|0:0,0:0:0:0:
481,312,83022,2,0,B|476:246|416:236,1,99.0000030212403,2|0,0:0|0:0,0:0:0:0:
341,351,83397,1,0,0:0:0:0:
165,307,83584,2,0,L|280:336,1,99.0000030212403,8|0,0:0|0:0,0:0:0:0:
355,219,83959,5,2,0:0:0:0:
336,285,84147,2,0,L|213:251,1,99.0000030212403,8|2,0:0|0:0,0:0:0:0:
183,242,84428,1,2,0:0:0:0:
183,242,84522,1,2,0:0:0:0:
65,348,84709,1,2,0:0:0:0:
133,138,84897,1,4,0:0:0:0:
0,215,85084,1,4,0:0:0:0:
215,137,85272,6,0,B|210:71|150:61,1,99.0000030212403,8|0,0:0|0:0,0:0:0:0:
9,43,85647,1,8,0:0:0:0:
9,43,85834,1,8,0:0:0:0:
0,215,86022,1,2,0:0:0:0:
165,167,86209,1,2,0:0:0:0:
111,24,86397,1,0,0:0:0:0:
111,24,86584,2,0,L|190:116,1,99.0000030212403,8|0,0:0|0:0,0:0:0:0:
0,215,86959,5,2,0:0:0:0:
165,167,87147,2,0,B|231:162|241:102,1,99.0000030212403,0|0,0:0|0:0,0:0:0:0:
254,18,87522,1,2,0:0:0:0:
288,190,87709,1,0,0:0:0:0:
412,52,87897,1,0,0:0:0:0:
436,189,88084,2,0,B|441:255|501:265,1,99.0000030212403,2|8,0:0|0:0,0:0:0:0:
375,303,88459,5,0,0:0:0:0:
375,303,88647,2,0,L|471:225,1,99.0000030212403,0|0,0:0|0:0,0:0:0:0:
442,95,89022,1,2,0:0:0:0:
276,144,89209,1,0,0:0:0:0:
276,144,89397,1,8,0:0:0:0:
512,63,89584,2,0,P|367:84|503:142,1,396.000012084961,0|0,0:0|0:0,0:0:0:0:
308,45,90522,5,0,0:0:0:0:
443,95,90709,1,4,0:0:0:0:
336,192,90897,2,0,L|253:264,1,99.0000030212403,4|0,0:0|0:0,0:0:0:0:
171,277,91272,6,0,L|79:199,1,99.0000030212403,8|0,0:0|0:0,0:0:0:0:
173,120,91647,2,0,L|173:232,1,99.0000030212403,8|0,0:0|0:0,0:0:0:0:
171,277,92022,2,0,L|263:199,1,99.0000030212403,2|0,0:0|0:0,0:0:0:0:
275,179,92397,6,0,P|283:135|240:131,1,99.0000030212403,0|2,0:0|0:0,0:0:0:0:
108,131,92772,2,0,P|63:127|57:172,1,99.0000030212403,8|0,0:0|0:0,0:0:0:0:
175,206,93147,2,0,L|239:131,1,99.0000030212403,8|0,0:0|0:0,0:0:0:0:
319,44,93522,5,2,0:0:0:0:
420,103,93709,1,8,0:0:0:0:
343,167,93897,1,0,0:0:0:0:
377,246,94084,1,0,0:0:0:0:
373,321,94272,6,0,L|274:320,1,99.0000030212403,8|0,0:0|0:0,0:0:0:0:
266,230,94647,2,0,L|353:158,1,99.0000030212403,8|2,0:0|0:0,0:0:0:0:
411,110,94928,1,2,0:0:0:0:
411,110,95022,5,2,0:0:0:0:
512,170,95209,1,4,0:0:0:0:
415,221,95397,1,4,0:0:0:0:
478,274,95584,1,4,0:0:0:0:
449,331,95772,1,8,0:0:0:0:
152,49,97834,6,0,L|187:21,2,33.7500012874604,2|2|8,0:0|0:0|0:0,0:0:0:0:
81,111,98209,1,4,0:0:0:0:
202,133,98397,2,0,P|218:187|196:200,1,67.5000025749208,4|0,0:0|0:0,0:0:0:0:
108,331,98772,6,0,P|85:307|93:275,1,67.5000025749208,8|0,0:0|0:0,0:0:0:0:
188,292,99147,2,0,L|199:336,2,45.0000017166138,2|0|0,0:0|0:0|0:0,0:0:0:0:
262,223,99522,2,0,P|278:277|256:290,1,67.5000025749208,10|0,0:0|0:0,0:0:0:0:
355,231,99897,2,0,L|400:220,2,45.0000017166138,2|0|0,0:0|0:0|0:0,0:0:0:0:
341,96,100272,5,10,0:0:0:0:
310,84,100647,1,2,0:0:0:0:
279,72,101022,1,10,0:0:0:0:
248,60,101397,1,2,0:0:0:0:
217,48,101772,6,0,P|201:102|223:115,1,67.5000025749208,8|0,0:0|0:0,0:0:0:0:
124,58,102147,2,0,L|79:47,2,45.0000017166138,2|0|0,0:0|0:0|0:0,0:0:0:0:
49,123,102522,2,0,P|103:139|116:117,1,67.5000025749208,10|0,0:0|0:0,0:0:0:0:
58,213,102897,2,0,L|47:258,2,45.0000017166138,2|0|0,0:0|0:0|0:0,0:0:0:0:
117,366,103272,6,0,P|98:303|123:288,1,101.250003862381,14|0,0:0|0:0,0:0:0:0:
171,296,103647,2,0,L|246:347,1,67.5000025749208,6|0,0:0|0:0,0:0:0:0:
236,242,104022,2,0,P|252:188|230:175,1,67.5000025749208,14|0,0:0|0:0,0:0:0:0:
332,209,104397,2,0,L|408:210,1,67.5000025749208,6|0,0:0|0:0,0:0:0:0:
470,219,104772,6,0,P|486:273|464:286,1,67.5000025749208,8|0,0:0|0:0,0:0:0:0:
396,332,105147,2,0,P|371:348|344:345,1,33.7500012874604,2|2,0:0|0:0,0:0:0:0:
250,322,105334,2,0,P|271:339|293:341,1,33.7500012874604,2|2,0:0|0:0,0:0:0:0:
326,276,105522,6,0,L|333:186,1,67.5000025749208,10|0,0:0|0:0,0:0:0:0:
335,109,105897,1,2,0:0:0:0:
335,75,105990,1,2,0:0:0:0:
321,46,106084,1,2,0:0:0:0:
292,27,106178,1,2,0:0:0:0:
259,25,106272,6,0,L|175:56,1,67.5000025749208,14|0,0:0|0:0,0:0:0:0:
66,105,106647,2,0,L|151:136,1,67.5000025749208,6|0,0:0|0:0,0:0:0:0:
250,195,107022,2,0,P|115:243|115:243,1,135.000005149842,14|6,0:0|0:0,0:0:0:0:
215,280,107584,1,0,0:0:0:0:
124,321,107772,6,0,L|209:352,1,67.5000025749208,8|0,0:0|0:0,0:0:0:0:
359,334,108147,2,0,L|316:344,2,45.0000017166138,2|0|0,0:0|0:0|0:0,0:0:0:0:
430,273,108522,2,0,P|427:316|462:341,2,90.0000034332277,10|0|0,0:0|0:0|0:0,0:0:0:0:
495,179,109272,5,2,0:0:0:0:
396,216,109459,1,2,0:0:0:0:
402,79,109647,2,0,P|344:74|308:129,1,101.250003862381,8|4,0:0|0:0,0:0:0:0:
271,168,110022,5,4,0:0:0:0:
369,132,110209,1,4,0:0:0:0:
258,237,110397,1,4,0:0:0:0:
160,201,110584,1,4,0:0:0:0:
126,295,110772,6,0,P|88:325|38:311,1,76.5000014591217,8|0,0:0|0:0,0:0:0:0:
27,124,111147,1,8,0:0:0:0:
27,124,111334,1,8,0:0:0:0:
56,206,111522,1,2,0:0:0:0:
189,196,111709,2,0,P|151:226|101:212,1,76.5000014591217,8|0,0:0|0:0,0:0:0:0:
110,52,112084,1,0,0:0:0:0:
136,152,112272,6,0,L|162:241,1,76.5000014591217,8|2,0:0|0:0,0:0:0:0:
186,309,112647,2,0,P|225:339|260:336,2,51.0000009727478,8|0|0,0:0|0:0|0:0,0:0:0:0:
248,266,113022,2,0,P|297:274|335:244,2,102.000001945496,2|0|0,0:0|0:0|0:0,0:0:0:0:
221,136,113772,5,8,0:0:0:0:
279,209,113959,1,0,0:0:0:0:
336,80,114147,1,8,0:0:0:0:
348,176,114334,1,8,0:0:0:0:
219,27,114522,5,2,0:0:0:0:
286,142,114709,1,0,0:0:0:0:
386,1,114897,1,0,0:0:0:0:
388,124,115084,1,0,0:0:0:0:
280,6,115272,5,8,0:0:0:0:
348,176,115459,1,0,0:0:0:0:
182,45,115647,1,4,0:0:0:0:
257,235,115834,1,0,0:0:0:0:
60,243,116022,2,0,L|95:192,3,38.2500007295609,2|0|4|0,0:0|0:0|0:0|0:0,0:0:0:0:
47,136,116397,2,0,L|12:85,3,38.2500007295609,4|0|0|0,0:0|0:0|0:0|0:0,0:0:0:0:
110,55,116772,6,0,P|122:77|122:93,1,36,0|0,0:0|0:0,0:0:0:0:
139,206,117147,2,0,P|151:184|151:168,1,36,0|0,0:0|0:0,0:0:0:0:
185,32,117522,2,0,L|185:78,1,36,0|0,0:0|0:0,0:0:0:0:
232,207,117897,2,0,P|222:192|219:174,1,36,0|0,0:0|0:0,0:0:0:0:
271,49,118272,6,0,P|256:87|268:126,1,72
347,99,118834,1,0,0:0:0:0:
428,52,119022,2,0,L|440:90,1,36,0|0,0:0|0:0,0:0:0:0:
482,227,119397,1,0,0:0:0:0:
467,200,119772,6,0,P|455:178|455:162,1,36
428,52,120147,2,0,P|416:74|416:90,1,36,0|0,0:0|0:0,0:0:0:0:
382,226,120522,2,0,L|382:180,1,36,0|0,0:0|0:0,0:0:0:0:
428,52,120897,2,0,P|440:74|440:90,1,36,0|0,0:0|0:0,0:0:0:0:
449,226,121272,6,0,P|442:284|380:339,1,144,0|0,0:0|0:0,0:0:0:0:
375,265,122397,1,0,0:0:0:0:
359,242,122772,6,0,P|347:220|347:204,1,36
326,110,123147,2,0,P|314:132|314:148,1,36,0|0,0:0|0:0,0:0:0:0:
280,284,123522,2,0,L|280:238,1,36,0|0,0:0|0:0,0:0:0:0:
232,108,123897,2,0,P|241:122|244:140,1,36,0|0,0:0|0:0,0:0:0:0:
196,266,124272,6,0,P|211:228|199:189,1,72
118,217,124834,1,0,0:0:0:0:
75,142,125022,2,0,P|112:126|151:138,1,72,0|0,0:0|0:0,0:0:0:0:
232,82,125584,1,0,0:0:0:0:
232,82,125772,5,0,0:0:0:0:
259,83,126147,2,0,P|271:105|271:121,1,36,0|0,0:0|0:0,0:0:0:0:
308,181,126522,1,0,0:0:0:0:
337,179,126897,2,0,P|349:157|349:141,1,36,0|0,0:0|0:0,0:0:0:0:
336,34,127272,5,0,0:0:0:0:
361,34,127647,2,0,P|377:52|363:63,1,36
352,168,128022,2,0,P|312:146|344:114,1,72,0|0,0:0|0:0,0:0:0:0:
211,98,128397,2,0,P|241:47|279:70,1,107.999996704102,0|0,0:0|0:0,0:0:0:0:
445,138,128772,6,0,P|399:133|346:179,1,108,0|0,0:0|0:0,0:0:0:0:
296,250,129522,2,0,P|281:260|264:263,1,36,0|0,0:0|0:0,0:0:0:0:
188,226,129897,2,0,P|178:241|175:258,1,36,0|0,0:0|0:0,0:0:0:0:
165,357,130272,5,0,0:0:0:0:
195,357,130647,2,0,P|205:342|208:325,1,36
133,223,131022,2,0,P|143:238|146:255,1,36,0|0,0:0|0:0,0:0:0:0:
117,353,131397,1,0,0:0:0:0:
84,352,131772,6,0,P|72:330|72:314,1,36
132,204,132147,6,0,P|120:226|120:242,1,36,0|0,0:0|0:0,0:0:0:0:
47,178,132522,2,0,L|47:224,1,36,0|0,0:0|0:0,0:0:0:0:
0,350,132897,2,0,P|10:335|13:317,1,36
47,178,133272,6,0,L|47:254,2,72,0|0|0,0:0|0:0|0:0,0:0:0:0:
114,186,134397,1,0,0:0:0:0:
150,200,134772,6,0,P|175:141|252:240,1,252,0|0,0:0|0:0,0:0:0:0:
318,209,136272,6,0,P|343:267|459:212,1,216
395,160,137584,2,0,L|389:213,1,54
