osu file format v14

[General]
AudioFilename: audio.mp3
AudioLeadIn: 0
PreviewTime: 42406
Countdown: 0
SampleSet: Soft
StackLeniency: 0.5
Mode: 0
LetterboxInBreaks: 0
EpilepsyWarning: 1
WidescreenStoryboard: 1

[Editor]
Bookmarks: 22461,43217,69163,89920,111974,124947,137920,146839,158677,179434,200190
DistanceSpacing: 1.4
BeatDivisor: 4
GridSize: 32
TimelineZoom: 2.899999

[Metadata]
Title:Tomoshibi
TitleUnicode:灯火
Artist:Mrs. GREEN APPLE
ArtistUnicode:Mrs. GREEN APPLE
Creator:Haruto
Version:appleruto's Insane
Source:
Tags:僕のこと Boku no Koto EP single japanese jpop jrock rock haruto_aizawa appleeaterx mint glaceon reform kujinn mugiwarasekai irohas theduckmask kyumo d-arktanyan ミセスグリーンアップル motoki omori 大森元貴 hiroto wakai 若井滉斗 ayaka yamanaka 山中綾華 ryoka fujisawa 藤澤涼架 kiyokatsu kiyokazu takano 髙野清宗
BeatmapID:2363927
BeatmapSetID:1130594

[Difficulty]
HPDrainRate:6
CircleSize:3.8
OverallDifficulty:7.5
ApproachRate:9
SliderMultiplier:1.6
SliderTickRate:1

[Events]
//Background and Video events
0,0,"74075845_p0.jpg",0,0
//Break Periods
2,138120,146239
//Storyboard Layer 0 (Background)
//Storyboard Layer 1 (Fail)
//Storyboard Layer 2 (Pass)
//Storyboard Layer 3 (Foreground)
//Storyboard Layer 4 (Overlay)
//Storyboard Sound Samples

[TimingPoints]
407,324.324324324324,4,2,1,40,1,0
407,-181.818181818181,4,2,1,40,0,0
893,-100,4,2,1,20,0,0
1055,-166.666666666667,4,2,1,40,0,0
1623,-181.818181818181,4,2,1,20,0,0
1704,-100,4,2,17,60,0,0
1866,-100,4,2,1,60,0,0
2028,-100,4,2,1,60,0,0
22055,-100,4,2,1,45,0,0
22136,-100,4,2,1,60,0,0
22461,-133.333333333333,4,2,2,50,0,0
22542,-133.333333333333,4,2,2,20,0,0
22947,-100,4,2,2,50,0,0
23028,-100,4,2,2,20,0,0
23434,-80,4,2,2,50,0,0
23515,-80,4,2,1,20,0,0
25055,-133.333333333333,4,2,2,50,0,0
25136,-133.333333333333,4,2,2,20,0,0
25541,-100,4,2,2,20,0,0
25542,-100,4,2,2,50,0,0
25623,-100,4,2,2,20,0,0
26028,-80,4,2,2,50,0,0
26109,-80,4,2,2,20,0,0
26839,-80,4,2,1,30,0,0
27001,-200,4,2,2,40,0,0
27650,-133.333333333333,4,2,2,50,0,0
27731,-133.333333333333,4,2,2,20,0,0
28136,-100,4,2,2,60,0,0
28217,-100,4,2,2,20,0,0
28623,-80,4,2,2,60,0,0
28704,-80,4,2,1,20,0,0
30244,-133.333333333333,4,2,2,50,0,0
30569,-133.333333333333,4,2,2,20,0,0
30730,-100,4,2,2,50,0,0
31055,-100,4,2,2,20,0,0
31217,-80,4,2,2,50,0,0
31298,-80,4,2,2,20,0,0
31542,-80,4,2,1,30,0,0
32028,-133.333333333333,4,2,1,30,0,0
32352,-133.333333333333,4,2,1,50,0,0
32515,-80,4,2,1,50,0,0
32839,-113.636363636364,4,2,2,60,0,0
33082,-113.636363636364,4,2,1,20,0,0
33163,-113.636363636364,4,2,1,55,0,0
34055,-113.636363636364,4,2,1,25,0,0
34136,-113.636363636364,4,2,1,55,0,0
35434,-113.636363636364,4,2,2,55,0,0
35758,-113.636363636364,4,2,1,55,0,0
36650,-113.636363636364,4,2,1,25,0,0
36731,-113.636363636364,4,2,1,55,0,0
38028,-113.636363636364,4,2,2,55,0,0
38352,-113.636363636364,4,2,1,55,0,0
38515,-113.636363636364,4,2,2,55,0,0
38677,-113.636363636364,4,2,1,55,0,0
39001,-113.636363636364,4,2,2,55,0,0
39244,-113.636363636364,4,2,2,25,0,0
39325,-113.636363636364,4,2,1,55,0,0
40623,-133.333333333333,4,2,2,55,0,0
41109,-100,4,2,2,55,0,0
41515,-100,4,2,2,25,0,0
41596,-80,4,2,2,55,0,0
41677,-80,4,2,2,25,0,0
42082,-80,4,2,1,50,0,0
42163,-80,4,2,1,20,0,0
42406,-80,4,2,1,40,0,0
42731,-133.333333333333,4,2,1,40,0,0
43136,-133.333333333333,4,2,1,5,0,0
43217,-100,4,2,17,70,0,1
43379,-100,4,2,1,65,0,1
63974,-125,4,2,1,55,0,0
67866,-125,4,2,1,40,0,0
69163,-100,4,2,17,65,0,0
69325,-100,4,2,1,60,0,0
89920,-142.857142857143,4,2,1,60,0,0
90244,-142.857142857143,4,2,1,50,0,0
99650,-142.857142857143,4,2,1,55,0,0
99974,-200,4,2,2,60,0,0
100298,-125,4,2,2,60,0,0
100461,-125,4,2,1,55,0,0
105488,-125,4,2,2,55,0,0
105812,-125,4,2,1,55,0,0
108082,-76.9230769230769,4,2,2,55,0,0
108163,-76.9230769230769,4,2,2,25,0,0
108569,-76.9230769230769,4,2,2,55,0,0
108650,-76.9230769230769,4,2,2,25,0,0
109055,-76.9230769230769,4,2,2,55,0,0
109136,-76.9230769230769,4,2,2,25,0,0
109542,-76.9230769230769,4,2,2,55,0,0
109623,-76.9230769230769,4,2,2,25,0,0
109866,-76.9230769230769,4,2,2,45,0,0
110028,-100,4,2,2,55,0,0
110677,-90.9090909090909,4,2,2,55,0,0
111001,-90.9090909090909,4,2,1,35,0,0
111650,-90.9090909090909,4,2,1,55,0,0
111893,-90.9090909090909,4,2,1,5,0,0
111974,-100,4,2,17,70,0,1
112136,-100,4,2,1,65,0,1
135812,-100,4,2,1,60,0,0
137758,-100,4,2,1,40,0,0
146839,-100,4,2,1,60,0,0
147001,-111.111111111111,4,2,1,60,0,0
148217,-111.111111111111,4,2,1,20,0,0
148298,-111.111111111111,4,2,1,55,0,0
149677,-111.111111111111,4,2,1,40,0,0
150082,-111.111111111111,4,2,1,55,0,0
150325,-111.111111111111,4,2,1,40,0,0
150569,-111.111111111111,4,2,1,55,0,0
150650,-111.111111111111,4,2,1,40,0,0
150893,-111.111111111111,4,2,1,55,0,0
154866,-111.111111111111,4,2,1,45,0,0
155109,-111.111111111111,4,2,1,55,0,0
158677,-200,4,2,1,55,0,0
159325,-200,4,2,1,50,0,0
161596,-200,4,2,1,45,0,0
162569,-200,4,2,1,50,0,0
162731,-142.857142857143,4,2,1,50,0,0
163217,-142.857142857143,4,2,1,60,0,0
163379,-142.857142857143,4,2,1,40,0,0
163866,-125,4,2,1,40,0,0
164515,-125,4,2,1,45,0,0
165163,-100,4,2,1,50,0,0
165812,-100,4,2,1,55,0,0
166461,-100,4,2,1,40,0,0
167758,-100,4,2,1,50,0,0
167920,-100,4,2,1,30,0,0
168082,-100,4,2,1,50,0,0
168244,-100,4,2,1,30,0,0
168406,-100,4,2,1,65,0,0
168569,-100,4,2,1,30,0,0
168974,-100,4,2,1,5,0,0
169055,-83.3333333333333,4,2,17,70,0,1
169136,-83.3333333333333,4,2,1,60,0,1
169461,-83.3333333333333,4,2,1,40,0,1
169785,-83.3333333333333,4,2,1,60,0,1
170028,-100,4,2,1,60,0,1
170109,-100,4,2,1,40,0,1
170352,-83.3333333333333,4,2,1,40,0,1
170434,-83.3333333333333,4,2,1,60,0,1
170839,-71.4285714285714,4,2,1,60,0,1
171082,-71.4285714285714,4,2,1,40,0,1
171325,-71.4285714285714,4,2,1,60,0,1
171650,-100,4,2,1,60,0,1
171731,-100,4,2,1,40,0,1
171974,-100,4,2,1,60,0,1
172136,-100,4,2,1,40,0,1
172298,-100,4,2,1,60,0,1
172623,-83.3333333333333,4,2,1,60,0,1
172704,-83.3333333333333,4,2,1,40,0,1
172947,-100,4,2,1,60,0,1
173434,-100,4,2,1,40,0,1
173596,-100,4,2,1,60,0,1
174244,-100,4,2,1,60,0,0
174406,-90.9090909090909,4,2,1,60,0,0
176190,-76.9230769230769,4,2,1,60,0,0
177325,-100,4,2,1,60,0,0
178947,-142.857142857143,4,2,1,60,0,0
179434,-100,4,2,1,65,0,1
184623,-111.111111111111,4,2,1,65,0,1
185839,-111.111111111111,4,2,1,25,0,1
185920,-111.111111111111,4,2,1,65,0,1
189812,-117.647058823529,4,2,1,60,0,0
192406,-133.333333333333,4,2,1,50,0,0
194352,-133.333333333333,4,2,1,60,0,0
194434,-133.333333333333,4,2,1,20,0,0
194596,-133.333333333333,4,2,1,60,0,0
194677,-133.333333333333,4,2,1,20,0,0
194839,-133.333333333333,4,2,1,60,0,0
194920,-133.333333333333,4,2,1,20,0,0
195001,-100,4,2,1,60,0,0
199947,-100,4,2,1,40,0,0
200190,-100,4,2,1,60,0,0
213812,-100,4,2,1,40,0,0
213974,-100,4,2,1,60,0,0
214866,-100,4,2,1,40,0,0
215111,-100,4,2,1,60,0,0
215596,-100,4,2,1,50,0,0
215758,-133.333333333333,4,2,1,40,0,0

[Colours]
Combo1 : 118,191,235
Combo2 : 202,202,202
Combo3 : 169,170,168
Combo4 : 75,158,226
Combo5 : 233,207,105
Combo6 : 201,170,78
Combo7 : 89,249,98
Combo8 : 166,231,143

[HitObjects]
90,347,407,6,0,B|101:280|101:280|105:278|105:278|114:216,1,132.00000402832,2|0,1:2|0:0,0:0:0:0:
204,54,1055,2,0,P|278:85|282:164,1,167.999994873047,2|0,0:0|0:0,0:0:0:0:
267,176,1704,6,0,B|172:160,1,80,4|2,3:0|0:0,0:0:0:0:
320,249,2028,2,0,B|397:236|397:236|401:231|401:231|475:220,1,160,8|0,1:2|3:0,0:0:0:0:
475,219,2515,1,0,3:0:0:0:
262,327,2677,2,0,B|167:311,1,80,8|2,1:2|0:0,0:0:0:0:
7,154,3001,102,0,P|58:98|129:122,1,120,8|0,1:3|0:0,0:0:0:0:
110,108,3325,2,0,B|94:145|94:145|103:191,1,80,8|0,0:0|0:0,0:0:0:0:
169,310,3650,2,0,B|185:273|185:273|176:227,1,80,2|0,1:2|3:0,0:0:0:0:
246,44,3974,2,0,B|267:174,1,120,8|0,0:0|0:0,0:0:0:0:
267,176,4298,6,0,P|306:167|345:162,1,80,8|0,1:3|3:0,0:0:0:0:
294,362,4623,2,0,P|236:374|167:288,1,160,8|0,1:2|3:0,0:0:0:0:
432,106,5109,1,0,3:0:0:0:
432,106,5271,2,0,P|440:145|445:184,1,80,8|2,1:2|0:0,0:0:0:0:
373,302,5596,102,0,P|356:223|345:148,1,120,8|0,1:3|0:0,0:0:0:0:
345,162,5920,2,0,B|257:176,1,80,8|2,0:0|1:3,0:0:0:0:
188,281,6244,2,0,B|109:268,1,80,0|2,3:0|3:0,0:0:0:0:
217,97,6569,5,8,0:0:0:0:
194,112,6650,1,8,3:2:0:0:
178,135,6731,1,8,0:0:0:0:
171,162,6812,1,8,3:2:0:0:
174,190,6893,2,0,B|188:277,1,80,4|2,3:1|0:0,0:0:0:0:
101,336,7217,2,0,B|71:154,1,160,8|0,0:0|3:0,0:0:0:0:
270,335,7704,1,0,3:0:0:0:
270,335,7866,2,0,B|282:256,1,80,8|2,1:2|0:0,0:0:0:0:
348,191,8190,102,0,B|404:201|404:201|408:204|408:204|464:213,1,120,8|0,0:3|0:0,0:0:0:0:
481,218,8515,2,0,B|497:181|497:181|488:135,1,80,8|2,0:0|0:0,0:0:0:0:
336,26,8839,2,0,B|320:63|320:63|329:109,1,80,2|0,1:2|3:0,0:0:0:0:
264,165,9163,2,0,P|219:165|166:105,1,120,8|0,0:0|0:0,0:0:0:0:
164,102,9488,2,0,B|77:116,1,80,12|0,1:3|0:0,0:0:0:0:
141,323,9812,6,0,B|237:301|181:274|284:255,1,160,8|4,0:0|3:0,0:0:0:0:
352,317,10298,1,0,3:0:0:0:
263,165,10461,1,8,1:2:0:0:
263,165,10623,1,2,0:3:0:0:
352,187,10785,102,0,B|375:43,1,120,12|0,1:3|0:0,0:0:0:0:
373,54,11109,2,0,P|419:44|460:62,2,80,12|2|0,1:3|0:2|3:0,0:0:0:0:
445,255,11596,2,0,P|505:206|503:129,1,160,14|14,0:0|0:0,0:0:0:0:
352,187,12001,5,0,0:0:0:0:
338,194,12082,2,0,B|259:181,1,80,4|0,3:1|0:0,0:0:0:0:
91,151,12406,2,0,B|169:163,1,80,12|2,1:2|0:2,0:0:0:0:
314,83,12731,102,0,B|234:95,1,80,0|8,3:0|0:3,0:0:0:0:
114,266,13055,2,0,B|193:253,1,80,8|0,1:2|0:0,0:0:0:0:
196,11,13379,6,0,P|128:-2|68:64,2,160,10|8|2,0:3|0:0|1:2,0:0:0:0:
338,194,14190,1,0,3:0:0:0:
338,194,14352,2,0,B|325:233|325:233|332:276,1,80,8|0,0:0|0:0,0:0:0:0:
258,370,14677,101,4,1:2:0:0:
258,370,14839,1,2,0:2:0:0:
258,370,15001,6,0,B|244:293|244:293|240:288|240:288|228:212,1,160,8|0,1:2|0:0,0:0:0:0:
422,255,15488,1,2,1:2:0:0:
422,255,15650,2,0,B|409:334,1,80,8|0,0:0|0:0,0:0:0:0:
162,334,15974,102,0,B|84:317|127:297|55:284,1,120,8|0,1:3|0:0,0:0:0:0:
41,282,16298,2,0,B|28:202,1,80,8|2,0:0|3:0,0:0:0:0:
180,68,16623,2,0,B|167:147,1,80,8|2,1:2|3:0,0:0:0:0:
228,213,16947,1,12,0:0:0:0:
255,216,17028,1,8,0:0:0:0:
282,209,17109,1,8,0:0:0:0:
305,193,17190,1,8,0:0:0:0:
320,170,17271,6,0,B|399:157,1,80,8|2,0:3|3:0,0:0:0:0:
486,141,17596,2,0,P|505:175|504:214,1,80,4|0,1:1|0:0,0:0:0:0:
351,65,17920,2,0,P|389:55|427:66,1,80,0|0,3:0|3:0,0:0:0:0:
450,302,18244,2,0,P|417:321|347:306,1,80,8|0,1:2|0:0,0:0:0:0:
268,304,18569,102,0,B|255:383,1,80,8|0,1:3|0:0,0:0:0:0:
101,271,18893,2,0,B|180:283,1,80,8|2,0:0|0:0,0:0:0:0:
248,220,19217,2,0,B|266:163|266:163|256:101,1,120,2|0,1:2|0:0,0:0:0:0:
256,92,19542,2,0,B|335:79,1,80,8|2,0:0|0:0,0:0:0:0:
80,76,19866,5,4,1:3:0:0:
91,163,20028,1,0,0:0:0:0:
178,152,20190,1,8,0:0:0:0:
167,65,20352,1,2,0:0:0:0:
6,131,20515,101,4,1:3:0:0:
147,232,20677,1,0,3:0:0:0:
256,92,20839,2,0,B|335:79,1,80,8|2,1:2|0:0,0:0:0:0:
193,315,21163,2,0,P|91:313|72:285,1,120,12|0,0:3|0:0,0:0:0:0:
71,318,21488,2,0,P|46:275|51:228,1,80,12|0,1:3|0:0,0:0:0:0:
217,157,21812,2,0,P|242:200|237:247,1,80,8|0,0:3|3:0,0:0:0:0:
287,313,22055,5,8,3:2:0:0:
298,312,22136,2,0,B|350:303,1,40,10|8,1:2|0:0,0:0:0:0:
395,246,22298,2,0,B|447:237,1,40,2|0,1:2|3:0,0:0:0:0:
506,192,22461,102,0,P|467:157|385:167,1,120.000004577637,6|0,0:0|0:0,0:0:0:0:
307,224,22947,2,0,P|296:162|353:88,1,160,10|0,0:0|0:0,0:0:0:0:
444,13,23434,2,0,L|431:79,1,50,10|0,0:0|0:0,0:0:0:0:
161,296,25055,6,0,B|238:280|238:280|277:305,1,120.000004577637,6|0,0:0|0:0,0:0:0:0:
108,364,25542,2,0,L|142:202,1,160,10|0,0:0|0:0,0:0:0:0:
51,230,26028,2,0,L|-14:247,1,50,10|0,0:0|0:0,0:0:0:0:
148,216,26839,101,2,0:0:0:0:
148,216,26920,1,2,0:0:0:0:
148,216,27001,2,0,L|59:236,1,80,2|0,0:0|0:0,0:0:0:0:
144,34,27650,6,0,P|108:65|96:137,1,120.000004577637,6|0,0:0|0:0,0:0:0:0:
280,221,28136,2,0,P|251:139|163:116,1,160,10|0,0:0|0:0,0:0:0:0:
135,247,28623,2,0,L|155:187,1,50,10|0,0:0|0:0,0:0:0:0:
420,21,30244,102,0,B|392:93|392:93|413:137,1,120.000004577637,6|0,0:0|0:0,0:0:0:0:
317,240,30731,2,0,L|481:207,1,160,8|0,0:0|0:0,0:0:0:0:
510,79,31217,2,0,L|494:141,1,50,8|0,0:0|0:0,0:0:0:0:
316,344,31542,5,2,0:0:0:0:
321,360,31704,1,2,0:0:0:0:
385,299,31866,1,2,1:3:0:0:
317,240,32028,2,0,L|301:137,1,90.0000034332277,2|0,0:0|0:0,0:0:0:0:
290,157,32352,2,0,L|296:118,1,30.0000011444092,8|0,1:3|0:0,0:0:0:0:
419,21,32515,102,0,B|319:46|319:46|258:22,1,150,8|0,0:1|0:0,0:0:0:0:
273,44,32839,6,0,P|223:15|136:23,1,140.800004296875,4|8,0:0|0:1,0:0:0:0:
33,147,33325,2,0,L|115:131,1,70.4000021484376,2|2,3:0|0:2,0:0:0:0:
23,128,33650,1,0,3:0:0:0:
196,101,33812,102,0,L|172:228,1,105.600003222656,8|0,0:1|0:0,0:0:0:0:
162,203,34136,2,0,L|175:282,1,70.4000021484376,8|0,0:3|3:0,0:0:0:0:
305,372,34461,2,0,L|382:358,1,70.4000021484376,8|2,0:1|0:3,0:0:0:0:
418,280,34704,1,0,0:0:0:0:
411,290,34785,2,0,L|400:365,1,70.4000021484376,0|0,3:0|3:0,0:0:0:0:
314,277,35109,1,8,0:1:0:0:
470,191,35271,1,0,0:0:0:0:
470,191,35352,1,0,0:0:0:0:
470,191,35434,6,0,P|452:132|385:86,1,140.800004296875,6|8,0:0|0:1,0:0:0:0:
304,16,35920,2,0,L|285:87,1,70.4000021484376,2|0,3:0|0:0,0:0:0:0:
292,1,36244,1,0,3:0:0:0:
369,175,36406,2,0,L|257:194,1,105.600003222656,8|0,0:1|0:0,0:0:0:0:
272,179,36731,102,0,L|197:165,1,70.4000021484376,8|0,0:3|3:0,0:0:0:0:
44,87,37055,2,0,L|119:73,1,70.4000021484376,8|2,0:1|0:3,0:0:0:0:
164,2,37298,1,0,0:0:0:0:
157,12,37379,2,0,L|146:87,1,70.4000021484376,0|2,3:0|3:0,0:0:0:0:
41,275,37704,1,8,0:1:0:0:
22,173,37866,1,0,0:0:0:0:
22,173,37947,1,0,0:0:0:0:
22,173,38028,6,0,P|82:178|145:245,1,140.800004296875,6|8,0:0|0:1,0:0:0:0:
203,360,38515,2,0,L|215:280,1,70.4000021484376,2|0,0:0|0:0,0:0:0:0:
183,372,38839,1,0,1:0:0:0:
314,311,39001,2,0,L|292:190,1,105.600003222656,8|0,0:1|0:0,0:0:0:0:
287,219,39325,101,8,0:3:0:0:
426,88,39488,1,0,1:0:0:0:
391,254,39650,1,8,0:1:0:0:
417,176,39812,1,2,3:2:0:0:
417,176,39893,1,0,3:2:0:0:
417,176,39974,2,0,L|491:165,1,70.4000021484376,8|2,1:3|1:3,0:0:0:0:
409,72,40298,2,0,L|340:83,1,70.4000021484376,8|0,1:0|0:0,0:0:0:0:
228,46,40542,1,0,0:0:0:0:
241,36,40623,6,0,P|295:49|331:114,1,120.000004577637,6|0,0:0|0:0,0:0:0:0:
202,224,41109,2,0,P|197:176|259:120,1,120,10|0,0:0|0:0,0:0:0:0:
250,132,41434,2,0,L|191:122,1,40
79,58,41596,102,0,L|147:44,1,50,10|0,0:0|0:0,0:0:0:0:
63,295,42082,6,0,L|131:281,1,50,8|0,0:0|0:0,0:0:0:0:
461,241,42406,1,8,0:3:0:0:
344,359,42569,101,8,0:1:0:0:
382,281,42731,2,0,L|365:181,1,90.0000034332277,0|0,3:0|0:0,0:0:0:0:
359,200,43055,2,0,L|368:158,1,30.0000011444092,2|0,0:0|0:0,0:0:0:0:
398,14,43217,6,0,P|345:12|288:84,1,120,14|0,3:0|0:0,0:0:0:0:
282,40,43542,2,0,P|263:80|267:129,1,80,8|2,0:0|0:0,0:0:0:0:
382,281,43866,1,0,3:0:0:0:
461,241,44028,1,0,3:0:0:0:
461,241,44190,1,8,0:0:0:0:
340,358,44352,102,0,L|240:341,1,80,2|8,0:0|0:3,0:0:0:0:
136,202,44677,2,0,L|58:189,1,80,0|8,3:0|0:0,0:0:0:0:
181,288,45001,6,0,P|229:227|210:152,1,160,2|0,0:0|3:0,0:0:0:0:
142,34,45488,2,0,L|128:112,1,80,8|2,0:0|0:0,0:0:0:0:
359,200,45812,102,0,B|430:184|388:163|465:149,1,120,8|0,0:3|0:0,0:0:0:0:
477,134,46136,2,0,L|485:49,1,80,8|0,0:0|0:0,0:0:0:0:
435,368,46461,2,0,P|422:310|481:234,1,160,0|8,3:0|0:0,0:0:0:0:
344,109,46947,5,2,3:2:0:0:
344,109,47028,1,0,3:2:0:0:
344,109,47109,2,0,L|265:95,1,80,8|0,0:3|3:0,0:0:0:0:
285,6,47434,2,0,L|363:19,1,80,8|2,0:0|0:0,0:0:0:0:
190,148,47758,2,0,P|178:108|176:69,1,80,0|0,3:0|3:0,0:0:0:0:
457,3,48082,2,0,P|469:43|470:81,1,80,8|2,1:0|0:0,0:0:0:0:
286,253,48406,101,4,1:2:0:0:
286,253,48569,1,2,1:2:0:0:
359,200,48731,2,0,L|372:278,1,80,8|0,1:2|1:3,0:0:0:0:
302,343,49055,2,0,B|245:333|245:333|239:335|239:335|176:325,1,120,0|0,1:0|0:0,0:0:0:0:
178,341,49379,6,0,L|99:327,1,80,8|2,1:2|0:0,0:0:0:0:
71,225,49704,2,0,L|149:238,1,80,8|0,1:3|0:0,0:0:0:0:
275,124,50028,2,0,P|283:77|210:14,1,120,8|0,1:2|0:0,0:0:0:0:
232,16,50352,2,0,L|153:29,1,80,10|0,1:3|3:0,0:0:0:0:
366,90,50677,2,0,L|444:76,1,80,8|2,1:0|3:2,0:0:0:0:
244,213,51001,101,4,3:2:0:0:
244,213,51163,1,0,3:0:0:0:
244,213,51325,2,0,L|257:291,1,80,8|0,0:2|0:3,0:0:0:0:
204,366,51650,2,0,P|148:386|100:364,1,80,0|0,3:0|0:0,0:0:0:0:
325,161,51974,2,0,P|362:172|388:202,1,80,8|2,0:0|0:0,0:0:0:0:
145,201,52298,6,0,P|126:166|165:68,1,120,2|0,1:3|0:0,0:0:0:0:
148,80,52623,2,0,L|70:66,1,80,12|2,0:0|0:0,0:0:0:0:
259,14,52947,2,0,L|181:0,1,80,12|0,0:3|3:3,0:0:0:0:
54,253,53271,101,8,1:0:0:0:
81,251,53352,1,8,0:0:0:0:
108,242,53433,1,8,0:0:0:0:
129,224,53514,1,8,0:0:0:0:
145,201,53596,6,0,L|159:279,1,80,4|2,1:0|0:0,0:0:0:0:
204,356,53920,2,0,L|282:370,1,80,8|2,0:0|0:0,0:0:0:0:
311,169,54244,2,0,L|233:183,1,80,0|0,3:0|0:0,0:0:0:0:
145,201,54569,1,8,0:0:0:0:
328,275,54731,102,0,B|421:253|366:226|468:207,1,160,2|0,0:0|3:0,0:0:0:0:
416,56,55217,2,0,B|399:91|399:91|402:134,1,80,8|2,0:0|0:0,0:0:0:0:
495,373,55542,2,0,B|512:338|512:338|509:295,1,80,0|0,0:0|3:0,0:0:0:0:
296,94,55866,6,0,L|218:108,1,80,8|2,0:0|0:0,0:0:0:0:
201,115,56109,1,0,3:2:0:0:
201,115,56190,1,6,3:2:0:0:
99,134,56352,1,0,3:0:0:0:
58,22,56515,102,0,P|103:28|132:56,1,80,8|0,0:0|0:0,0:0:0:0:
198,210,56839,2,0,P|152:216|106:282,1,120,0|0,3:0|0:0,0:0:0:0:
86,272,57163,1,8,0:0:0:0:
15,331,57325,6,0,L|1:253,1,80,2|8,0:0|0:3,0:0:0:0:
180,383,57650,1,0,3:0:0:0:
180,383,57812,2,0,L|194:305,1,80,8|2,0:0|0:0,0:0:0:0:
276,258,58136,2,0,L|354:272,1,80,2|0,1:2|3:0,0:0:0:0:
186,119,58461,101,8,1:0:0:0:
168,97,58542,1,8,0:0:0:0:
145,82,58623,1,10,0:0:0:0:
117,76,58704,1,0,3:0:0:0:
90,79,58785,6,0,L|104:1,1,80,4|2,1:2|1:2,0:0:0:0:
291,35,59109,2,0,L|277:113,1,80,8|0,1:2|0:0,0:0:0:0:
347,174,59434,102,0,B|377:162|392:134|392:134|417:152|454:153,1,120,0|0,1:0|0:0,0:0:0:0:
464,143,59758,2,0,L|450:65,1,80,8|2,1:2|0:0,0:0:0:0:
258,204,60082,6,0,L|228:368,1,160,4|8,1:2|1:2,0:0:0:0:
333,266,60569,1,2,3:2:0:0:
333,266,60731,102,0,P|351:307|351:367,1,80,10|0,1:3|3:0,0:0:0:0:
144,311,61055,2,0,P|148:271|165:235,1,80,8|2,1:0|3:2,0:0:0:0:
291,35,61379,5,4,3:2:0:0:
291,35,61542,1,0,3:0:0:0:
235,106,61704,2,0,P|185:93|154:25,1,120,8|0,0:0|0:0,0:0:0:0:
151,27,62028,2,0,L|73:41,1,80,0|0,3:0|3:0,0:0:0:0:
18,141,62352,2,0,L|96:127,1,80,8|2,0:0|0:0,0:0:0:0:
326,120,62677,101,4,3:2:0:0:
343,141,62758,1,0,3:0:0:0:
352,167,62839,1,0,3:0:0:0:
350,195,62920,1,0,3:0:0:0:
339,220,63001,2,0,L|276:208,2,40,12|0|0,0:0|3:0|3:0,0:0:0:0:
422,238,63325,5,8,0:3:0:0:
505,256,63488,1,0,3:3:0:0:
445,323,63650,101,8,1:3:0:0:
362,341,63813,1,2,3:0:0:0:
279,359,63974,6,0,B|199:339|241:320|165:303,1,128,4|8,0:1|0:3,0:0:0:0:
62,354,64461,1,0,3:0:0:0:
62,354,64623,2,0,L|86:224,1,128,8|4,0:1|0:3,0:0:0:0:
285,16,65109,2,0,P|269:70|225:95,1,96,0|0,3:0|0:0,0:0:0:0:
240,108,65434,102,0,P|199:112|162:90,2,64,8|4|0,0:1|3:0|3:0,0:0:0:0:
374,14,65920,2,0,L|397:139,1,128,8|4,0:1|3:0,0:0:0:0:
440,363,66569,5,4,0:0:0:0:
440,363,66731,2,0,L|416:237,1,128,8|2,0:0|0:0,0:0:0:0:
329,204,67136,1,8,0:0:0:0:
327,216,67217,2,0,L|311:298,1,64,8|0,0:1|3:0,0:0:0:0:
232,322,67542,2,0,L|220:259,1,64,8|8,0:3|0:0,0:0:0:0:
203,172,67866,101,6,1:3:0:0:
203,172,68190,1,0,1:0:0:0:
203,172,68515,1,2,1:2:0:0:
18,364,69163,6,0,L|100:351,1,80,4|2,3:0|0:0,0:0:0:0:
216,288,69488,2,0,P|276:308|315:365,1,120,8|0,1:2|0:0,0:0:0:0:
309,365,69812,2,0,L|391:352,1,80,0|0,3:0|3:0,0:0:0:0:
475,240,70136,2,0,L|393:253,1,80,8|2,1:2|0:0,0:0:0:0:
376,115,70461,101,8,1:3:0:0:
376,115,70623,1,0,3:0:0:0:
322,187,70785,2,0,L|358:22,1,160,8|2,0:0|1:2,0:0:0:0:
442,52,71271,1,0,3:0:0:0:
270,23,71434,2,0,L|172:40,1,80,8|0,0:0|0:0,0:0:0:0:
5,144,71758,5,8,1:3:0:0:
42,14,71920,1,0,3:0:0:0:
189,60,72082,2,0,L|91:77,1,80,8|0,1:2|0:0,0:0:0:0:
50,215,72406,2,0,L|148:198,1,80,0|0,3:0|3:0,0:0:0:0:
254,134,72731,1,8,1:2:0:0:
326,206,72893,1,2,3:2:0:0:
326,206,72974,1,0,3:2:0:0:
326,206,73055,102,0,P|389:219|456:156,2,160,8|8|0,1:3|0:0|3:0,0:0:0:0:
254,134,73866,1,2,3:0:0:0:
252,263,74028,1,8,0:0:0:0:
246,290,74109,1,8,3:2:0:0:
241,318,74190,1,8,0:0:0:0:
236,345,74271,1,8,3:2:0:0:
229,371,74352,6,0,L|121:351,1,80,4|2,3:1|0:0,0:0:0:0:
4,195,74677,2,0,L|131:172,1,120,8|0,0:0|0:0,0:0:0:0:
116,185,75001,2,0,L|202:198,1,80,0|0,3:0|3:0,0:0:0:0:
343,110,75325,1,8,1:2:0:0:
267,46,75488,1,2,3:2:0:0:
267,46,75569,1,0,3:0:0:0:
267,46,75650,102,0,L|245:129,1,80,8|0,3:3|3:0,0:0:0:0:
252,263,75974,2,0,L|338:251,1,80,8|2,0:0|0:0,0:0:0:0:
460,127,76298,1,2,1:2:0:0:
512,201,76461,1,0,3:0:0:0:
446,268,76623,2,0,L|426:370,1,80,8|0,0:0|0:0,0:0:0:0:
222,368,76947,6,0,L|242:266,1,80,12|0,1:3|0:0,0:0:0:0:
179,116,77271,2,0,P|119:131|91:189,1,120,8|0,0:0|0:0,0:0:0:0:
91,195,77596,2,0,L|6:210,1,80,4|0,3:0|3:0,0:0:0:0:
34,93,77920,1,8,1:2:0:0:
64,302,78082,1,2,0:3:0:0:
183,213,78244,101,12,1:3:0:0:
183,213,78406,1,0,0:0:0:0:
282,373,78569,2,0,L|394:355,1,80,12|0,1:3|0:0,0:0:0:0:
370,364,78812,1,8,0:0:0:0:
378,370,78893,1,8,1:2:0:0:
510,280,79055,2,0,P|475:221|371:193,1,160,14|14,0:0|0:0,0:0:0:0:
352,270,79461,1,0,0:0:0:0:
363,260,79542,6,0,L|380:175,1,80,4|0,3:1|0:0,0:0:0:0:
498,29,79866,2,0,P|471:67|379:80,1,120,12|0,1:2|0:0,0:0:0:0:
397,75,80190,2,0,L|313:91,1,80,0|8,3:0|0:3,0:0:0:0:
154,16,80515,1,8,1:2:0:0:
263,23,80677,1,0,3:2:0:0:
263,23,80758,1,0,3:2:0:0:
263,23,80839,102,0,P|213:79|211:168,2,160,10|8|2,3:3|0:0|1:2,0:0:0:0:
318,89,81650,1,0,3:0:0:0:
245,238,81812,2,0,L|230:323,1,80,8|0,0:0|0:0,0:0:0:0:
81,379,82136,5,4,1:2:0:0:
125,203,82298,1,2,0:2:0:0:
2,301,82461,2,0,L|100:280,1,80,8|2,1:2|0:0,0:0:0:0:
80,59,82785,1,0,3:0:0:0:
80,59,82947,1,2,1:2:0:0:
144,125,83109,2,0,L|122:212,1,80,8|0,0:0|0:0,0:0:0:0:
257,372,83434,102,0,L|279:285,1,80,8|2,1:3|0:3,0:0:0:0:
465,252,83758,1,10,1:2:0:0:
297,305,83920,1,2,3:0:0:0:
416,172,84082,5,12,1:2:0:0:
295,212,84244,1,2,3:0:0:0:
237,141,84406,1,14,1:2:0:0:
232,113,84487,1,8,0:0:0:0:
227,85,84568,1,8,0:0:0:0:
222,58,84650,1,8,0:0:0:0:
215,29,84731,102,0,L|134:44,1,80,4|0,3:0|3:0,0:0:0:0:
13,206,85055,2,0,L|137:229,1,120,4|0,1:1|0:0,0:0:0:0:
126,247,85379,2,0,L|204:232,1,80,0|0,3:0|3:0,0:0:0:0:
277,356,85704,2,0,L|199:371,1,80,8|2,1:2|0:0,0:0:0:0:
329,240,86028,5,8,1:3:0:0:
329,240,86190,1,0,3:0:0:0:
356,327,86352,2,0,L|383:161,1,160,8|2,0:0|1:2,0:0:0:0:
459,130,86839,1,0,3:0:0:0:
379,18,87001,2,0,L|300:32,1,80,8|0,0:0|0:0,0:0:0:0:
81,93,87325,101,4,1:3:0:0:
162,130,87488,1,0,0:0:0:0:
155,41,87650,1,8,0:0:0:0:
81,93,87812,1,0,0:0:0:0:
83,184,87974,5,4,1:3:0:0:
248,164,88136,1,0,3:0:0:0:
162,130,88298,1,8,1:2:0:0:
250,255,88461,1,2,0:0:0:0:
329,210,88623,102,0,L|408:195,1,80,12|0,0:3|3:0,0:0:0:0:
502,50,88947,2,0,P|459:17|379:22,1,120,4|0,1:2|1:0,0:0:0:0:
389,28,89271,2,0,L|367:112,1,80,8|0,0:3|3:0,0:0:0:0:
407,195,89596,1,0,3:0:0:0:
506,155,89758,1,8,0:0:0:0:
379,281,89920,6,0,B|336:273|336:273|314:277|314:277|270:268,2,111.999996582031,4|2|8,0:0|0:1|0:3,0:0:0:0:
481,382,90893,2,0,P|472:355|465:328,1,55.9999982910157,2|0,0:1|0:0,0:0:0:0:
314,190,91217,102,0,P|330:136|344:82,2,111.999996582031,8|2|8,0:3|0:1|0:3,0:0:0:0:
228,191,92028,1,0,0:0:0:0:
228,191,92190,2,0,P|220:163|212:137,1,55.9999982910157,2|0,0:1|0:0,0:0:0:0:
74,24,92515,6,0,P|30:31|1:89,2,111.999996582031,8|2|8,0:3|0:1|0:3,0:0:0:0:
228,191,93488,1,2,0:1:0:0:
300,26,93812,102,0,L|246:41,1,55.9999982910157,8|0,1:3|0:0,0:0:0:0:
229,54,94055,1,0,0:0:0:0:
229,54,94136,1,2,0:1:0:0:
76,169,94298,1,0,0:0:0:0:
76,169,94461,2,0,L|129:153,1,55.9999982910157,8|0,1:3|0:0,0:0:0:0:
299,253,94785,2,0,P|318:289|315:324,1,55.9999982910157,2|0,0:1|0:0,0:0:0:0:
247,360,95109,6,0,B|204:352|204:352|182:356|182:356|138:347,2,111.999996582031,4|2|8,1:2|0:1|0:3,0:0:0:0:
399,244,96082,2,0,L|383:191,1,55.9999982910157,2|0,0:1|0:0,0:0:0:0:
506,70,96406,102,0,L|473:177,1,111.999996582031,8|2,0:3|0:1,0:0:0:0:
473,177,96893,1,0,0:0:0:0:
410,102,97055,1,8,0:3:0:0:
322,82,97217,1,0,0:0:0:0:
239,118,97379,1,2,0:1:0:0:
0,80,97704,6,0,L|107:47,1,111.999996582031,8|2,0:3|0:1,0:0:0:0:
107,47,98190,1,0,0:0:0:0:
152,127,98352,2,0,P|156:154|172:177,1,55.9999982910157,8|0,0:3|0:0,0:0:0:0:
239,118,98677,2,0,P|254:94|259:67,1,55.9999982910157,2|0,0:1|0:0,0:0:0:0:
106,244,99001,101,8,0:3:0:0:
106,244,99325,1,2,1:1:0:0:
425,283,99650,5,8,1:3:0:0:
345,311,99812,1,0,0:0:0:0:
345,311,99893,1,0,0:0:0:0:
345,311,99974,2,0,B|321:315|321:315|308:313|308:313|284:318,1,60,2|0,1:2|0:0,0:0:0:0:
269,324,100298,102,0,P|262:267|328:217,1,128,4|8,0:0|0:1,0:0:0:0:
334,137,100785,2,0,P|365:131|395:140,1,64,0|0,3:0|0:0,0:0:0:0:
417,229,101109,1,0,3:0:0:0:
483,127,101271,2,0,P|497:154|499:186,1,64,8|0,0:1|0:0,0:0:0:0:
341,332,101596,5,8,0:3:0:0:
341,332,101758,1,2,3:2:0:0:
341,332,101920,2,0,P|309:297|311:214,1,128,8|8,1:0|0:3,0:0:0:0:
243,159,102406,1,2,3:2:0:0:
243,159,102569,2,0,L|163:170,1,64,8|0,0:1|0:0,0:0:0:0:
61,55,102893,102,0,L|186:78,1,128,8|10,1:3|0:1,0:0:0:0:
243,159,103379,2,0,L|117:182,1,128,0|0,3:0|3:0,0:0:0:0:
18,318,103866,2,0,P|3:345|1:377,1,64,8|0,0:1|0:0,0:0:0:0:
185,341,104190,5,8,1:3:0:0:
185,341,104352,1,0,3:0:0:0:
185,341,104515,2,0,P|132:329|97:246,1,128,8|8,0:1|1:3,0:0:0:0:
314,102,105001,1,0,3:0:0:0:
314,102,105163,2,0,P|330:129|334:160,1,64,8|0,0:1|0:0,0:0:0:0:
266,284,105488,102,0,L|242:158,1,128,4|8,0:0|0:1,0:0:0:0:
404,47,105974,2,0,L|427:172,1,128,0|0,3:0|3:0,0:0:0:0:
231,66,106461,2,0,L|166:77,1,64,8|0,0:1|0:0,0:0:0:0:
168,77,106785,5,8,0:3:0:0:
64,312,106947,101,2,1:2:0:0:
2,234,107109,1,8,1:0:0:0:
56,151,107271,1,2,1:3:0:0:
151,176,107434,1,0,1:2:0:0:
157,276,107596,1,2,1:2:0:0:
86,233,107758,5,8,1:0:0:0:
86,233,107920,1,2,1:3:0:0:
137,365,108082,102,0,L|188:355,1,51.999997619629,6|0,0:0|0:0,0:0:0:0:
122,93,108569,6,0,L|173:83,1,51.999997619629,10|0,0:0|0:0,0:0:0:0:
240,264,109055,102,0,L|291:254,1,51.999997619629,10|0,0:0|0:0,0:0:0:0:
238,162,109542,6,0,L|289:152,1,51.999997619629,8|0,0:0|0:0,0:0:0:0:
378,205,109866,101,0,3:0:0:0:
378,205,109947,1,0,3:0:0:0:
378,205,110028,6,0,P|399:238|399:291,1,80,8|0,0:2|0:0,0:0:0:0:
500,235,110352,2,0,P|479:202|479:149,1,80,0|2,3:0|0:0,0:0:0:0:
318,303,110677,102,0,P|309:341|272:378,1,88.000002685547,2|0,0:0|3:0,0:0:0:0:
396,116,111001,2,0,P|404:77|443:38,1,88.000002685547,2|2,0:0|0:0,0:0:0:0:
215,154,111325,6,0,P|258:154|293:179,1,88.000002685547,2|2,0:0|0:3,0:0:0:0:
392,370,111650,1,2,0:0:0:0:
215,154,111974,102,0,P|161:108|110:110,1,120,14|0,3:0|0:0,0:0:0:0:
99,96,112298,2,0,L|18:114,1,80,8|2,0:0|0:0,0:0:0:0:
90,289,112623,2,0,L|9:307,1,80,0|0,3:0|3:0,0:0:0:0:
166,236,112947,1,8,0:0:0:0:
248,277,113109,6,0,L|231:355,1,80,2|8,0:0|0:3,0:0:0:0:
404,272,113434,2,0,L|387:193,1,80,0|8,3:0|0:0,0:0:0:0:
322,11,113758,1,2,0:0:0:0:
474,141,113920,2,0,P|427:103|328:106,1,160,0|8,3:0|0:0,0:0:0:0:
301,183,114406,1,2,0:0:0:0:
111,91,114569,102,0,P|170:90|220:45,1,120,8|0,0:3|0:0,0:0:0:0:
233,38,114893,2,0,L|211:126,1,80,8|2,0:0|0:0,0:0:0:0:
115,228,115217,2,0,L|88:88,1,120,0|0,3:0|0:0,0:0:0:0:
111,91,115542,1,8,0:0:0:0:
216,210,115704,6,0,L|302:195,1,80,2|8,0:0|0:3,0:0:0:0:
273,53,116028,2,0,L|187:68,1,80,0|8,3:0|0:0,0:0:0:0:
351,2,116352,1,2,0:0:0:0:
440,29,116515,2,0,P|485:95|468:181,1,160,2|8,3:0|1:0,0:0:0:0:
287,228,117001,1,2,3:2:0:0:
287,228,117082,1,0,3:2:0:0:
287,228,117163,102,0,L|372:214,1,80,4|2,1:2|1:2,0:0:0:0:
307,49,117488,1,8,1:2:0:0:
239,112,117650,1,0,1:3:0:0:
146,85,117812,2,0,P|153:35|172:5,1,80,0|0,1:0|0:0,0:0:0:0:
249,126,118136,2,0,P|267:161|270:200,1,80,8|2,1:2|0:0,0:0:0:0:
157,357,118461,6,0,L|16:332,1,120,8|0,1:3|0:0,0:0:0:0:
25,316,118785,2,0,L|110:298,1,80,8|0,1:2|3:0,0:0:0:0:
258,366,119109,2,0,L|336:349,1,80,10|0,1:3|3:0,0:0:0:0:
461,280,119434,1,8,1:0:0:0:
440,372,119596,1,2,3:2:0:0:
480,189,119758,102,0,P|440:124|345:106,1,160,4|8,3:2|0:0,0:0:0:0:
256,194,120244,1,2,0:0:0:0:
170,153,120406,2,0,L|186:71,1,80,0|0,3:0|3:0,0:0:0:0:
256,194,120731,1,8,0:0:0:0:
182,242,120893,1,2,0:0:0:0:
199,328,121055,6,0,L|279:313,1,80,2|0,1:3|3:0,0:0:0:0:
412,70,121379,2,0,L|379:207,1,120,12|0,0:0|0:0,0:0:0:0:
369,180,121704,2,0,P|381:225|379:268,1,80,12|0,0:3|3:3,0:0:0:0:
196,356,122028,1,8,1:0:0:0:
166,350,122109,1,8,0:0:0:0:
136,345,122190,1,8,0:0:0:0:
107,339,122271,1,8,0:0:0:0:
77,334,122352,102,0,L|62:228,1,80,4|0,1:0|0:0,0:0:0:0:
6,176,122677,2,0,L|90:154,1,80,8|2,0:0|0:0,0:0:0:0:
203,52,123001,2,0,L|125:72,1,80,0|0,3:0|3:0,0:0:0:0:
281,6,123325,1,8,0:0:0:0:
362,44,123488,6,0,L|343:125,1,80,2|8,0:0|3:3,0:0:0:0:
464,227,123812,2,0,L|445:149,1,80,0|8,3:0|0:0,0:0:0:0:
288,271,124136,1,2,0:0:0:0:
336,351,124298,2,0,B|442:348|376:310|491:309,1,160,0|8,3:0|0:0,0:0:0:0:
288,271,124785,101,2,3:2:0:0:
288,271,124866,1,0,3:2:0:0:
288,271,124947,2,0,L|210:252,1,80,6|0,0:0|3:0,0:0:0:0:
1,197,125271,2,0,L|79:178,1,80,8|2,0:0|0:0,0:0:0:0:
149,0,125596,6,0,P|190:20|211:112,1,120,0|0,3:0|0:0,0:0:0:0:
213,103,125920,2,0,L|135:84,1,80,8|2,0:0|0:0,0:0:0:0:
53,60,126244,101,8,0:3:0:0:
189,244,126406,1,0,3:0:0:0:
189,244,126569,2,0,B|295:241|229:203|344:202,1,160,8|2,0:0|1:2,0:0:0:0:
425,49,127055,2,0,L|406:127,1,80,0|8,3:0|1:0,0:0:0:0:
482,169,127298,1,8,0:0:0:0:
480,178,127379,2,0,L|466:234,1,40,10|0,0:0|3:0,0:0:0:0:
429,369,127542,6,0,P|356:364|329:277,2,160,4|8|0,1:2|1:2|1:0,0:0:0:0:
244,351,128352,2,0,L|166:332,1,80,0|8,3:0|1:2,0:0:0:0:
48,239,128677,1,2,0:0:0:0:
178,73,128839,102,0,L|146:201,1,120,4|0,1:2|0:0,0:0:0:0:
129,196,129163,2,0,P|173:218|189:244,1,80,8|2,1:2|3:2,0:0:0:0:
90,375,129488,2,0,P|46:353|30:327,1,80,10|0,1:3|3:0,0:0:0:0:
296,177,129812,2,0,P|311:223|304:253,1,80,8|2,1:0|3:2,0:0:0:0:
51,149,130136,6,0,L|71:65,1,80,4|0,3:2|3:0,0:0:0:0:
257,13,130461,2,0,L|340:33,1,80,8|2,0:0|0:0,0:0:0:0:
209,185,130785,102,0,B|206:106|178:155|177:69,1,120,0|0,3:0|0:0,0:0:0:0:
176,58,131109,1,8,0:0:0:0:
257,13,131271,1,2,0:0:0:0:
118,186,131434,2,0,L|40:204,1,80,4|0,3:2|3:0,0:0:0:0:
274,266,131758,2,0,L|351:284,1,80,12|2,0:0|1:2,0:0:0:0:
366,289,132001,1,2,1:2:0:0:
386,294,132082,5,8,0:3:0:0:
303,175,132244,1,0,3:3:0:0:
188,297,132406,101,8,1:3:0:0:
104,271,132569,1,2,3:0:0:0:
45,375,132731,6,0,L|122:356,1,80,4|0,0:1|0:0,0:0:0:0:
274,266,133055,2,0,L|351:284,1,80,8|0,3:1|0:0,0:0:0:0:
247,36,133379,102,0,P|232:74|228:113,1,80,0|0,3:0|0:0,0:0:0:0:
391,151,133704,2,0,P|406:113|409:73,1,80,8|0,3:1|0:0,0:0:0:0:
203,209,134028,6,0,B|92:209|158:247|52:250,2,160,8|8|0,3:0|3:1|3:0,0:0:0:0:
333,379,134839,1,0,0:0:0:0:
333,379,135001,2,0,L|255:360,1,80,8|2,3:1|0:0,0:0:0:0:
446,229,135325,101,8,3:1:0:0:
476,314,135488,1,0,3:0:0:0:
303,175,135650,5,8,3:1:0:0:
255,360,135812,1,8,0:0:0:0:
255,360,137758,102,0,L|265:315,2,40,0|0|4,0:0|0:0|0:2,0:0:0:0:
73,45,146839,5,2,0:0:0:0:
73,45,146920,1,8,0:1:0:0:
73,45,147001,2,0,L|57:116,1,71.9999978027344,8|0,0:3|3:0,0:0:0:0:
153,193,147325,1,0,3:0:0:0:
99,260,147488,1,0,3:0:0:0:
20,224,147650,102,0,P|75:222|171:371,1,251.999992309571,8|0,0:1|0:0,0:0:0:0:
149,360,148298,6,0,L|298:336,1,143.999995605469,4|8,3:1|0:3,0:0:0:0:
420,336,148785,1,0,3:0:0:0:
420,336,148866,1,0,3:0:0:0:
420,336,148947,2,0,L|409:392,3,35.9999989013672,0|0|0|0,3:0|3:0|3:0|3:0,0:0:0:0:
348,270,149271,102,0,L|363:211,1,35.9999989013672,8|0,3:3|3:0,0:0:0:0:
344,212,149434,2,0,L|354:168,1,35.9999989013672,0|0,3:0|3:0,0:0:0:0:
346,74,149596,6,0,P|412:89|456:151,1,143.999995605469,8|8,3:3|3:3,0:0:0:0:
266,138,150082,1,2,3:2:0:0:
266,138,150163,1,0,3:0:0:0:
266,138,150244,2,0,P|220:152|198:173,1,71.9999978027344,8|10,3:3|3:1,0:0:0:0:
179,254,150488,1,10,3:1:0:0:
171,243,150569,102,0,L|162:295,1,35.9999989013672,10|10,3:1|3:1,0:0:0:0:
86,201,150731,2,0,L|77:253,1,35.9999989013672,10|10,3:1|3:1,0:0:0:0:
14,154,150893,6,0,P|29:103|50:75,1,71.9999978027344,4|0,3:1|0:0,0:0:0:0:
132,62,151217,2,0,P|178:36|213:31,1,71.9999978027344,8|0,0:3|0:0,0:0:0:0:
255,103,151542,2,0,P|306:118|334:138,1,71.9999978027344,0|0,3:0|0:0,0:0:0:0:
308,218,151866,2,0,P|333:264|338:299,1,71.9999978027344,8|0,0:3|0:0,0:0:0:0:
469,358,152190,101,8,3:3:0:0:
469,358,152271,1,10,3:1:0:0:
469,358,152352,1,10,3:1:0:0:
469,358,152434,1,10,3:1:0:0:
469,358,152515,2,0,L|483:278,1,71.9999978027344,8|2,3:3|0:3,0:0:0:0:
429,147,152839,5,8,3:3:0:0:
429,147,152920,1,0,3:0:0:0:
429,147,153001,1,10,3:1:0:0:
429,147,153083,1,0,3:0:0:0:
429,147,153164,2,0,L|443:67,1,71.9999978027344,10|10,3:1|3:1,0:0:0:0:
362,25,153406,1,0,3:0:0:0:
356,38,153488,102,0,L|282:52,1,71.9999978027344,4|0,3:1|0:0,0:0:0:0:
199,12,153812,2,0,L|125:26,1,71.9999978027344,8|0,0:3|0:0,0:0:0:0:
67,107,154136,5,8,3:0:0:0:
67,107,154217,1,10,3:1:0:0:
67,107,154298,2,0,L|56:155,1,35.9999989013672,10|2,3:1|3:1,0:0:0:0:
157,122,154461,1,10,3:3:0:0:
157,122,154542,1,0,3:0:0:0:
157,122,154623,2,0,L|146:170,1,35.9999989013672,10|0,3:1|3:0,0:0:0:0:
60,232,154785,102,0,L|9:245,3,35.9999989013672,8|10|10|10,3:1|3:1|3:1|3:1,0:0:0:0:
113,304,155109,2,0,L|62:317,3,35.9999989013672,8|0|8|10,3:3|0:0|3:0|3:1,0:0:0:0:
171,375,155434,2,0,L|120:388,3,35.9999989013672,10|10|10|10,3:1|3:1|0:1|3:1,0:0:0:0:
266,368,155758,6,0,L|273:327,1,35.9999989013672,10|10,1:1|3:1,0:0:0:0:
245,320,155920,2,0,L|252:279,1,35.9999989013672,8|10,3:0|3:1,0:0:0:0:
306,199,156082,102,0,P|339:234|347:261,1,71.9999978027344,4|2,0:1|3:1,0:0:0:0:
207,199,156406,1,8,3:3:0:0:
207,199,156488,1,0,3:0:0:0:
207,199,156569,1,8,3:0:0:0:
207,199,156650,1,0,3:0:0:0:
207,199,156731,2,0,L|223:114,1,71.9999978027344,10|2,3:1|0:1,0:0:0:0:
328,26,157055,2,0,L|341:96,1,71.9999978027344,10|8,3:1|3:0,0:0:0:0:
237,293,157379,5,10,0:1:0:0:
211,301,157460,1,10,0:1:0:0:
184,299,157541,1,10,3:1:0:0:
160,287,157622,1,10,3:1:0:0:
142,267,157703,1,10,3:1:0:0:
124,246,157785,1,10,3:1:0:0:
100,234,157866,1,10,3:1:0:0:
73,233,157947,1,10,3:1:0:0:
38,251,158028,102,0,P|28:291|22:324,1,71.9999978027344,10|10,1:2|3:1,0:0:0:0:
22,103,158352,2,0,P|32:65|37:32,1,71.9999978027344,10|0,1:2|1:0,0:0:0:0:
207,199,158677,6,0,P|285:213|363:233,1,160,4|2,0:1|0:0,0:0:0:0:
334,57,159974,2,0,P|272:38|225:114,1,160,4|8,0:1|0:3,0:0:0:0:
414,309,160947,101,0,3:0:0:0:
503,147,161271,2,0,P|464:156|424:164,1,80,4|2,0:1|0:0,0:0:0:0:
363,233,161920,2,0,P|326:222|286:214,1,80,2|2,0:0|0:0,0:0:0:0:
269,307,162569,5,4,0:1:0:0:
193,199,162731,2,0,P|182:258|167:316,1,111.999996582031,0|8,0:0|0:3,0:0:0:0:
373,144,163217,102,0,P|345:138|318:131,1,55.9999982910157,0|2,3:0|3:0,0:0:0:0:
109,38,163542,2,0,P|137:32|164:25,1,55.9999982910157,2|2,3:0|3:0,0:0:0:0:
297,248,163866,6,0,L|310:318,1,64,4|0,0:1|0:0,0:0:0:0:
205,234,164190,2,0,L|134:247,1,64,0|0,3:0|0:0,0:0:0:0:
219,142,164515,2,0,L|205:71,1,64,0|0,3:0|0:0,0:0:0:0:
311,156,164839,2,0,L|381:142,1,64,8|0,0:3|0:0,0:0:0:0:
135,340,165163,102,0,L|214:326,1,80,4|0,3:2|3:0,0:0:0:0:
379,48,165488,2,0,L|301:63,1,80,8|8,0:3|3:1,0:0:0:0:
111,72,165812,2,0,L|126:151,1,80,8|2,3:1|3:2,0:0:0:0:
403,316,166136,2,0,L|389:238,1,80,8|8,0:0|0:0,0:0:0:0:
219,142,166461,5,0,1:0:0:0:
297,248,166785,1,2,1:2:0:0:
311,156,167109,1,0,1:0:0:0:
205,234,167434,1,2,1:2:0:0:
219,142,167758,101,2,1:0:0:0:
311,156,167920,1,2,0:3:0:0:
297,248,168082,1,2,1:2:0:0:
205,234,168244,1,2,0:3:0:0:
260,200,168406,5,2,1:2:0:0:
260,200,168569,1,2,0:3:0:0:
55,356,169055,21,14,3:0:0:0:
55,356,169136,1,0,3:0:0:0:
55,356,169217,1,8,3:0:0:0:
55,356,169298,1,8,3:0:0:0:
55,356,169379,2,0,L|39:285,1,47.9999985351563,8|8,3:1|3:1,0:0:0:0:
96,107,169542,6,0,B|214:138|133:161|259:199,1,191.999994140625,8|8,3:1|3:0,0:0:0:0:
336,79,170028,2,0,L|251:98,1,80,8|8,3:1|3:1,0:0:0:0:
188,294,170352,101,4,0:1:0:0:
188,294,170434,1,0,3:0:0:0:
188,294,170515,1,8,3:0:0:0:
188,294,170596,1,8,3:0:0:0:
188,294,170677,2,0,L|266:276,1,47.9999985351563,8|8,3:1|3:1,0:0:0:0:
341,258,170839,6,0,P|355:221|356:177,1,55.9999982910157,8|8,1:3|3:3,0:0:0:0:
379,221,171001,2,0,P|376:181|358:141,1,55.9999982910157,2|0,3:0|3:0,0:0:0:0:
227,4,171163,102,0,P|241:41|242:85,1,55.9999982910157,8|8,1:1|3:1,0:0:0:0:
265,41,171325,2,0,P|262:81|244:121,2,55.9999982910157,8|8|8,1:1|3:3|3:3,0:0:0:0:
25,197,171650,6,0,B|82:186|82:186|119:200|119:200|184:187,1,160,4|8,3:2|3:1,0:0:0:0:
512,85,172136,2,0,B|455:74|455:74|418:88|418:88|353:75,1,160,10|8,3:3|3:0,0:0:0:0:
293,173,172623,102,0,L|311:251,1,47.9999985351563,8|8,3:1|3:1,0:0:0:0:
347,289,172785,2,0,L|336:242,1,47.9999985351563,8|8,3:1|3:1,0:0:0:0:
201,281,172947,6,0,P|124:310|97:385,1,160,4|8,0:2|1:3,0:0:0:0:
96,377,173434,1,8,3:3:0:0:
386,171,173596,101,0,3:0:0:0:
421,174,173677,1,8,3:1:0:0:
452,191,173758,1,10,1:1:0:0:
474,219,173839,1,8,3:1:0:0:
482,254,173920,1,12,3:0:0:0:
180,187,174244,54,0,P|189:148|194:98,1,80,4|0,0:2|3:0,0:0:0:0:
102,130,174569,1,0,3:0:0:0:
281,153,174731,38,0,P|367:177|469:192,1,176.000005371094,4|0,0:3|0:0,0:0:0:0:
362,40,175217,2,0,P|319:52|276:57,1,88.000002685547,12|0,3:0|0:0,0:0:0:0:
108,350,175542,6,0,B|223:315|149:294|257:265,1,176.000005371094,12|0,0:3|3:0,0:0:0:0:
82,228,176028,1,4,0:0:0:0:
259,361,176190,1,0,0:3:0:0:
273,364,176271,2,0,L|357:382,1,51.999997619629,8|8,3:2|3:0,0:0:0:0:
427,302,176434,53,12,3:0:0:0:
411,298,176515,2,0,L|347:283,2,51.999997619629,8|0|0,0:3|3:3|3:0,0:0:0:0:
257,265,176839,37,12,0:0:0:0:
257,265,177001,1,0,3:0:0:0:
406,147,177163,1,0,3:0:0:0:
304,119,177325,2,0,P|316:162|321:205,1,80,12|0,0:2|3:0,0:0:0:0:
176,318,177650,5,0,3:0:0:0:
176,318,177812,2,0,P|164:275|159:232,1,80,12|0,0:2|3:0,0:0:0:0:
381,56,178136,53,8,0:3:0:0:
381,56,178298,2,0,P|424:44|467:39,1,80,12|2,0:0|0:0,0:0:0:0:
403,240,178623,1,8,0:3:0:0:
218,81,178785,1,12,0:0:0:0:
496,130,178947,38,0,B|505:180|505:180|494:211|494:211|506:269,1,139.999995727539,8|0,0:1|0:0,0:0:0:0:
493,284,179434,37,4,1:0:0:0:
362,361,179596,2,0,B|258:367|314:320|196:339,1,160,2|2,3:2|0:0,0:0:0:0:
18,279,180082,2,0,P|79:287|130:246,1,120,0|0,3:0|0:0,0:0:0:0:
137,265,180406,1,8,0:0:0:0:
74,116,180569,102,0,P|56:159|55:197,1,80,2|8,0:0|0:3,0:0:0:0:
206,79,180893,2,0,P|202:39|186:3,1,80,0|8,3:0|0:0,0:0:0:0:
154,165,181217,1,2,0:0:0:0:
305,107,181379,2,0,P|374:100|445:163,1,160,0|8,3:0|0:0,0:0:0:0:
206,79,181866,1,2,0:0:0:0:
347,209,182028,6,0,L|315:371,1,160,6|8,0:0|0:0,0:0:0:0:
149,322,182515,1,2,0:0:0:0:
149,322,182596,1,0,0:0:0:0:
149,322,182677,2,0,L|237:307,1,80,0|0,3:0|3:0,0:0:0:0:
347,206,183001,1,8,0:0:0:0:
448,262,183163,1,2,0:0:0:0:
345,303,183325,102,0,L|364:217,1,80,8|0,0:3|3:0,0:0:0:0:
210,44,183650,2,0,P|133:52|100:95,1,120,8|0,0:0|0:0,0:0:0:0:
121,96,183974,6,0,L|111:150,1,40,2|0,1:2|0:0,0:0:0:0:
6,171,184136,2,0,L|13:210,1,40,0|0,3:0|0:0,0:0:0:0:
121,250,184298,1,8,1:0:0:0:
115,279,184379,1,8,0:0:0:0:
109,308,184460,1,10,0:0:0:0:
104,338,184541,1,0,3:0:0:0:
98,367,184623,6,0,L|186:350,1,71.9999978027344,4|2,1:2|1:2,0:0:0:0:
317,194,184947,1,8,1:2:0:0:
317,194,185109,1,0,3:0:0:0:
423,258,185271,2,0,L|340:271,1,71.9999978027344,0|0,1:0|0:0,0:0:0:0:
162,165,185596,2,0,L|189:51,1,107.999996704102,8|0,1:2|0:0,0:0:0:0:
172,42,185920,70,0,P|125:28|86:35,1,71.9999978027344,4|0,1:2|0:0,0:0:0:0:
0,150,186244,1,8,1:2:0:0:
81,200,186406,1,2,3:2:0:0:
81,200,186488,1,0,3:2:0:0:
81,200,186569,2,0,L|163:186,1,71.9999978027344,10|0,1:3|3:0,0:0:0:0:
260,331,186893,2,0,L|330:318,1,71.9999978027344,8|2,1:0|3:2,0:0:0:0:
477,192,187217,53,4,3:2:0:0:
398,131,187379,1,0,3:0:0:0:
437,279,187542,2,0,L|458:191,1,71.9999978027344,8|2,0:0|0:0,0:0:0:0:
403,27,187866,2,0,P|348:35|303:76,1,107.999996704102,0|0,3:0|0:0,0:0:0:0:
318,79,188190,2,0,L|237:91,1,71.9999978027344,8|2,0:0|0:0,0:0:0:0:
96,54,188515,85,4,3:2:0:0:
185,24,188677,1,0,3:0:0:0:
55,133,188839,5,12,0:0:0:0:
228,174,189001,1,2,1:2:0:0:
228,174,189082,1,2,1:2:0:0:
228,174,189163,2,0,L|209:252,1,71.9999978027344,8|8,0:3|3:3,0:0:0:0:
82,309,189488,69,8,3:3:0:0:
26,236,189650,1,10,3:3:0:0:
38,380,189812,54,0,P|107:335|183:343,1,136.000002593994,4|8,0:1|0:3,0:0:0:0:
230,372,190298,1,0,3:0:0:0:
279,264,190461,2,0,L|261:155,1,102.000001945496,8|0,0:1|0:0,0:0:0:0:
246,160,190785,2,0,L|263:81,1,68.0000012969971,4|0,0:3|3:0,0:0:0:0:
220,17,191109,37,0,0:0:0:0:
374,29,191271,2,0,L|388:95,1,68.0000012969971,8|4,0:1|3:0,0:0:0:0:
295,253,191596,1,0,3:2:0:0:
295,253,191677,1,0,3:2:0:0:
295,253,191758,2,0,L|208:233,1,68.0000012969971,8|0,3:1|3:0,0:0:0:0:
356,176,192082,1,4,3:0:0:0:
450,302,192244,1,2,0:0:0:0:
494,233,192406,22,0,L|484:159,1,60.0000022888184,4|2,0:0|0:0,0:0:0:0:
478,225,192731,2,0,L|468:151,1,60.0000022888184,2|2,0:0|0:0,0:0:0:0:
506,83,193055,1,2,0:0:0:0:
373,86,193379,38,0,L|514:63,1,120.000004577637,2|0,0:0|0:0,0:0:0:0:
114,26,194352,38,0,L|126:70,1,30.0000011444092,8|0,0:1|0:0,0:0:0:0:
8,170,194596,22,0,L|40:162,1,30.0000011444092,8|0,0:1|0:0,0:0:0:0:
194,123,194839,38,0,L|206:167,1,30.0000011444092,8|0,0:1|0:0,0:0:0:0:
257,235,195001,6,0,P|212:195|111:200,2,160,4|8|8,1:0|0:0|1:3,0:0:0:0:
168,273,195812,1,2,0:0:0:0:
251,377,195974,2,0,L|331:365,1,80,8|2,0:0|0:0,0:0:0:0:
390,298,196217,1,0,0:0:0:0:
382,288,196298,22,0,L|361:372,1,80,8|2,0:3|0:0,0:0:0:0:
501,240,196623,2,0,L|482:159,1,80,8|0,0:0|0:0,0:0:0:0:
386,31,196947,1,8,1:3:0:0:
386,31,197109,1,2,0:0:0:0:
318,93,197271,2,0,L|297:177,1,80,8|2,1:2|0:0,0:0:0:0:
138,257,197596,5,4,0:2:0:0:
77,179,197758,1,2,0:0:0:0:
53,296,197920,2,0,L|135:279,1,80,8|2,1:2|0:3,0:0:0:0:
280,157,198244,2,0,L|252:285,1,120,8|0,1:3|0:0,0:0:0:0:
236,268,198569,2,0,P|249:313|243:356,1,80,8|2,1:2|0:0,0:0:0:0:
89,198,198893,70,0,P|86:158|99:120,1,80,8|0,0:3|0:0,0:0:0:0:
308,31,199217,2,0,B|413:20|358:63|482:51,1,160,12|8,0:0|1:3,0:0:0:0:
335,120,199704,1,2,0:0:0:0:
491,154,199866,1,8,1:2:0:0:
485,183,199947,1,10,3:1:0:0:
479,212,200028,1,10,3:1:0:0:
474,242,200109,1,10,3:1:0:0:
468,271,200190,54,0,L|340:243,1,120,4|0,0:0|0:0,0:0:0:0:
346,263,200515,2,0,P|306:261|269:246,1,80,12|0,0:0|0:0,0:0:0:0:
258,103,200839,2,0,P|297:104|334:119,1,80,8|2,1:3|0:0,0:0:0:0:
195,182,201163,2,0,B|147:175|147:175|126:183|126:183|75:175,1,120,8|0,0:0|3:0,0:0:0:0:
63,172,201488,85,8,0:3:0:0:
189,33,201650,1,2,0:0:0:0:
92,11,201812,2,0,L|112:103,1,80,8|0,0:0|0:0,0:0:0:0:
212,260,202136,2,0,L|194:181,1,80,8|2,1:3|0:0,0:0:0:0:
17,255,202461,2,0,P|3:295|0:333,1,80,8|2,1:2|0:0,0:0:0:0:
368,180,202785,54,0,P|330:193|290:197,1,80,4|8,1:2|0:3,0:0:0:0:
152,344,203109,2,0,P|189:357|229:361,1,80,8|2,1:2|0:3,0:0:0:0:
379,85,203434,86,0,L|300:103,1,80,8|2,1:3|0:0,0:0:0:0:
347,285,203758,2,0,L|425:267,1,80,8|2,1:2|0:0,0:0:0:0:
194,181,204082,1,8,0:3:0:0:
194,181,204244,1,8,0:3:0:0:
459,22,204406,86,0,P|472:60|476:100,1,80,12|0,0:0|0:0,0:0:0:0:
476,121,204650,1,0,0:0:0:0:
476,121,204731,1,8,1:3:0:0:
368,180,204893,1,2,0:0:0:0:
240,31,205055,53,8,1:2:0:0:
212,37,205136,1,10,3:1:0:0:
185,43,205217,1,2,3:0:0:0:
158,49,205298,1,10,3:1:0:0:
136,56,205379,70,0,B|35:82|98:111|0:137,2,160,4|8|0,3:1|1:2|3:0,0:0:0:0:
271,241,206190,1,0,3:0:0:0:
271,241,206352,1,8,1:3:0:0:
99,191,206515,1,8,0:0:0:0:
176,259,206677,70,0,L|193:180,1,80,8|0,1:3|0:0,0:0:0:0:
306,86,207001,2,0,L|323:164,1,80,8|2,0:0|0:0,0:0:0:0:
391,227,207325,2,0,P|430:222|468:209,1,80,2|8,1:2|3:3,0:0:0:0:
316,348,207650,2,0,P|278:334|238:330,1,80,10|8,3:1|3:3,0:0:0:0:
183,272,207893,69,10,3:1:0:0:
176,259,207974,2,0,L|193:180,1,80,4|2,1:2|0:0,0:0:0:0:
31,257,208298,2,0,L|13:335,1,80,8|0,1:2|0:0,0:0:0:0:
25,16,208623,2,0,P|46:72|154:96,1,160,0|8,3:0|1:3,0:0:0:0:
312,22,209109,1,8,0:0:0:0:
215,12,209271,86,0,L|232:90,1,80,8|0,1:3|0:0,0:0:0:0:
419,140,209596,2,0,L|401:61,1,80,8|2,0:0|0:0,0:0:0:0:
284,204,209920,2,0,L|266:282,1,80,2|8,1:2|3:3,0:0:0:0:
407,353,210244,1,10,3:1:0:0:
407,353,210325,1,8,3:1:0:0:
407,353,210406,2,0,L|393:292,1,40,0|8,3:3|3:1,0:0:0:0:
181,241,210569,102,0,P|105:258|87:284,1,80,4|0,1:2|0:0,0:0:0:0:
19,284,210893,2,0,P|-1:321|3:370,1,80,8|0,1:2|0:0,0:0:0:0:
1,147,211217,2,0,P|38:167|87:163,1,80,0|0,3:0|3:0,0:0:0:0:
141,121,211461,1,0,3:0:0:0:
137,107,211542,1,8,1:3:0:0:
118,23,211704,1,8,0:0:0:0:
224,148,211866,38,0,B|319:122|256:93|357:67,1,160,8|8,1:3|0:0,0:0:0:0:
491,198,212352,1,2,0:0:0:0:
393,219,212515,2,0,L|411:141,1,80,14|8,1:3|3:3,0:0:0:0:
440,14,212839,1,10,3:1:0:0:
440,14,212920,1,10,3:1:0:0:
440,14,213001,2,0,L|456:84,1,40,8|10,3:3|3:1,0:0:0:0:
502,327,213163,86,0,P|461:316|424:309,1,80,2|2,1:3|1:3,0:0:0:0:
424,309,213488,1,8,1:2:0:0:
237,180,213650,2,0,P|276:172|314:162,1,80,2|12,1:2|1:3,0:0:0:0:
464,0,213974,1,2,1:2:0:0:
464,0,214055,1,8,0:0:0:0:
464,0,214136,2,0,P|471:39|481:77,1,80,8|8,1:2|1:1,0:0:0:0:
317,336,214461,102,0,P|239:336|206:273,1,120,8|0,1:3|0:0,0:0:0:0:
203,321,214785,2,0,P|174:270|177:236,1,80,12|4,1:2|3:0,0:0:0:0:
284,120,215109,2,0,P|254:170|223:185,1,80,8|2,1:0|0:0,0:0:0:0:
74,144,215434,2,0,P|132:144|160:163,1,80,2|10,3:0|1:1,0:0:0:0:
34,332,215758,70,0,P|22:271|6:212,1,120.000004577637,2|2,0:0|0:0,0:0:0:0:
185,21,216244,1,0,0:0:0:0:
185,21,216406,2,0,P|192:58|202:95,2,60.0000022888184,2|0|2,0:0|0:0|0:0,0:0:0:0:
358,179,216893,1,2,0:0:0:0:
375,88,217055,38,0,B|452:77|405:55|498:42,1,120.000004577637,2|2,0:0|0:0,0:0:0:0:
358,179,217542,1,0,0:0:0:0:
358,179,217704,2,0,P|387:184|416:191,1,60.0000022888184,2|2,0:0|0:0,0:0:0:0:
469,272,218028,2,0,P|439:279|410:284,1,60.0000022888184,2|2,0:0|0:0,0:0:0:0:
158,303,218352,70,0,P|191:245|261:239,1,120.000004577637,2|2,0:0|0:0,0:0:0:0:
315,282,218839,1,2,0:0:0:0:
315,282,219001,2,0,L|301:340,1,60.0000022888184,2|0,0:0|0:0,0:0:0:0:
174,155,219325,37,2,0:0:0:0:
264,133,219488,1,2,0:0:0:0:
