osu file format v14

[General]
AudioFilename: audio.mp3
AudioLeadIn: 0
PreviewTime: 42406
Countdown: 0
SampleSet: Soft
StackLeniency: 0.6
Mode: 0
LetterboxInBreaks: 0
EpilepsyWarning: 1
WidescreenStoryboard: 1

[Editor]
Bookmarks: 22461
DistanceSpacing: 1.4
BeatDivisor: 4
GridSize: 32
TimelineZoom: 1.9

[Metadata]
Title:Tomoshibi
TitleUnicode:灯火
Artist:Mrs. GREEN APPLE
ArtistUnicode:Mrs. GREEN APPLE
Creator:Haruto
Version:Kyumo's Normal
Source:
Tags:僕のこと Boku no Koto EP single japanese jpop jrock rock haruto_aizawa appleeaterx mint glaceon reform kujinn mugiwarasekai irohas theduckmask kyumo d-arktanyan ミセスグリーンアップル motoki omori 大森元貴 hiroto wakai 若井滉斗 ayaka yamanaka 山中綾華 ryoka fujisawa 藤澤涼架 kiyokatsu kiyokazu takano 髙野清宗
BeatmapID:2438898
BeatmapSetID:1130594

[Difficulty]
HPDrainRate:3
CircleSize:3
OverallDifficulty:4
ApproachRate:6
SliderMultiplier:1.1
SliderTickRate:1

[Events]
//Background and Video events
0,0,"74075845_p0.jpg",0,0
//Break Periods
2,137920,144654
//Storyboard Layer 0 (Background)
//Storyboard Layer 1 (Fail)
//Storyboard Layer 2 (Pass)
//Storyboard Layer 3 (Foreground)
//Storyboard Layer 4 (Overlay)
//Storyboard Sound Samples

[TimingPoints]
407,324.324324324324,4,2,1,45,1,0
1704,-100,4,2,1,60,0,0
22461,-100,4,2,1,45,0,0
32839,-100,4,2,1,50,0,0
39001,-100,4,2,2,50,0,0
39325,-100,4,2,1,50,0,0
43217,-100,4,2,17,70,0,1
43298,-100,4,2,1,70,0,1
67866,-100,4,2,1,40,0,0
69163,-100,4,2,1,60,0,0
89920,-100,4,2,1,45,0,0
100298,-100,4,2,1,50,0,0
111974,-100,4,2,17,70,0,1
112055,-100,4,2,1,70,0,1
135812,-100,4,2,1,50,0,0
135974,-100,4,2,0,50,0,0
136704,-100,4,2,1,50,0,0
136947,-100,4,2,0,50,0,0
137028,-100,4,2,1,50,0,0
137271,-100,4,2,0,50,0,0
145704,-100,4,2,1,50,0,0
148298,-100,4,2,1,60,0,0
158677,-100,4,2,1,50,0,0
169055,-100,4,2,17,70,0,1
169136,-100,4,2,1,70,0,1
178947,-142.857142857143,4,2,1,60,0,0
179434,-100,4,2,1,75,0,1
195001,-100,4,2,1,60,0,0
215758,-100,4,2,1,40,0,0

[Colours]
Combo1 : 118,191,235
Combo2 : 202,202,202
Combo3 : 169,170,168
Combo4 : 75,158,226
Combo5 : 233,207,105
Combo6 : 201,170,78
Combo7 : 89,249,98
Combo8 : 166,231,143

[HitObjects]
23,72,407,6,0,B|68:69|100:44|100:44|95:129|138:175,1,220,2|2,1:2|0:0,0:0:0:0:
300,284,1704,6,0,B|352:302|352:302|423:277,1,110,4|8,3:0|1:2,0:0:0:0:
443,193,2352,2,0,L|417:60,1,110,0|8,3:0|1:2,0:0:0:0:
401,45,2839,1,2,0:0:0:0:
401,45,3001,2,0,P|338:23|281:35,1,110,8|8,1:3|0:0,0:0:0:0:
209,75,3650,2,0,P|146:83|93:57,1,110,2|8,1:2|0:0,0:0:0:0:
8,42,4298,102,0,B|9:93|9:93|14:106|14:106|17:170,1,110,8|8,1:3|1:2,0:0:0:0:
28,249,4947,2,0,P|83:275|147:257,1,110,0|8,3:0|1:2,0:0:0:0:
167,234,5434,1,2,0:0:0:0:
167,234,5596,2,0,P|222:208|286:226,1,110,8|8,1:3|0:0,0:0:0:0:
352,268,6244,1,0,3:0:0:0:
418,196,6569,2,0,P|410:162|417:135,1,55,8|8,0:0|0:0,0:0:0:0:
444,103,6893,6,0,P|392:120|337:83,1,110,4|8,3:1|0:0,0:0:0:0:
280,23,7542,2,0,P|228:6|173:43,1,110,0|8,3:0|1:2,0:0:0:0:
147,65,8028,1,2,0:0:0:0:
147,65,8190,2,0,L|159:191,1,110,8|8,0:3|0:0,0:0:0:0:
227,243,8839,2,0,L|215:369,1,110,2|8,1:2|0:0,0:0:0:0:
120,377,9488,102,0,L|132:251,1,110,12|8,1:3|0:0,0:0:0:0:
157,174,10136,2,0,B|181:158|195:134|195:134|225:154|264:148,1,110,4|8,3:0|1:2,0:0:0:0:
300,161,10623,1,2,0:3:0:0:
300,161,10785,2,0,B|348:152|348:152|365:154|365:154|419:143,2,110,12|12|0,1:3|1:3|3:0,0:0:0:0:
260,252,11758,1,2,3:2:0:0:
282,348,12082,6,0,B|320:367|339:345|336:345|363:334|391:350,1,110,4|12,3:1|1:2,0:0:0:0:
482,318,12731,2,0,B|456:292|456:292|468:213,1,110,0|8,3:0|1:2,0:0:0:0:
499,183,13217,1,2,0:0:0:0:
499,183,13379,2,0,L|482:64,1,110,10|8,0:3|0:0,0:0:0:0:
397,24,14028,2,0,B|348:0|348:0|279:35,1,110,2|8,1:2|0:0,0:0:0:0:
314,123,14677,102,0,B|270:116|270:116|247:123|247:123|200:114,1,110,4|8,1:2|1:2,0:0:0:0:
141,40,15325,2,0,B|159:62|159:62|136:154,1,110,0|8,0:0|0:0,0:0:0:0:
95,159,15812,1,2,0:0:0:0:
95,159,15974,2,0,B|77:181|77:181|100:273,1,110,8|8,1:3|0:0,0:0:0:0:
126,354,16623,1,8,1:2:0:0:
189,278,16947,1,12,0:0:0:0:
233,366,17271,6,0,B|279:359|279:359|305:368|305:368|348:363,1,110,8|4,0:3|1:1,0:0:0:0:
437,340,17920,2,0,B|448:219,1,110,0|8,3:0|1:2,0:0:0:0:
456,185,18406,1,2,0:0:0:0:
456,185,18569,2,0,P|400:213|335:194,1,110,8|8,1:3|0:0,0:0:0:0:
273,149,19217,2,0,P|217:121|152:140,1,110,2|8,1:2|0:0,0:0:0:0:
115,208,19866,102,0,B|144:186|144:186|141:102,1,110,4|8,1:3|0:0,0:0:0:0:
71,41,20515,2,0,B|42:63|42:63|45:147,1,110,4|8,1:3|1:2,0:0:0:0:
16,178,21001,1,2,0:0:0:0:
16,178,21163,2,0,L|23:298,2,110,4|4|8,0:3|1:0|0:3,0:0:0:0:
116,193,22136,2,0,L|119:262,1,55,10|2,1:2|1:2,0:0:0:0:
120,297,22461,6,0,B|195:262|195:262|268:299,2,165,6|10|10,0:0|0:0|0:0,0:0:0:0:
490,55,25055,2,0,B|436:72|410:35|417:37|395:-9|320:14,2,165,6|10|10,0:0|0:0|0:0,0:0:0:0:
46,74,27650,2,0,B|95:75|120:41|120:41|121:91|164:116,2,165,6|10|10,0:0|0:0|0:0,0:0:0:0:
399,335,30244,2,0,B|401:276|401:276|429:243|429:243|431:170,2,165,6|8|8,0:0|0:0|0:0,0:0:0:0:
183,122,32352,1,8,1:3:0:0:
183,122,32515,2,0,L|174:203,1,55,8|0,0:1|0:0,0:0:0:0:
171,225,32839,102,0,P|231:212|277:259,1,110,4|8,0:0|0:1,0:0:0:0:
295,279,33325,2,0,L|469:251,1,165,2|8,3:0|0:1,0:0:0:0:
499,162,34136,1,8,0:3:0:0:
404,132,34461,1,8,0:1:0:0:
448,43,34785,2,0,B|397:24|397:24|340:52,1,110,0|8,3:0|0:1,0:0:0:0:
291,130,35434,6,0,L|300:241,1,110,4|8,0:0|0:1,0:0:0:0:
285,287,35920,2,0,B|239:286|217:247|217:247|195:287|140:297,1,165,2|8,3:0|0:1,0:0:0:0:
130,197,36731,1,8,0:3:0:0:
59,265,37055,1,8,0:1:0:0:
39,168,37379,2,0,L|23:57,1,110,0|8,3:0|0:1,0:0:0:0:
115,22,38028,102,0,B|187:17|187:17|212:26|212:26|286:20,2,165,6|2|8,0:0|0:0|0:1,0:0:0:0:
131,119,39325,2,0,L|146:227,1,110,8|8,0:3|0:1,0:0:0:0:
81,303,39974,1,8,1:3:0:0:
156,366,40298,1,8,1:0:0:0:
226,295,40623,2,0,B|276:321|310:288|303:288|345:257|395:295,2,165,6|10|10,0:0|0:0|0:0,0:0:0:0:
137,175,42082,1,8,0:0:0:0:
453,34,43217,6,0,P|482:76|460:139,1,110,14|8,3:0|0:0,0:0:0:0:
393,194,43866,2,0,P|363:236|385:299,1,110,0|8,3:0|0:0,0:0:0:0:
433,370,44515,2,0,L|306:377,1,110,8|8,0:3|0:0,0:0:0:0:
248,311,45163,1,0,3:0:0:0:
177,380,45488,1,8,0:0:0:0:
92,328,45812,102,0,L|104:210,1,110,8|8,0:3|0:0,0:0:0:0:
170,145,46461,2,0,L|158:27,1,110,0|8,3:0|0:0,0:0:0:0:
257,25,47109,2,0,L|269:143,1,110,8|8,0:3|0:0,0:0:0:0:
279,232,47758,1,0,3:0:0:0:
293,329,48082,1,8,1:0:0:0:
377,380,48406,6,0,P|436:355|456:250,1,165,4|0,1:2|1:3,0:0:0:0:
434,221,49055,2,0,B|410:169|410:169|425:95,1,110,0|8,1:0|1:2,0:0:0:0:
441,23,49704,1,8,1:3:0:0:
441,23,50028,1,8,1:2:0:0:
348,14,50352,1,10,1:3:0:0:
348,14,50677,1,8,1:0:0:0:
258,55,51001,102,0,B|208:75|208:75|138:53,1,110,4|8,3:2|0:0,0:0:0:0:
116,36,51488,1,2,0:0:0:0:
116,36,51650,2,0,L|130:158,1,110,0|8,3:0|0:0,0:0:0:0:
201,212,52298,2,0,L|187:334,2,110,2|12|12,1:3|0:0|0:3,0:0:0:0:
276,147,53271,1,8,1:0:0:0:
338,225,53596,6,0,L|324:347,1,110,4|8,1:0|0:0,0:0:0:0:
423,349,54244,2,0,L|437:227,1,110,0|8,3:0|0:0,0:0:0:0:
400,146,54893,1,8,0:3:0:0:
498,158,55217,1,8,0:0:0:0:
457,67,55542,2,0,P|397:48|341:70,1,110,0|8,3:0|0:0,0:0:0:0:
297,142,56190,102,0,P|245:158|194:141,1,110,6|8,0:0|0:0,0:0:0:0:
106,93,56839,2,0,B|129:128|129:128|111:209,1,110,0|8,3:0|0:0,0:0:0:0:
79,287,57488,2,0,B|127:283|127:283|144:287|144:287|206:283,1,110,8|8,0:3|0:0,0:0:0:0:
257,213,58136,1,2,1:2:0:0:
333,276,58461,2,0,L|402:271,1,55,8|10,1:0|0:0,0:0:0:0:
437,266,58785,6,0,L|416:152,1,110,4|8,1:2|1:2,0:0:0:0:
403,115,59271,1,0,0:0:0:0:
403,115,59434,2,0,B|352:136|352:136|294:116,1,110,0|8,1:0|1:2,0:0:0:0:
218,63,60082,2,0,B|167:42|167:42|109:62,1,110,4|8,1:2|1:2,0:0:0:0:
78,92,60569,1,2,3:2:0:0:
78,92,60731,2,0,L|85:210,1,110,10|8,1:3|1:0,0:0:0:0:
164,260,61379,102,0,L|150:383,1,110,4|8,3:2|0:0,0:0:0:0:
250,380,62028,2,0,L|262:270,1,110,0|8,3:0|0:0,0:0:0:0:
274,172,62677,2,0,B|317:165|317:165|332:155|332:155|389:144,2,110,4|12|8,3:2|0:0|0:3,0:0:0:0:
175,158,63650,1,2,0:3:0:0:
84,201,63974,6,0,B|122:241|122:241|94:370,1,165,4|0,0:1|3:0,0:0:0:0:
138,378,64623,2,0,P|203:343|248:349,1,110,8|4,0:1|0:3,0:0:0:0:
335,345,65271,2,0,P|400:380|445:374,1,110,0|4,0:0|3:0,0:0:0:0:
494,299,65920,2,0,L|503:224,1,55,8|0,0:1|3:0,0:0:0:0:
482,198,66244,2,0,L|491:123,1,55,4|2,3:0|0:0,0:0:0:0:
492,93,66569,102,0,B|432:89|432:89|405:99|405:99|316:92,1,165,4|2,0:0|0:0,0:0:0:0:
289,122,67217,2,0,B|304:175|304:175|280:231,1,110,8|8,0:1|0:3,0:0:0:0:
237,314,67866,2,0,B|193:308|193:308|173:296|173:296|129:291,2,110,6|0|2,1:3|1:0|1:2,0:0:0:0:
425,228,69163,6,0,P|425:137|398:113,1,110,4|8,3:0|1:2,0:0:0:0:
330,78,69812,2,0,P|239:78|215:105,1,110,0|8,3:0|1:2,0:0:0:0:
199,126,70298,1,2,0:0:0:0:
199,126,70461,2,0,L|79:116,1,110,8|8,1:3|0:0,0:0:0:0:
78,215,71109,2,0,L|198:225,1,110,2|8,1:2|0:0,0:0:0:0:
280,188,71758,102,0,B|313:159|313:159|300:71,1,110,8|8,1:3|1:2,0:0:0:0:
238,18,72406,2,0,P|180:3|115:35,1,110,0|8,3:0|1:2,0:0:0:0:
107,61,72893,1,2,0:0:0:0:
107,61,73055,2,0,L|125:182,1,110,8|8,1:3|0:0,0:0:0:0:
211,215,73704,2,0,L|193:336,1,110,0|8,3:0|0:0,0:0:0:0:
108,278,74352,6,0,L|125:148,1,110,4|8,3:1|0:0,0:0:0:0:
205,115,75001,2,0,P|265:121|304:161,1,110,0|8,3:0|1:2,0:0:0:0:
305,207,75488,1,2,0:0:0:0:
305,207,75650,2,0,P|351:245|407:244,1,110,8|8,0:3|0:0,0:0:0:0:
475,183,76298,2,0,L|457:64,1,110,2|8,1:2|0:0,0:0:0:0:
367,35,76947,102,0,B|336:34|316:15|316:15|304:42|277:53,1,110,12|8,1:3|0:0,0:0:0:0:
227,136,77596,2,0,B|201:125|189:98|189:98|169:117|138:118,1,110,4|8,3:0|1:2,0:0:0:0:
94,127,78082,1,2,0:3:0:0:
94,127,78244,2,0,L|108:251,1,110,12|12,1:3|1:3,0:0:0:0:
197,275,78893,2,0,L|183:399,1,110,8|2,1:2|0:2,0:0:0:0:
283,382,79542,6,0,L|297:269,1,110,4|12,3:1|1:2,0:0:0:0:
258,181,80190,2,0,B|311:166|311:166|372:198,1,110,0|8,3:0|1:2,0:0:0:0:
406,221,80677,1,2,0:0:0:0:
406,221,80839,2,0,L|395:103,1,110,10|8,0:3|0:0,0:0:0:0:
346,25,81488,2,0,B|297:0|297:0|244:14,1,110,2|8,1:2|0:0,0:0:0:0:
215,108,82136,102,0,B|162:123|162:123|113:97,1,110,4|8,1:2|1:2,0:0:0:0:
19,65,82785,2,0,L|39:182,1,110,0|8,3:0|0:0,0:0:0:0:
77,211,83271,1,2,0:0:0:0:
77,211,83434,2,0,L|57:328,2,110,8|10|12,1:3|1:2|1:2,0:0:0:0:
135,131,84406,1,14,1:2:0:0:
217,185,84731,6,0,P|284:208|333:179,1,110,8|4,0:3|1:1,0:0:0:0:
381,119,85379,2,0,P|448:96|497:125,1,110,0|8,3:0|1:2,0:0:0:0:
507,158,85866,1,2,0:0:0:0:
507,158,86028,2,0,L|513:287,1,110,8|8,1:3|0:0,0:0:0:0:
451,346,86677,2,0,P|399:360|350:336,1,110,2|8,1:2|0:0,0:0:0:0:
293,255,87325,102,0,B|297:212|297:212|311:193|311:193|317:132,1,110,4|8,1:3|0:0,0:0:0:0:
219,124,87974,2,0,B|215:167|215:167|201:186|201:186|195:247,1,110,4|8,1:3|1:2,0:0:0:0:
137,308,88623,2,0,B|89:298|89:298|61:231,2,110,12|4|8,0:3|1:2|0:3,0:0:0:0:
225,353,89596,1,0,3:0:0:0:
285,274,89920,6,0,B|322:253|322:253|347:253|347:253|394:230,1,110,4|2,0:0|0:1,0:0:0:0:
451,160,90569,2,0,L|436:32,1,110,8|2,0:3|0:1,0:0:0:0:
348,9,91217,2,0,P|277:12|240:54,1,110,8|2,0:3|0:1,0:0:0:0:
192,116,91866,2,0,P|121:113|84:71,1,110,8|2,0:3|0:1,0:0:0:0:
21,29,92515,101,8,0:3:0:0:
21,29,92839,1,2,0:1:0:0:
0,129,93163,1,8,0:3:0:0:
0,129,93488,1,2,0:1:0:0:
77,199,93812,1,8,1:3:0:0:
77,199,94136,1,2,0:1:0:0:
45,295,94460,1,8,1:3:0:0:
45,295,94785,1,2,0:1:0:0:
129,346,95109,6,0,L|252:323,1,110,4|2,1:2|0:1,0:0:0:0:
280,237,95758,2,0,L|388:257,1,110,8|2,0:3|0:1,0:0:0:0:
485,240,96406,2,0,P|458:185|473:133,1,110,8|2,0:3|0:1,0:0:0:0:
496,44,97055,2,0,P|439:21|389:32,1,110,8|2,0:3|0:1,0:0:0:0:
326,104,97704,101,8,0:3:0:0:
326,104,98028,1,2,0:1:0:0:
270,29,98352,1,8,0:3:0:0:
270,29,98676,1,2,0:1:0:0:
226,119,99001,1,8,0:3:0:0:
226,119,99325,1,2,1:1:0:0:
166,39,99650,2,0,B|116:54|116:54|46:31,1,110,8|2,1:3|1:2,0:0:0:0:
19,20,100136,1,0,0:0:0:0:
19,20,100298,6,0,L|33:143,1,110,4|8,0:0|0:1,0:0:0:0:
75,152,100785,2,0,L|61:275,1,110,0|0,3:0|3:0,0:0:0:0:
59,310,101271,1,8,0:1:0:0:
137,370,101596,2,0,P|201:378|248:343,1,110,8|8,0:3|1:0,0:0:0:0:
320,300,102244,1,0,3:0:0:0:
395,366,102569,1,8,0:1:0:0:
475,308,102893,102,0,L|470:192,1,110,8|10,1:3|0:1,0:0:0:0:
429,169,103379,2,0,L|424:53,1,110,0|0,3:0|3:0,0:0:0:0:
405,13,103866,1,8,0:1:0:0:
306,21,104190,2,0,B|268:25|268:25|250:40|250:40|184:47,1,110,8|8,1:3|0:1,0:0:0:0:
129,113,104839,1,0,3:2:0:0:
184,195,105163,1,8,0:1:0:0:
239,277,105488,6,0,P|287:246|351:257,1,110,4|8,0:0|0:1,0:0:0:0:
357,295,105974,2,0,P|405:326|469:315,1,110,0|0,3:0|3:0,0:0:0:0:
496,293,106461,1,8,0:1:0:0:
454,203,106785,1,8,0:3:0:0:
384,133,107109,2,0,B|267:151,2,110,8|0|8,1:0|1:2|1:0,0:0:0:0:
476,96,108082,102,0,P|437:41|375:43,1,110,6|0,0:0|0:0,0:0:0:0:
349,43,108569,2,0,L|225:33,1,110,10|0,0:0|0:0,0:0:0:0:
190,29,109055,1,10,0:0:0:0:
275,150,109542,1,8,0:0:0:0:
468,338,111812,5,0,0:0:0:0:
468,338,111974,2,0,L|452:218,1,110,14|8,3:0|0:0,0:0:0:0:
475,186,112461,1,2,0:0:0:0:
475,186,112623,2,0,L|459:52,1,110,0|8,3:0|0:0,0:0:0:0:
379,21,113271,2,0,P|297:-3|262:11,1,110,8|8,0:3|0:0,0:0:0:0:
213,79,113920,2,0,P|131:103|96:89,1,110,0|8,3:0|0:0,0:0:0:0:
20,55,114569,102,0,B|47:73|47:73|43:167,1,110,8|8,0:3|0:0,0:0:0:0:
56,203,115055,1,2,0:0:0:0:
56,203,115217,2,0,P|109:209|158:185,1,110,0|8,3:0|0:0,0:0:0:0:
221,107,115866,2,0,L|348:106,2,110,8|8|2,0:3|0:0|3:0,0:0:0:0:
153,34,116839,1,8,1:0:0:0:
248,8,117163,6,0,L|376:7,1,110,4|8,1:2|1:2,0:0:0:0:
407,30,117650,1,0,1:3:0:0:
407,30,117812,2,0,P|438:90|427:145,1,110,0|8,1:0|1:2,0:0:0:0:
377,212,118461,1,8,1:3:0:0:
377,212,118785,1,8,1:2:0:0:
459,278,119109,1,10,1:3:0:0:
459,278,119433,1,8,1:0:0:0:
392,351,119758,102,0,B|360:367|339:346|344:346|318:327|287:351,1,110,6|10,0:0|0:0,0:0:0:0:
244,366,120244,1,2,0:0:0:0:
244,366,120406,2,0,L|256:254,1,110,0|8,3:0|0:0,0:0:0:0:
321,182,121055,1,2,1:3:0:0:
243,120,121379,1,12,0:0:0:0:
332,77,121704,1,12,0:3:0:0:
249,21,122028,2,0,L|183:30,1,55,8|8,1:0|0:0,0:0:0:0:
146,38,122352,6,0,B|162:80|162:80|150:145,1,110,4|8,1:0|0:0,0:0:0:0:
132,192,122839,1,2,0:0:0:0:
132,192,123001,2,0,B|107:242|107:242|125:318,1,110,0|8,3:0|0:0,0:0:0:0:
186,367,123650,2,0,L|302:349,1,110,8|8,0:3|0:0,0:0:0:0:
358,274,124298,2,0,L|466:290,1,110,0|8,3:0|0:0,0:0:0:0:
466,190,124947,102,0,L|357:173,1,110,6|8,0:0|0:0,0:0:0:0:
313,163,125434,1,2,0:0:0:0:
313,163,125596,2,0,B|340:114|340:114|312:42,1,110,0|8,3:0|0:0,0:0:0:0:
240,5,126244,2,0,L|119:18,1,110,8|8,0:3|0:0,0:0:0:0:
32,28,126893,1,2,1:2:0:0:
16,125,127217,2,0,L|26:204,1,55,8|10,1:0|0:0,0:0:0:0:
67,200,127542,6,0,L|55:322,1,110,4|8,1:2|1:2,0:0:0:0:
137,366,128190,2,0,P|190:367|231:332,1,110,0|8,1:0|1:2,0:0:0:0:
288,251,128839,2,0,P|341:245|384:276,1,110,4|8,1:2|1:2,0:0:0:0:
481,257,129488,2,0,L|471:184,1,55,10|0,1:3|3:0,0:0:0:0:
430,178,129812,2,0,L|420:105,1,55,8|2,1:0|3:2,0:0:0:0:
387,88,130136,102,0,L|255:82,1,110,4|8,3:2|0:0,0:0:0:0:
196,24,130785,2,0,L|67:36,1,110,0|8,3:0|0:0,0:0:0:0:
7,95,131434,1,4,3:2:0:0:
22,192,131758,1,12,0:0:0:0:
36,289,132082,1,8,0:3:0:0:
96,367,132406,2,0,P|132:350|151:328,1,55,8|2,1:3|3:0,0:0:0:0:
167,296,132731,6,0,P|217:262|281:269,1,110,4|8,0:1|3:1,0:0:0:0:
331,335,133379,2,0,P|381:369|445:362,1,110,0|8,3:0|3:1,0:0:0:0:
474,280,134028,2,0,L|442:148,1,110,8|8,3:0|3:1,0:0:0:0:
412,80,134677,2,0,B|362:58|362:58|305:82,1,110,0|8,3:0|3:1,0:0:0:0:
222,124,135325,2,0,L|160:117,1,55,8|0,3:1|3:0,0:0:0:0:
141,75,135650,2,0,L|79:82,1,55,8|8,3:1|0:0,0:0:0:0:
37,88,135974,101,2,0:0:0:0:
83,175,136298,1,2,0:0:0:0:
19,251,136623,2,0,B|13:298|13:298|19:324|19:324|12:377,2,110,2|2|2,0:0|0:0|0:0,0:0:0:0:
256,192,145704,12,8,147001,0:1:0:0:
424,130,148298,6,0,P|348:154|337:201,1,110,4|8,3:1|0:3,0:0:0:0:
354,228,148785,1,0,0:0:0:0:
354,228,148947,2,0,L|234:216,1,110,0|8,3:0|0:3,0:0:0:0:
167,154,149596,2,0,L|47:166,1,110,8|8,3:3|3:3,0:0:0:0:
52,263,150244,1,8,3:0:0:0:
150,249,150569,1,8,3:0:0:0:
244,219,150893,102,0,P|266:168|245:99,1,110,4|8,3:1|0:3,0:0:0:0:
334,53,151542,2,0,P|385:75|454:54,1,110,8|8,3:0|0:3,0:0:0:0:
492,147,152190,2,0,P|461:191|465:245,1,110,8|8,3:3|3:3,0:0:0:0:
399,319,152839,1,8,3:0:0:0:
300,307,153163,1,8,3:0:0:0:
244,217,153488,6,0,B|189:200|189:200|131:229,2,110,4|8|0,3:1|3:3|3:0,0:0:0:0:
290,304,154461,1,10,0:3:0:0:
219,373,154785,1,0,3:0:0:0:
123,345,155109,1,8,3:0:0:0:
110,246,155434,2,0,L|-13:260,1,110,10|10,3:1|1:1,0:0:0:0:
12,160,156082,102,0,L|135:146,1,110,4|8,0:1|3:3,0:0:0:0:
214,113,156731,1,0,3:0:0:0:
311,130,157055,1,0,3:0:0:0:
355,218,157379,2,0,B|307:199|277:235|281:235|247:271|188:244,1,165,10|10,0:1|3:1,0:0:0:0:
151,241,158028,2,0,P|177:286|163:349,1,110,10|10,1:2|1:2,0:0:0:0:
76,303,158677,6,0,P|52:244|77:184,1,110,4|0,0:1|0:0,0:0:0:0:
144,142,159325,2,0,P|201:123|218:65,1,110,2|0,0:0|0:0,0:0:0:0:
152,7,159974,2,0,L|38:21,1,110,4|0,0:1|0:0,0:0:0:0:
5,112,160623,1,8,0:3:0:0:
27,208,160947,1,0,3:0:0:0:
0,303,161271,102,0,P|55:319|109:289,1,110,4|2,0:1|0:0,0:0:0:0:
166,223,161920,2,0,P|221:207|275:237,1,110,2|2,0:0|0:0,0:0:0:0:
299,321,162569,2,0,B|355:350|386:324|377:312|419:284|462:318,1,165,4|8,0:1|0:3,0:0:0:0:
502,321,163217,1,8,3:0:0:0:
496,124,163866,6,0,L|369:106,1,110,4|0,0:1|3:0,0:0:0:0:
311,172,164515,2,0,P|348:215|341:288,1,110,0|8,3:0|0:3,0:0:0:0:
257,251,165163,1,4,3:2:0:0:
257,251,165487,1,8,0:3:0:0:
220,164,165812,1,8,3:1:0:0:
220,164,166136,1,8,0:0:0:0:
277,83,166461,102,0,P|339:75|388:110,1,110,0|2,1:0|1:2,0:0:0:0:
456,158,167109,2,0,B|478:190|478:190|461:321,1,165,0|0,1:0|0:0,0:0:0:0:
418,339,167758,2,0,B|366:305|314:337|320:355|278:392|205:347,1,220,2|2,1:0|1:2,0:0:0:0:
79,204,169055,38,0,P|98:145|78:92,1,110,14|8,3:0|3:1,0:0:0:0:
104,55,169542,2,0,L|224:43,1,110,8|8,3:1|3:0,0:0:0:0:
262,38,170028,1,8,3:1:0:0:
326,113,170352,2,0,B|311:166|311:166|343:233,1,110,4|8,0:1|3:1,0:0:0:0:
376,243,170839,2,0,B|391:296|391:296|359:363,1,110,8|8,1:3|1:1,0:0:0:0:
334,382,171325,1,8,1:1:0:0:
246,335,171650,6,0,P|185:312|142:338,1,110,4|8,3:2|3:1,0:0:0:0:
106,357,172136,2,0,P|97:304|49:276,1,110,10|8,3:3|3:0,0:0:0:0:
5,294,172623,1,8,3:1:0:0:
5,195,172947,2,0,B|29:164|29:164|20:76,1,110,4|8,3:2|1:3,0:0:0:0:
24,43,173434,2,0,L|140:52,1,110,8|10,3:3|1:1,0:0:0:0:
150,98,173920,1,12,3:0:0:0:
247,112,174244,38,0,B|245:172|245:172|220:204|220:204|215:276,2,165,4|4|12,0:2|0:3|0:0,0:0:0:0:
308,33,175542,2,0,B|361:4|396:31|387:42|424:73|485:30,2,165,12|4|8,0:3|0:1|3:2,0:0:0:0:
210,16,176839,38,0,L|23:10,2,165,12|8|12,0:2|0:0|0:2,0:0:0:0:
247,112,178136,1,8,0:3:0:0:
186,190,178461,1,2,0:0:0:0:
252,263,178785,1,12,0:2:0:0:
57,303,179434,38,0,L|70:175,1,110,4|8,1:0|0:0,0:0:0:0:
92,152,179920,1,2,0:0:0:0:
92,152,180082,2,0,P|159:132|208:159,1,110,0|8,3:0|0:0,0:0:0:0:
268,210,180731,2,0,P|335:230|384:203,1,110,8|8,0:3|0:0,0:0:0:0:
439,145,181379,2,0,L|407:25,1,110,0|8,3:0|0:0,0:0:0:0:
313,20,182028,102,0,B|262:14|262:14|242:17|242:17|189:11,1,110,6|8,0:0|0:0,0:0:0:0:
193,111,182677,2,0,B|244:117|244:117|264:114|264:114|317:120,1,110,0|8,3:0|0:0,0:0:0:0:
355,119,183163,1,2,0:0:0:0:
355,119,183325,2,0,L|333:240,1,110,8|8,0:3|0:0,0:0:0:0:
240,257,183974,2,0,L|262:378,1,110,2|8,1:2|1:0,0:0:0:0:
161,381,184623,6,0,L|138:265,1,110,4|8,1:2|1:2,0:0:0:0:
170,179,185271,2,0,P|214:154|279:162,1,110,0|8,1:0|1:2,0:0:0:0:
353,214,185920,2,0,P|397:239|462:231,1,110,4|8,1:2|1:2,0:0:0:0:
510,152,186569,1,10,1:3:0:0:
497,53,186893,1,8,1:2:0:0:
404,20,187217,6,0,P|360:-5|295:3,1,110,4|8,3:2|0:0,0:0:0:0:
224,60,187866,2,0,P|180:85|115:77,1,110,0|8,3:0|0:0,0:0:0:0:
35,32,188515,1,4,3:2:0:0:
21,130,188839,1,12,0:0:0:0:
11,228,189164,1,8,0:3:0:0:
2,326,189488,2,0,L|66:315,1,55,8|10,3:3|3:3,0:0:0:0:
96,288,189812,6,0,B|147:278|147:278|167:282|167:282|218:271,1,110,4|8,0:1|0:3,0:0:0:0:
301,291,190461,2,0,B|337:283|337:283|357:287|357:287|408:277,1,110,8|4,0:1|0:3,0:0:0:0:
436,237,190947,1,0,3:0:0:0:
436,237,191109,2,0,P|464:190|439:128,1,110,0|4,0:0|3:0,0:0:0:0:
408,49,191758,2,0,L|282:39,1,110,8|4,0:1|3:0,0:0:0:0:
253,53,192244,1,2,0:0:0:0:
253,53,192406,38,0,L|127:43,2,110,4|2|2,0:0|0:0|0:0,0:0:0:0:
324,122,193379,1,2,0:0:0:0:
237,169,193704,2,0,L|248:279,1,110
240,377,194352,2,0,L|145:375,2,82.5,8|8|8,0:1|0:1|0:0,0:0:0:0:
289,374,195001,86,0,P|329:337|344:285,1,110,4|8,1:0|0:0,0:0:0:0:
314,190,195650,2,0,P|362:164|416:169,1,110,0|8,3:0|0:0,0:0:0:0:
491,241,196298,1,8,0:3:0:0:
491,241,196623,1,8,0:0:0:0:
510,147,196947,1,8,1:3:0:0:
510,147,197271,1,8,1:2:0:0:
438,77,197596,22,0,L|312:90,1,110,4|8,0:2|1:2,0:0:0:0:
234,120,198244,2,0,L|124:108,1,110,8|8,1:3|1:2,0:0:0:0:
37,60,198893,2,0,P|61:95|42:163,1,110,8|12,0:3|0:0,0:0:0:0:
11,250,199542,2,0,P|-13:285|6:353,1,110,8|8,1:3|1:2,0:0:0:0:
51,369,200028,1,8,3:0:0:0:
51,369,200190,22,0,L|170:350,1,110,4|12,0:0|0:0,0:0:0:0:
232,286,200839,2,0,L|340:303,1,110,8|8,1:3|0:0,0:0:0:0:
438,341,201488,1,8,0:3:0:0:
438,341,201812,1,8,0:0:0:0:
509,272,202136,1,8,1:3:0:0:
509,272,202461,1,8,1:2:0:0:
427,215,202785,86,0,L|430:92,1,110,4|8,1:2|1:2,0:0:0:0:
384,16,203434,2,0,P|320:1|271:28,1,110,8|8,1:3|1:2,0:0:0:0:
217,93,204082,2,0,P|165:109|114:90,1,110,8|12,0:3|0:0,0:0:0:0:
21,55,204731,2,0,L|41:182,1,110,8|8,1:3|1:2,0:0:0:0:
51,217,205217,1,8,3:0:0:0:
51,217,205379,6,0,B|98:189|98:189|157:211,1,110,4|8,3:1|1:2,0:0:0:0:
224,273,206028,2,0,B|275:292|275:292|322:264,1,110,0|8,3:0|1:3,0:0:0:0:
414,221,206677,1,8,1:3:0:0:
414,221,207001,1,12,0:0:0:0:
360,144,207325,1,2,1:2:0:0:
360,144,207650,1,10,3:1:0:0:
304,62,207974,70,0,P|262:89|191:70,1,110,4|8,1:2|1:2,0:0:0:0:
111,112,208623,2,0,P|69:85|-2:104,1,110,0|8,3:0|1:3,0:0:0:0:
1,191,209271,2,0,L|15:317,1,110,8|12,1:3|0:0,0:0:0:0:
108,271,209920,2,0,L|93:380,1,110,2|10,1:2|3:1,0:0:0:0:
146,377,210406,1,0,3:3:0:0:
146,377,210569,22,0,B|190:370|190:370|213:373|213:373|275:364,1,110,4|8,1:2|1:2,0:0:0:0:
328,301,211217,2,0,P|342:250|316:194,1,110,0|8,3:0|1:3,0:0:0:0:
228,181,211866,1,8,1:3:0:0:
228,181,212190,1,8,0:0:0:0:
250,87,212515,1,14,1:3:0:0:
250,87,212839,1,10,3:1:0:0:
181,15,213163,38,0,L|59:21,1,110,2|8,1:3|1:2,0:0:0:0:
46,116,213812,2,0,L|168:110,1,110,12|8,1:3|1:2,0:0:0:0:
250,87,214461,2,0,P|290:140|282:202,1,110,8|12,1:3|1:2,0:0:0:0:
305,279,215109,2,0,P|252:319|190:311,1,110,8|2,1:0|3:0,0:0:0:0:
169,302,215596,1,10,1:1:0:0:
169,302,215758,69,2,0:0:0:0:
