osu file format v14

[General]
AudioFilename: audio.mp3
AudioLeadIn: 0
PreviewTime: 42406
Countdown: 0
SampleSet: Soft
StackLeniency: 0.5
Mode: 0
LetterboxInBreaks: 0
EpilepsyWarning: 1
WidescreenStoryboard: 1

[Editor]
DistanceSpacing: 1.4
BeatDivisor: 4
GridSize: 32
TimelineZoom: 2.799999

[Metadata]
Title:Tomoshibi
TitleUnicode:灯火
Artist:Mrs. GREEN APPLE
ArtistUnicode:Mrs. GREEN APPLE
Creator:Haruto
Version:Glaceon's Hard
Source:
Tags:僕のこと Boku no Koto EP single japanese jpop jrock rock haruto_aizawa appleeaterx mint glaceon reform kujinn mugiwarasekai irohas theduckmask kyumo d-arktanyan ミセスグリーンアップル motoki omori 大森元貴 hiroto wakai 若井滉斗 ayaka yamanaka 山中綾華 ryoka fujisawa 藤澤涼架 kiyokatsu kiyokazu takano 髙野清宗
BeatmapID:2373444
BeatmapSetID:1130594

[Difficulty]
HPDrainRate:4.5
CircleSize:3.5
OverallDifficulty:6
ApproachRate:8
SliderMultiplier:1.4
SliderTickRate:1

[Events]
//Background and Video events
0,0,"74075845_p0.jpg",0,0
//Break Periods
2,138120,146089
//Storyboard Layer 0 (Background)
//Storyboard Layer 1 (Fail)
//Storyboard Layer 2 (Pass)
//Storyboard Layer 3 (Foreground)
//Storyboard Layer 4 (Overlay)
//Storyboard Sound Samples

[TimingPoints]
407,324.324324324324,4,2,1,40,1,0
407,-200,4,2,1,40,0,0
1055,-100,4,2,1,40,0,0
1704,-111.111111111111,4,2,17,60,0,0
1866,-111.111111111111,4,2,1,60,0,0
22055,-111.111111111111,4,2,1,45,0,0
22136,-111.111111111111,4,2,1,60,0,0
22461,-142.857142857143,4,2,2,50,0,0
22542,-142.857142857143,4,2,2,20,0,0
22947,-142.857142857143,4,2,2,50,0,0
23028,-142.857142857143,4,2,2,20,0,0
23434,-142.857142857143,4,2,2,50,0,0
23596,-142.857142857143,4,2,1,20,0,0
25055,-142.857142857143,4,2,2,50,0,0
25136,-142.857142857143,4,2,2,20,0,0
25542,-142.857142857143,4,2,2,50,0,0
25623,-142.857142857143,4,2,2,20,0,0
26028,-142.857142857143,4,2,2,50,0,0
26190,-142.857142857143,4,2,2,20,0,0
26839,-142.857142857143,4,2,1,30,0,0
27001,-142.857142857143,4,2,2,40,0,0
27650,-142.857142857143,4,2,2,50,0,0
27731,-142.857142857143,4,2,2,20,0,0
28136,-142.857142857143,4,2,2,60,0,0
28217,-142.857142857143,4,2,2,20,0,0
28623,-142.857142857143,4,2,2,60,0,0
28785,-142.857142857143,4,2,1,20,0,0
30244,-142.857142857143,4,2,2,50,0,0
31217,-142.857142857143,4,2,2,20,0,0
31542,-142.857142857143,4,2,1,30,0,0
32352,-142.857142857143,4,2,1,50,0,0
32758,-142.857142857143,4,2,1,20,0,0
32839,-125,4,2,2,60,0,0
33082,-125,4,2,1,20,0,0
33163,-125,4,2,1,55,0,0
35352,-142.857142857143,4,2,1,25,0,0
35433,-125,4,2,1,55,0,0
35434,-125,4,2,2,55,0,0
35758,-125,4,2,1,55,0,0
37947,-142.857142857143,4,2,1,25,0,0
38028,-125,4,2,2,55,0,0
38352,-125,4,2,1,55,0,0
38515,-125,4,2,2,55,0,0
38677,-125,4,2,1,55,0,0
39001,-125,4,2,2,55,0,0
39325,-125,4,2,1,55,0,0
40623,-125,4,2,2,55,0,0
42082,-125,4,2,1,50,0,0
42406,-125,4,2,1,40,0,0
43136,-125,4,2,1,5,0,0
43217,-100,4,2,17,70,0,1
43379,-100,4,2,1,65,0,1
60001,-100,4,2,1,25,0,1
60082,-100,4,2,1,65,0,1
62271,-100,4,2,1,25,0,1
62352,-100,4,2,1,65,0,1
63974,-111.111111111111,4,2,1,55,0,1
67866,-200,4,2,1,40,0,0
69163,-111.111111111111,4,2,17,65,0,0
69325,-111.111111111111,4,2,1,60,0,0
89920,-142.857142857143,4,2,1,60,0,0
90244,-142.857142857143,4,2,1,50,0,0
99650,-142.857142857143,4,2,1,55,0,0
99974,-142.857142857143,4,2,2,60,0,0
100298,-125,4,2,2,60,0,0
100461,-125,4,2,1,55,0,0
102812,-142.857142857143,4,2,1,55,0,0
102893,-125,4,2,1,55,0,0
105406,-142.857142857143,4,2,1,25,0,0
105488,-125,4,2,2,55,0,0
105812,-125,4,2,1,55,0,0
106704,-142.857142857143,4,2,1,25,0,0
106785,-125,4,2,1,55,0,0
108082,-125,4,2,2,55,0,0
111001,-125,4,2,1,35,0,0
111650,-125,4,2,1,55,0,0
111974,-100,4,2,17,70,0,1
112136,-100,4,2,1,65,0,1
115217,-100,4,2,1,65,0,1
131028,-100,4,2,1,25,0,1
131109,-100,4,2,1,65,0,1
133947,-100,4,2,1,25,0,1
134028,-100,4,2,1,65,0,1
135812,-100,4,2,1,60,0,0
137758,-100,4,2,1,40,0,0
146839,-111.111111111111,4,2,1,60,0,0
147650,-142.857142857143,4,2,1,60,0,0
148217,-142.857142857143,4,2,1,20,0,0
148298,-117.647058823529,4,2,1,55,0,0
149677,-117.647058823529,4,2,1,40,0,0
150082,-117.647058823529,4,2,1,55,0,0
150325,-117.647058823529,4,2,1,40,0,0
150569,-117.647058823529,4,2,1,55,0,0
150650,-117.647058823529,4,2,1,40,0,0
150893,-117.647058823529,4,2,1,55,0,0
151785,-117.647058823529,4,2,1,55,0,0
151866,-117.647058823529,4,2,1,55,0,0
154866,-117.647058823529,4,2,1,45,0,0
155109,-117.647058823529,4,2,1,55,0,0
159325,-117.647058823529,4,2,1,50,0,0
161596,-117.647058823529,4,2,1,45,0,0
162569,-117.647058823529,4,2,1,50,0,0
163217,-117.647058823529,4,2,1,60,0,0
163379,-117.647058823529,4,2,1,40,0,0
164515,-117.647058823529,4,2,1,45,0,0
165163,-117.647058823529,4,2,1,50,0,0
165812,-117.647058823529,4,2,1,55,0,0
166461,-142.857142857143,4,2,1,40,0,0
167758,-142.857142857143,4,2,1,50,0,0
167920,-142.857142857143,4,2,1,30,0,0
168082,-142.857142857143,4,2,1,50,0,0
168244,-142.857142857143,4,2,1,30,0,0
168406,-142.857142857143,4,2,1,65,0,0
168569,-142.857142857143,4,2,1,30,0,0
168974,-142.857142857143,4,2,1,5,0,0
169055,-100,4,2,17,70,0,1
169136,-100,4,2,1,60,0,1
169461,-100,4,2,1,40,0,1
169785,-100,4,2,1,60,0,1
170109,-100,4,2,1,40,0,1
170434,-100,4,2,1,60,0,1
171082,-100,4,2,1,40,0,1
171325,-100,4,2,1,60,0,1
171731,-100,4,2,1,40,0,1
171974,-100,4,2,1,60,0,1
172136,-100,4,2,1,40,0,1
172298,-100,4,2,1,60,0,1
172704,-100,4,2,1,40,0,1
172947,-100,4,2,1,60,0,1
173434,-100,4,2,1,40,0,1
173596,-100,4,2,1,60,0,1
178947,-142.857142857143,4,2,1,60,0,0
179352,-142.857142857143,4,2,1,20,0,0
179434,-100,4,2,1,65,0,1
182271,-100,4,2,1,65,0,1
182352,-100,4,2,1,65,0,1
185515,-100,4,2,1,25,0,1
185596,-100,4,2,1,65,0,1
186488,-100,4,2,1,25,0,1
186569,-100,4,2,1,65,0,1
188109,-100,4,2,1,25,0,1
188190,-100,4,2,1,65,0,1
188758,-100,4,2,1,25,0,1
188839,-100,4,2,1,65,0,1
189812,-111.111111111111,4,2,1,60,0,1
190379,-111.111111111111,4,2,1,20,0,1
190461,-111.111111111111,4,2,1,60,0,1
192406,-111.111111111111,4,2,1,50,0,1
194352,-111.111111111111,4,2,1,60,0,1
195001,-111.111111111111,4,2,1,60,0,0
198488,-111.111111111111,4,2,1,20,0,0
198569,-111.111111111111,4,2,1,60,0,0
199461,-111.111111111111,4,2,1,20,0,0
199542,-111.111111111111,4,2,1,60,0,0
199947,-111.111111111111,4,2,1,40,0,0
200190,-111.111111111111,4,2,1,60,0,0
204001,-111.111111111111,4,2,1,20,0,0
204082,-111.111111111111,4,2,1,60,0,0
213812,-111.111111111111,4,2,1,40,0,0
213974,-111.111111111111,4,2,1,60,0,0
214866,-111.111111111111,4,2,1,40,0,0
215111,-111.111111111111,4,2,1,60,0,0
215596,-111.111111111111,4,2,1,50,0,0
215758,-125,4,2,1,40,0,0

[Colours]
Combo1 : 118,191,235
Combo2 : 202,202,202
Combo3 : 169,170,168
Combo4 : 75,158,226
Combo5 : 233,207,105
Combo6 : 201,170,78
Combo7 : 89,249,98
Combo8 : 166,231,143

[HitObjects]
66,312,407,6,0,L|205:318,1,140,2|2,1:2|0:0,0:0:0:0:
205,318,1704,6,0,P|211:280|197:239,1,62.9999980773926,4|2,3:0|0:0,0:0:0:0:
152,186,2028,2,0,P|199:210|270:178,1,125.999996154785,8|0,1:2|3:0,0:0:0:0:
320,117,2515,1,0,3:0:0:0:
405,137,2677,2,0,L|476:132,1,62.9999980773926,8|2,1:2|0:0,0:0:0:0:
506,213,3001,102,0,L|434:217,1,62.9999980773926,8|0,1:3|3:0,0:0:0:0:
380,278,3325,2,0,B|309:277|342:310|229:299,1,125.999996154785,8|2,0:0|1:2,0:0:0:0:
182,253,3812,1,0,3:0:0:0:
102,291,3974,1,8,0:0:0:0:
92,297,4298,6,0,L|87:209,1,62.9999980773926,8|0,1:3|3:0,0:0:0:0:
96,146,4623,2,0,B|135:173|135:173|238:148,1,125.999996154785,8|0,1:2|3:0,0:0:0:0:
284,106,5109,1,0,3:0:0:0:
350,47,5271,2,0,P|380:41|411:47,1,62.9999980773926,8|2,1:2|0:0,0:0:0:0:
490,93,5596,102,0,L|488:179,1,62.9999980773926,8|0,1:3|0:0,0:0:0:0:
438,228,5920,2,0,P|382:252|325:228,1,125.999996154785,8|0,0:0|3:0,0:0:0:0:
264,164,6406,1,2,3:0:0:0:
179,190,6569,2,0,L|122:187,3,31.4999990386963,8|8|8|8,0:0|3:2|0:0|3:2,0:0:0:0:
103,184,6893,6,0,L|107:263,1,62.9999980773926,4|2,3:1|0:0,0:0:0:0:
155,320,7217,2,0,B|239:328|206:295|277:296,1,125.999996154785,8|0,0:0|3:0,0:0:0:0:
352,342,7704,1,0,3:0:0:0:
423,290,7866,2,0,L|419:218,1,62.9999980773926,8|2,1:2|0:0,0:0:0:0:
341,186,8190,102,0,L|344:257,1,62.9999980773926,8|0,0:3|0:0,0:0:0:0:
276,296,8515,2,0,B|243:269|243:269|136:284,1,125.999996154785,8|2,0:0|1:2,0:0:0:0:
92,337,9001,1,0,3:0:0:0:
22,282,9163,1,8,0:0:0:0:
14,274,9488,6,0,L|11:190,1,62.9999980773926,12|0,1:3|0:0,0:0:0:0:
56,132,9812,2,0,P|111:107|168:131,1,125.999996154785,8|4,0:0|3:0,0:0:0:0:
239,182,10298,1,0,3:0:0:0:
320,143,10461,1,8,1:2:0:0:
320,143,10623,1,2,0:3:0:0:
381,205,10785,102,0,L|377:361,2,125.999996154785,12|12|0,1:3|1:3|3:0,0:0:0:0:
459,164,11596,2,0,L|462:79,1,62.9999980773926,14|0,0:0|3:0,0:0:0:0:
412,27,11920,1,14,0:0:0:0:
329,57,12082,6,0,P|298:62|267:56,1,62.9999980773926,4|0,3:1|0:0,0:0:0:0:
187,20,12406,2,0,L|192:162,1,125.999996154785,12|0,1:2|3:0,0:0:0:0:
260,201,12893,1,8,0:3:0:0:
234,285,13055,2,0,P|203:278|172:284,1,62.9999980773926,8|0,1:2|0:0,0:0:0:0:
89,313,13379,102,0,L|86:220,1,62.9999980773926,10|0,0:3|3:0,0:0:0:0:
18,194,13704,2,0,L|12:50,1,125.999996154785,8|2,0:0|1:2,0:0:0:0:
73,4,14190,1,0,3:0:0:0:
151,43,14352,1,8,0:0:0:0:
162,48,14677,6,0,P|192:54|223:48,1,62.9999980773926,4|2,1:2|0:2,0:0:0:0:
305,16,15001,2,0,L|311:160,1,125.999996154785,8|0,1:2|0:0,0:0:0:0:
271,221,15488,1,2,1:2:0:0:
312,298,15650,2,0,P|342:292|373:298,1,62.9999980773926,8|0,0:0|0:0,0:0:0:0:
457,326,15974,102,0,L|453:244,1,62.9999980773926,8|2,1:3|0:3,0:0:0:0:
502,189,16298,2,0,L|498:107,1,62.9999980773926,8|2,0:0|3:0,0:0:0:0:
453,56,16623,1,8,1:2:0:0:
453,56,16785,1,2,3:0:0:0:
368,82,16947,2,0,L|318:85,3,31.4999990386963,12|8|8|8,0:0|0:0|0:0|0:0,0:0:0:0:
305,115,17271,6,0,L|233:117,1,62.9999980773926,8|0,0:3|3:0,0:0:0:0:
168,66,17596,2,0,P|143:122|168:178,1,125.999996154785,4|0,1:1|3:0,0:0:0:0:
232,239,18082,1,0,3:0:0:0:
198,320,18244,2,0,P|167:325|136:319,1,62.9999980773926,8|2,1:2|0:0,0:0:0:0:
61,271,18569,102,0,L|57:185,1,62.9999980773926,8|0,1:3|0:0,0:0:0:0:
103,132,18893,2,0,B|187:140|154:107|225:108,1,125.999996154785,8|2,0:0|1:2,0:0:0:0:
307,137,19379,1,0,3:0:0:0:
380,86,19542,1,8,0:0:0:0:
390,80,19866,6,0,L|392:151,1,62.9999980773926,4|0,1:3|0:0,0:0:0:0:
458,200,20190,2,0,L|460:271,1,62.9999980773926,8|2,0:0|0:0,0:0:0:0:
398,325,20515,2,0,B|369:291|369:291|258:303,1,125.999996154785,4|8,1:3|1:2,0:0:0:0:
213,347,21001,1,2,0:0:0:0:
137,301,21163,102,0,L|134:229,1,62.9999980773926,12|0,0:3|3:0,0:0:0:0:
177,160,21488,2,0,P|207:154|238:160,1,62.9999980773926,12|0,1:3|0:0,0:0:0:0:
309,213,21812,1,8,0:3:0:0:
319,218,22136,2,0,L|353:216,3,31.4999990386963,10|8|2|0,1:2|0:0|1:2|3:0,0:0:0:0:
384,223,22461,6,0,P|409:185|373:86,2,146.999995513916,4|10|10,0:0|0:0|0:0,0:0:0:0:
384,223,25055,102,0,P|359:261|395:360,2,146.999995513916,6|10|10,0:0|0:0|0:0,0:0:0:0:
226,69,26839,2,0,L|223:26,2,24.4999992523194,2|2|2,0:0|0:0|0:0,0:0:0:0:
226,69,27650,6,0,B|129:61|183:100|62:87,2,146.999995513916,6|10|10,0:0|0:0|0:0,0:0:0:0:
226,69,30244,102,0,B|326:80|272:41|369:49,2,146.999995513916,6|8|8,0:0|0:0|0:0,0:0:0:0:
90,42,31542,2,0,L|86:114,1,48.9999985046387,2|2,0:0|0:0,0:0:0:0:
129,156,31866,2,0,L|125:211,1,48.9999985046387,2|2,1:3|0:0,0:0:0:0:
114,341,32352,1,8,1:3:0:0:
192,281,32515,2,0,P|236:273|278:290,1,73.4999977569581,8|0,0:1|0:0,0:0:0:0:
297,298,32839,6,0,P|278:262|301:195,1,112,4|8,0:0|0:1,0:0:0:0:
368,162,33325,2,0,L|256:159,1,112,2|0,3:0|3:0,0:0:0:0:
191,204,33812,1,8,0:1:0:0:
184,211,34136,102,0,L|128:208,1,56,8|0,0:3|3:0,0:0:0:0:
63,163,34461,2,0,P|44:125|72:55,1,112,8|0,0:1|3:0,0:0:0:0:
127,16,34947,1,0,3:0:0:0:
195,54,35109,2,0,L|301:58,1,84,8|0,0:1|0:0,0:0:0:0:
313,37,35434,6,0,B|290:72|290:72|306:154,1,112,4|8,0:0|0:1,0:0:0:0:
355,198,35920,2,0,P|304:176|253:196,1,112,2|0,3:0|3:0,0:0:0:0:
204,257,36406,1,8,0:1:0:0:
197,265,36731,102,0,L|200:333,1,56,8|0,0:3|3:0,0:0:0:0:
121,330,37055,2,0,L|116:194,1,112,8|0,0:1|3:0,0:0:0:0:
68,157,37542,1,2,3:0:0:0:
122,101,37704,2,0,P|164:114|213:94,1,84,8|0,0:1|0:0,0:0:0:0:
233,81,38028,6,0,B|262:48|262:48|353:56,1,112,6|8,0:0|0:1,0:0:0:0:
391,102,38515,2,0,B|362:135|362:135|271:127,1,112,2|0,0:0|1:0,0:0:0:0:
221,156,39001,1,8,0:1:0:0:
212,160,39325,102,0,L|215:238,1,56,8|0,0:3|1:0,0:0:0:0:
271,269,39650,2,0,L|273:324,1,56,8|2,0:1|1:2,0:0:0:0:
202,360,39974,2,0,P|172:365|134:352,2,56,8|2|8,1:3|1:3|1:0,0:0:0:0:
353,317,40623,6,0,L|342:142,1,168,6|10,0:0|0:0,0:0:0:0:
110,92,41596,102,0,L|120:259,1,168,10|8,0:0|0:0,0:0:0:0:
219,381,42406,5,8,0:3:0:0:
264,296,42569,1,8,0:1:0:0:
264,296,42731,1,0,3:0:0:0:
190,52,43217,102,0,L|196:145,1,70,14|0,3:0|0:0,0:0:0:0:
264,191,43542,2,0,B|349:182|310:212|413:206,1,140,8|0,0:0|3:0,0:0:0:0:
483,152,44028,1,0,3:0:0:0:
457,62,44190,1,8,0:0:0:0:
457,62,44352,6,0,P|415:54|372:70,1,70,2|8,0:0|0:3,0:0:0:0:
298,99,44677,2,0,P|263:105|230:97,1,70,0|8,3:0|0:0,0:0:0:0:
159,29,45001,2,0,P|191:87|144:160,1,140,2|0,0:0|3:0,0:0:0:0:
80,202,45488,1,8,0:0:0:0:
80,202,45650,1,2,0:0:0:0:
102,297,45812,102,0,L|261:291,1,140,8|8,0:3|0:0,0:0:0:0:
316,227,46298,1,2,0:0:0:0:
408,260,46461,2,0,L|415:355,2,70,0|0|8,3:0|0:0|0:0,0:0:0:0:
477,191,46947,6,0,L|471:121,1,70,2|8,0:0|0:3,0:0:0:0:
406,47,47271,2,0,P|372:38|338:45,1,70,0|8,3:0|0:0,0:0:0:0:
268,114,47596,1,2,0:0:0:0:
301,205,47758,2,0,L|345:207,2,35,0|0|0,3:0|3:0|3:0,0:0:0:0:
222,261,48082,1,8,1:0:0:0:
222,261,48244,1,2,0:0:0:0:
139,208,48406,102,0,L|133:113,1,70,4|2,1:2|1:2,0:0:0:0:
41,170,48731,2,0,L|45:239,1,70,8|0,1:2|1:3,0:0:0:0:
56,337,49055,2,0,B|93:369|93:369|206:352,1,140,0|8,1:0|1:2,0:0:0:0:
279,335,49542,1,2,3:2:0:0:
279,335,49623,1,0,3:0:0:0:
279,335,49704,6,0,L|361:340,1,70,8|0,1:3|0:0,0:0:0:0:
391,251,50028,2,0,L|321:246,1,70,8|0,1:2|3:0,0:0:0:0:
268,164,50352,2,0,L|185:160,2,70,10|0|8,1:3|3:0|1:0,0:0:0:0:
337,93,50839,1,2,3:2:0:0:
278,14,51001,102,0,P|244:5|210:12,1,70,4|0,3:2|3:0,0:0:0:0:
143,84,51325,1,8,0:0:0:0:
143,84,51488,1,2,0:0:0:0:
47,63,51650,2,0,L|43:217,1,140,0|8,3:0|0:0,0:0:0:0:
95,285,52136,1,2,0:0:0:0:
189,261,52298,6,0,L|192:173,1,70,2|0,1:3|3:0,0:0:0:0:
279,234,52623,2,0,L|276:303,1,70,12|2,0:0|0:0,0:0:0:0:
358,366,52947,1,12,0:3:0:0:
358,366,53109,1,0,3:3:0:0:
447,327,53271,2,0,L|449:262,3,35,8|8|8|8,1:0|0:0|0:0|0:0,0:0:0:0:
478,252,53596,102,0,P|487:218|480:184,1,70,4|0,1:0|3:0,0:0:0:0:
431,105,53920,1,8,0:0:0:0:
431,105,54082,1,2,0:0:0:0:
336,131,54244,2,0,B|244:136|283:106|198:115,1,140,0|8,3:0|0:0,0:0:0:0:
107,151,54731,6,0,P|100:116|109:83,1,70,2|8,0:0|0:3,0:0:0:0:
202,45,55055,2,0,L|197:137,1,70,0|8,3:0|0:0,0:0:0:0:
246,211,55379,1,2,3:2:0:0:
246,211,55461,1,0,3:0:0:0:
246,211,55542,2,0,L|241:303,1,70,0|0,3:0|3:0,0:0:0:0:
170,347,55866,1,8,0:0:0:0:
170,347,56028,1,2,0:0:0:0:
82,302,56190,102,0,L|85:232,1,70,6|0,0:0|3:0,0:0:0:0:
11,167,56515,2,0,P|64:194|136:164,1,140,8|0,0:0|3:0,0:0:0:0:
187,82,57001,1,0,3:0:0:0:
285,110,57163,1,8,0:0:0:0:
285,110,57325,6,0,P|319:103|352:112,1,70,2|8,0:0|0:3,0:0:0:0:
413,189,57650,1,0,3:0:0:0:
364,273,57812,2,0,B|325:303|325:303|215:287,1,140,8|2,0:0|1:2,0:0:0:0:
146,283,58298,1,0,3:0:0:0:
146,283,58379,1,0,3:0:0:0:
146,283,58461,2,0,L|144:232,3,35,8|8|10|0,1:0|0:0|0:0|3:0,0:0:0:0:
115,208,58785,102,0,P|108:173|117:140,1,70,4|2,1:2|1:2,0:0:0:0:
194,80,59109,2,0,L|291:84,1,70,8|0,1:2|0:0,0:0:0:0:
341,143,59434,2,0,L|438:147,1,70,0|0,1:0|3:0,0:0:0:0:
454,58,59758,2,0,L|333:51,1,105,8|0,1:2|0:0,0:0:0:0:
325,9,60082,6,0,L|255:6,1,70,4|0,1:2|0:0,0:0:0:0:
176,62,60406,1,8,1:2:0:0:
176,62,60569,1,2,3:2:0:0:
97,120,60731,2,0,L|27:117,2,70,10|0|8,1:3|3:0|1:0,0:0:0:0:
188,155,61217,1,2,3:2:0:0:
266,96,61379,102,0,L|335:98,1,70,4|0,3:2|3:0,0:0:0:0:
408,165,61704,2,0,P|414:199|405:232,1,70,8|0,0:0|0:0,0:0:0:0:
334,299,62028,2,0,L|214:294,1,105,0|0,3:0|0:0,0:0:0:0:
197,257,62352,2,0,L|127:254,1,70,8|2,0:0|0:0,0:0:0:0:
69,174,62677,6,0,L|127:175,3,35,4|0|0|0,3:2|3:0|3:0|3:0,0:0:0:0:
140,142,63001,2,0,L|198:143,3,35,12|0|2|2,0:0|3:0|1:2|1:2,0:0:0:0:
214,172,63325,2,0,P|247:180|281:174,1,70,8|0,0:3|3:3,0:0:0:0:
371,133,63650,2,0,P|362:166|368:200,1,70,8|2,1:3|3:0,0:0:0:0:
426,266,63974,102,0,L|429:332,2,62.9999980773926,4|0|8,0:1|0:0|0:3,0:0:0:0:
500,105,64623,2,0,L|497:42,1,62.9999980773926,8|0,0:1|0:0,0:0:0:0:
418,1,64947,2,0,L|420:63,1,62.9999980773926,4|0,0:3|3:0,0:0:0:0:
349,114,65271,6,0,B|268:109|309:144|213:132,1,125.999996154785,0|4,0:0|3:0,0:0:0:0:
153,83,65758,1,0,3:0:0:0:
77,128,65920,2,0,L|74:200,1,62.9999980773926,8|0,0:1|3:0,0:0:0:0:
120,265,66244,2,0,P|150:271|181:265,1,62.9999980773926,4|2,3:0|0:0,0:0:0:0:
260,225,66569,101,4,0:0:0:0:
327,281,66731,2,0,B|365:256|365:256|455:274,1,125.999996154785,8|2,0:0|0:0,0:0:0:0:
486,283,67136,1,8,0:0:0:0:
486,283,67217,2,0,L|481:191,1,62.9999980773926,8|0,0:1|3:0,0:0:0:0:
406,174,67542,2,0,L|402:111,1,62.9999980773926,8|8,0:3|0:0,0:0:0:0:
487,71,67866,6,0,L|483:1,2,70,6|0|2,1:3|1:0|1:2,0:0:0:0:
205,66,69163,102,0,L|202:145,1,62.9999980773926,4|2,3:0|0:0,0:0:0:0:
150,199,69487,2,0,P|197:175|268:207,1,125.999996154785,8|0,1:2|3:0,0:0:0:0:
319,266,69974,1,0,3:0:0:0:
405,247,70136,2,0,L|476:252,1,62.9999980773926,8|2,1:2|0:0,0:0:0:0:
506,171,70460,6,0,L|434:167,1,62.9999980773926,8|0,1:3|3:0,0:0:0:0:
380,106,70784,2,0,B|228:97,1,125.999996154785,8|2,0:0|1:2,0:0:0:0:
177,54,71271,1,0,3:0:0:0:
95,86,71433,1,8,0:0:0:0:
84,90,71757,102,0,L|79:178,1,62.9999980773926,8|0,1:3|3:0,0:0:0:0:
96,240,72082,2,0,B|135:213|135:213|238:238,1,125.999996154785,8|0,1:2|3:0,0:0:0:0:
265,301,72568,1,0,3:0:0:0:
333,356,72730,2,0,P|363:362|394:356,1,62.9999980773926,8|2,1:2|0:0,0:0:0:0:
464,304,73055,6,0,L|462:218,1,62.9999980773926,8|0,1:3|3:0,0:0:0:0:
438,156,73379,2,0,P|382:132|325:156,1,125.999996154785,8|0,0:0|3:0,0:0:0:0:
264,220,73865,1,0,3:0:0:0:
179,194,74028,2,0,L|122:197,3,31.4999990386963,8|8|8|8,0:0|3:2|0:0|3:2,0:0:0:0:
103,200,74352,102,0,L|107:121,1,62.9999980773926,4|0,3:1|3:0,0:0:0:0:
155,64,74676,2,0,B|239:56|206:89|277:88,1,125.999996154785,8|0,0:0|3:0,0:0:0:0:
352,42,75163,1,0,3:0:0:0:
423,94,75325,2,0,L|419:166,1,62.9999980773926,8|2,1:2|0:0,0:0:0:0:
341,198,75649,6,0,L|344:127,1,62.9999980773926,8|0,0:3|3:0,0:0:0:0:
276,88,75974,2,0,B|243:115|243:115|136:100,1,125.999996154785,8|2,0:0|1:2,0:0:0:0:
92,47,76460,1,0,3:0:0:0:
22,102,76622,1,8,0:0:0:0:
15,111,76947,102,0,L|12:195,1,62.9999980773926,12|0,1:3|3:0,0:0:0:0:
55,251,77271,2,0,P|110:276|167:252,1,125.999996154785,8|4,0:0|3:0,0:0:0:0:
239,202,77757,1,0,3:0:0:0:
320,241,77920,1,8,1:2:0:0:
320,241,78082,1,2,0:3:0:0:
385,182,78244,6,0,P|410:126|385:69,1,125.999996154785,12|12,1:3|1:3,0:0:0:0:
306,30,78731,2,0,L|304:-19,2,31.4999990386963,0|8|8,0:0|0:0|1:2,0:0:0:0:
235,82,79055,1,14,0:0:0:0:
69,56,79379,1,14,0:0:0:0:
69,56,79461,1,0,0:0:0:0:
69,56,79542,102,0,P|63:86|69:117,1,62.9999980773926,4|0,3:1|0:0,0:0:0:0:
132,178,79866,2,0,L|127:325,1,125.999996154785,12|0,1:2|3:0,0:0:0:0:
195,360,80352,1,8,3:3:0:0:
274,320,80515,2,0,P|304:313|335:319,1,62.9999980773926,8|0,1:2|0:0,0:0:0:0:
416,355,80839,6,0,P|422:324|415:293,1,62.9999980773926,10|0,0:3|3:0,0:0:0:0:
349,235,81163,2,0,B|324:193|324:193|345:100,1,125.999996154785,8|2,0:0|1:2,0:0:0:0:
407,59,81650,1,0,3:0:0:0:
480,108,81812,1,8,0:0:0:0:
489,115,82136,102,0,L|484:189,1,62.9999980773926,4|2,1:2|0:2,0:0:0:0:
436,252,82461,2,0,B|347:248|404:284|297:267,1,125.999996154785,8|0,1:2|3:0,0:0:0:0:
245,214,82947,1,2,1:2:0:0:
162,245,83109,2,0,P|155:214|161:183,1,62.9999980773926,8|0,0:0|0:0,0:0:0:0:
229,125,83434,6,0,L|304:128,1,62.9999980773926,8|2,1:3|0:3,0:0:0:0:
275,41,83758,2,0,L|212:38,1,62.9999980773926,10|2,1:2|3:0,0:0:0:0:
145,95,84082,1,12,1:2:0:0:
145,95,84244,1,2,3:0:0:0:
60,68,84406,2,0,L|56:124,3,31.4999990386963,14|8|8|8,1:2|0:0|0:0|0:0,0:0:0:0:
76,139,84731,102,0,P|82:169|76:200,1,62.9999980773926,4|0,3:0|3:0,0:0:0:0:
18,267,85055,2,0,P|74:242|130:267,1,125.999996154785,4|0,1:1|3:0,0:0:0:0:
191,331,85542,1,0,3:0:0:0:
270,292,85704,2,0,L|267:206,1,62.9999980773926,8|2,1:2|0:0,0:0:0:0:
352,251,86028,6,0,L|354:313,1,62.9999980773926,8|0,1:3|3:0,0:0:0:0:
435,279,86352,2,0,L|429:141,1,125.999996154785,8|2,0:0|1:2,0:0:0:0:
375,83,86839,1,0,3:0:0:0:
292,114,87001,1,8,0:0:0:0:
284,122,87325,102,0,P|253:128|222:122,1,62.9999980773926,4|0,1:3|3:0,0:0:0:0:
138,94,87650,2,0,P|144:124|138:155,1,62.9999980773926,8|0,0:0|0:0,0:0:0:0:
110,240,87974,2,0,P|140:234|171:240,1,62.9999980773926,0|0,3:0|3:0,0:0:0:0:
256,268,88298,2,0,P|250:238|256:207,1,62.9999980773926,8|0,0:0|0:0,0:0:0:0:
343,188,88623,6,0,L|427:191,1,62.9999980773926,12|0,0:3|3:0,0:0:0:0:
469,128,88947,1,4,1:2:0:0:
422,58,89109,1,0,1:0:0:0:
422,58,89190,1,0,1:0:0:0:
422,58,89271,2,0,L|359:55,1,62.9999980773926,8|0,0:3|3:0,0:0:0:0:
287,107,89596,2,0,L|224:104,1,62.9999980773926,0|8,3:0|0:0,0:0:0:0:
108,56,89920,102,0,P|122:111|102:154,1,97.9999970092774,4|2,0:0|0:1,0:0:0:0:
99,228,90406,2,0,P|83:273|98:319,1,97.9999970092774
168,359,90893,1,2,0:1:0:0:
177,366,91217,6,0,L|291:360,1,97.9999970092774,8|2,0:3|0:1,0:0:0:0:
370,237,91866,2,0,L|272:242,1,97.9999970092774,8|2,0:3|0:1,0:0:0:0:
120,201,92515,102,0,P|106:146|126:103,1,97.9999970092774,8|2,0:3|0:1,0:0:0:0:
170,48,93001,2,0,P|215:33|261:48,1,97.9999970092774
315,106,93488,1,2,0:1:0:0:
324,112,93812,6,0,L|328:230,1,97.9999970092774,8|2,1:3|0:1,0:0:0:0:
457,312,94461,2,0,L|453:214,1,97.9999970092774,8|2,1:3|0:1,0:0:0:0:
504,65,95109,102,0,P|458:79|412:64,1,97.9999970092774,4|2,1:2|0:1,0:0:0:0:
345,22,95596,2,0,P|299:6|253:21,1,97.9999970092774
196,74,96082,6,0,B|157:138|208:202|208:202|233:181|225:147,1,195.999994018555,2|2,0:1|0:1,0:0:0:0:
83,82,97055,2,0,P|67:128|82:174,1,97.9999970092774,8|2,0:3|0:1,0:0:0:0:
168,303,97704,102,0,P|214:319|260:304,1,97.9999970092774,8|2,0:3|0:1,0:0:0:0:
312,246,98190,2,0,P|357:231|403:247,1,97.9999970092774
462,299,98677,1,2,0:1:0:0:
470,306,99001,6,0,L|476:188,1,97.9999970092774,8|2,0:3|1:1,0:0:0:0:
421,69,99650,1,8,1:3:0:0:
477,14,99812,2,0,L|510:12,2,24.4999992523194,0|0|2,0:0|0:0|1:2,0:0:0:0:
340,130,100298,102,0,P|288:148|223:122,1,112,4|8,0:0|0:1,0:0:0:0:
189,67,100785,2,0,L|187:195,1,112,0|0,3:0|3:0,0:0:0:0:
227,246,101271,1,8,0:1:0:0:
235,253,101596,6,0,L|232:332,1,56,8|2,0:3|3:2,0:0:0:0:
163,344,101920,2,0,B|95:338|124:366|42:357,1,112,8|8,1:0|0:3,0:0:0:0:
11,292,102406,1,2,3:2:0:0:
51,224,102569,2,0,P|62:180|48:137,1,84,8|0,0:1|0:0,0:0:0:0:
28,112,102893,102,0,L|161:116,1,112,0|10,1:3|0:1,0:0:0:0:
200,66,103379,2,0,L|333:70,1,112,0|0,3:0|3:0,0:0:0:0:
374,117,103866,1,8,0:1:0:0:
383,121,104190,6,0,P|388:160|381:186,1,56,8|0,1:3|3:0,0:0:0:0:
347,245,104515,2,0,P|408:224|459:255,1,112,8|8,0:1|1:3,0:0:0:0:
494,306,105001,1,0,3:0:0:0:
449,370,105163,2,0,L|345:364,1,84,8|0,0:1|0:0,0:0:0:0:
334,337,105488,102,0,L|218:334,1,112,4|8,0:0|0:1,0:0:0:0:
200,258,105974,2,0,L|326:261,1,112,0|0,3:0|3:0,0:0:0:0:
378,217,106461,2,0,P|391:172|372:125,1,84,8|0,0:1|0:0,0:0:0:0:
351,112,106785,6,0,L|273:109,1,56,8|2,0:3|1:2,0:0:0:0:
247,47,107109,2,0,L|191:44,1,56,8|2,1:0|1:3,0:0:0:0:
124,87,107434,2,0,P|119:123|133:159,1,56,0|2,1:2|1:2,0:0:0:0:
169,211,107758,1,8,1:0:0:0:
169,211,107920,1,2,1:3:0:0:
219,271,108082,102,0,P|276:307|366:264,1,168,6|10,0:0|0:0,0:0:0:0:
449,51,109055,6,0,P|392:15|302:58,1,168,10|8,0:0|0:0,0:0:0:0:
276,206,109866,1,0,3:0:0:0:
276,206,109947,1,0,3:0:0:0:
276,206,110028,102,0,L|196:204,3,56,8|0|0|2,0:0|0:0|3:0|0:0,0:0:0:0:
205,127,110677,6,0,L|260:128,3,56,2|0|2|2,0:0|3:0|0:0|0:0,0:0:0:0:
286,54,111325,102,0,L|230:52,2,56,2|2|2,0:0|0:3|0:0,0:0:0:0:
481,32,111974,6,0,P|489:67|480:102,1,70,14|0,3:0|0:0,0:0:0:0:
410,167,112298,2,0,P|402:200|410:234,1,70,8|2,0:0|0:0,0:0:0:0:
441,327,112623,2,0,L|510:326,2,70,0|0|8,3:0|3:0|0:0,0:0:0:0:
347,356,113109,102,0,P|354:322|346:288,1,70,2|8,0:0|0:3,0:0:0:0:
254,253,113434,2,0,L|162:254,1,70,0|8,3:0|0:0,0:0:0:0:
109,317,113758,2,0,B|79:277|79:277|101:166,1,140,2|0,0:0|3:0,0:0:0:0:
123,97,114244,1,8,0:0:0:0:
123,97,114406,1,2,0:0:0:0:
220,111,114569,6,0,L|289:110,1,70,8|0,0:3|3:0,0:0:0:0:
334,197,114893,2,0,L|417:197,1,70,8|0,0:0|0:0,0:0:0:0:
481,257,115217,2,0,B|507:215|507:215|489:118,1,140,0|8,3:0|0:0,0:0:0:0:
438,42,115704,102,0,P|404:34|370:42,1,70,2|8,0:0|0:3,0:0:0:0:
292,101,116028,2,0,P|258:109|224:101,1,70,0|8,3:0|0:0,0:0:0:0:
137,56,116352,1,2,0:0:0:0:
61,119,116515,2,0,L|14:117,2,35,2|0|0,3:0|3:0|3:0,0:0:0:0:
102,213,116839,1,8,1:0:0:0:
102,213,117001,1,2,0:0:0:0:
199,205,117163,6,0,P|232:196|266:204,1,70,4|2,1:2|1:2,0:0:0:0:
306,293,117488,2,0,P|272:301|238:293,1,70,8|0,1:2|1:3,0:0:0:0:
182,212,117812,2,0,L|187:58,1,140,0|8,1:0|1:2,0:0:0:0:
107,33,118298,1,2,3:2:0:0:
107,33,118379,1,0,3:2:0:0:
107,33,118461,102,0,L|103:114,1,70,8|0,1:3|0:0,0:0:0:0:
28,166,118785,2,0,L|24:247,1,70,8|0,1:2|3:0,0:0:0:0:
95,303,119109,2,0,L|91:372,2,70,10|0|8,1:3|3:0|1:0,0:0:0:0:
181,256,119596,1,2,3:2:0:0:
262,309,119758,6,0,P|295:300|329:308,1,70,4|0,3:2|3:0,0:0:0:0:
413,358,120082,2,0,L|416:288,1,70,8|2,0:0|0:0,0:0:0:0:
485,219,120406,2,0,L|488:149,1,70,0|0,3:0|3:0,0:0:0:0:
405,95,120731,2,0,L|408:25,1,70,8|2,0:0|0:0,0:0:0:0:
313,49,121055,102,0,L|311:123,1,70,2|0,1:3|3:0,0:0:0:0:
238,185,121379,2,0,B|197:156|197:156|94:179,1,140,12|12,0:0|0:3,0:0:0:0:
58,259,121866,1,0,3:3:0:0:
113,339,122028,2,0,L|160:337,3,35,8|8|8|8,1:0|0:0|0:0|0:0,0:0:0:0:
190,361,122352,6,0,L|273:360,1,70,4|0,1:0|3:0,0:0:0:0:
344,307,122677,1,8,0:0:0:0:
344,307,122839,1,2,0:0:0:0:
290,224,123001,2,0,L|220:224,2,70,0|0|8,3:0|3:0|0:0,0:0:0:0:
348,144,123488,102,0,P|381:135|415:143,1,70,2|8,0:0|0:3,0:0:0:0:
478,217,123812,2,0,P|487:250|479:284,1,70,0|8,3:0|0:0,0:0:0:0:
406,350,124136,1,2,3:2:0:0:
406,350,124217,1,0,3:2:0:0:
406,350,124298,2,0,L|313:346,1,70,0|0,3:0|3:0,0:0:0:0:
243,371,124623,1,8,0:0:0:0:
243,371,124785,1,2,0:0:0:0:
186,290,124947,6,0,P|177:257|185:223,1,70,6|0,0:0|3:0,0:0:0:0:
272,179,125271,2,0,P|280:145|271:111,1,70,8|2,0:0|0:0,0:0:0:0:
198,45,125596,2,0,L|120:43,2,70,0|0|8,3:0|3:0|0:0,0:0:0:0:
292,19,126082,102,0,L|361:20,1,70,2|8,0:0|0:3,0:0:0:0:
458,3,126406,1,0,3:0:0:0:
505,94,126569,1,8,0:0:0:0:
505,94,126731,2,0,L|501:176,1,70,2|2,0:0|1:2,0:0:0:0:
433,234,127055,1,0,3:0:0:0:
344,191,127217,2,0,L|280:189,3,35,8|8|10|0,1:0|0:0|0:0|3:0,0:0:0:0:
271,157,127542,6,0,L|173:154,1,70,4|2,1:2|1:2,0:0:0:0:
150,238,127866,2,0,L|219:240,1,70,8|0,1:2|3:0,0:0:0:0:
258,335,128190,1,0,1:0:0:0:
258,335,128352,2,0,L|169:331,2,70,0|8|2,3:0|1:2|0:0,0:0:0:0:
356,339,128839,102,0,B|389:297|389:297|377:197,1,140,4|8,1:2|1:2,0:0:0:0:
322,130,129325,1,2,3:2:0:0:
228,161,129488,2,0,P|194:170|160:161,1,70,10|0,1:3|3:0,0:0:0:0:
94,97,129812,1,8,1:0:0:0:
94,97,129974,1,2,3:2:0:0:
137,9,130136,6,0,L|223:7,1,70,4|0,3:2|3:0,0:0:0:0:
300,36,130461,2,0,L|386:34,1,70,8|2,0:0|0:0,0:0:0:0:
460,72,130785,2,0,P|476:124|452:179,1,105,0|0,3:0|0:0,0:0:0:0:
421,201,131109,2,0,P|412:234|421:268,1,70,8|2,0:0|0:0,0:0:0:0:
456,360,131434,102,0,L|403:357,3,35,4|0|0|0,3:2|0:0|3:0|0:0,0:0:0:0:
378,336,131758,2,0,L|324:333,3,35,12|0|2|2,0:0|0:0|1:2|1:2,0:0:0:0:
306,366,132082,2,0,L|226:363,1,70,8|0,0:3|3:3,0:0:0:0:
194,274,132406,2,0,L|263:276,1,70,8|2,1:3|3:0,0:0:0:0:
331,205,132731,6,0,P|339:171|330:137,1,70,4|0,0:1|0:0,0:0:0:0:
268,61,133055,2,0,P|234:52|200:61,1,70,8|0,3:1|0:0,0:0:0:0:
131,130,133379,2,0,L|32:127,1,70,0|0,3:0|0:0,0:0:0:0:
15,215,133704,2,0,L|135:218,1,105,8|0,3:1|0:0,0:0:0:0:
151,254,134028,102,0,B|195:229|195:229|299:256,2,140,8|8|0,3:0|3:1|3:0,0:0:0:0:
73,314,134839,1,0,0:0:0:0:
161,355,135001,1,8,3:1:0:0:
186,369,135325,6,0,L|270:367,1,70,8|0,3:1|3:0,0:0:0:0:
340,316,135650,2,0,L|424:314,1,70,8|8,3:1|0:0,0:0:0:0:
409,314,137758,102,0,L|408:264,2,35,0|0|4,0:0|0:0|0:3,0:0:0:0:
53,63,146839,6,0,L|52:6,2,31.4999990386963,2|8|8,0:0|0:1|0:3,0:0:0:0:
115,124,147163,2,0,L|119:211,1,62.9999980773926,0|0,3:0|3:0,0:0:0:0:
72,263,147488,1,0,3:0:0:0:
127,334,147650,2,0,P|187:363|267:323,1,146.999995513916,8|0,0:1|0:0,0:0:0:0:
308,264,148298,102,0,L|300:59,1,178.500003404617,4|0,3:1|0:0,0:0:0:0:
380,59,148947,2,0,L|386:242,1,178.500003404617,0|0,3:0|0:0,0:0:0:0:
374,320,149596,6,0,B|330:351|330:351|196:324,1,178.500003404617,8|2,3:3|0:0,0:0:0:0:
128,302,150244,2,0,L|125:246,3,29.7500005674362,8|10|10|10,3:3|3:1|3:1|3:1,0:0:0:0:
149,236,150569,2,0,L|146:180,3,29.7500005674362,10|10|10|10,3:1|3:1|3:1|3:1,0:0:0:0:
129,168,150893,102,0,P|171:173|210:157,1,59.5000011348725,4|0,3:1|0:0,0:0:0:0:
257,124,151217,2,0,P|286:119|315:125,1,59.5000011348725,8|0,0:3|0:0,0:0:0:0:
379,178,151542,2,0,L|375:285,1,89.2500017023087,0|0,3:0|0:0,0:0:0:0:
374,308,151866,2,0,P|403:313|432:309,1,59.5000011348725,8|0,0:3|0:0,0:0:0:0:
501,262,152190,6,0,L|499:209,3,29.7500005674362,8|10|10|10,3:3|3:1|3:1|3:1,0:0:0:0:
464,209,152515,2,0,L|462:156,3,29.7500005674362,8|0|2|8,3:3|0:0|0:3|3:2,0:0:0:0:
489,147,152839,2,0,L|487:94,3,29.7500005674362,8|0|10|0,3:3|0:0|3:1|0:0,0:0:0:0:
452,94,153164,2,0,L|450:41,3,29.7500005674362,10|0|10|0,3:1|0:0|3:1|0:0,0:0:0:0:
468,26,153488,102,0,P|438:20|409:24,1,59.5000011348725,4|0,3:1|0:0,0:0:0:0:
346,79,153812,2,0,P|316:83|287:77,1,59.5000011348725,8|0,0:3|0:0,0:0:0:0:
218,31,154136,2,0,L|169:29,3,29.7500005674362,8|10|10|2,3:0|3:1|3:1|3:1,0:0:0:0:
154,55,154461,2,0,L|105:53,3,29.7500005674362,10|0|10|0,0:3|0:0|3:1|0:0,0:0:0:0:
85,38,154785,6,0,P|79:68|83:97,1,59.5000011348725,8|10,3:0|0:1,0:0:0:0:
153,140,155109,2,0,P|156:169|150:198,1,59.5000011348725,8|8,3:3|3:0,0:0:0:0:
125,278,155434,2,0,L|178:281,3,29.7500005674362,10|10|10|10,3:1|3:1|0:1|3:1,0:0:0:0:
183,310,155758,2,0,L|236:313,3,29.7500005674362,10|10|8|10,1:1|3:1|3:0|0:1,0:0:0:0:
247,289,156082,102,0,P|243:259|249:230,1,59.5000011348725,4|2,0:1|3:1,0:0:0:0:
314,179,156406,2,0,L|397:182,1,59.5000011348725,8|8,3:3|3:0,0:0:0:0:
356,99,156731,2,0,L|296:96,1,59.5000011348725,10|2,3:1|0:1,0:0:0:0:
232,149,157055,2,0,P|202:152|173:146,1,59.5000011348725,10|8,3:1|3:0,0:0:0:0:
94,121,157379,6,0,L|89:233,1,89.2500017023087,10|10,0:1|3:1,0:0:0:0:
84,251,157704,2,0,P|113:247|142:253,1,59.5000011348725,10|10,3:1|3:1,0:0:0:0:
184,272,157947,1,10,3:1:0:0:
184,272,158028,2,0,L|181:348,2,59.5000011348725,10|10|10,1:2|3:1|1:2,0:0:0:0:
317,171,158677,101,4,0:1:0:0:
317,171,159974,5,4,0:1:0:0:
338,155,160623,2,0,L|206:150,1,119.000002269745,8|0,0:3|3:0,0:0:0:0:
52,139,161271,101,4,0:1:0:0:
52,139,162569,5,4,0:1:0:0:
107,200,162731,2,0,P|128:260|97:320,2,119.000002269745,0|8|2,0:0|0:3|3:0,0:0:0:0:
52,139,163542,2,0,L|56:61,1,59.5000011348725,2|2,3:0|3:0,0:0:0:0:
136,59,163866,102,0,L|132:118,1,59.5000011348725,4|0,0:1|0:0,0:0:0:0:
188,181,164190,2,0,L|184:240,1,59.5000011348725,0|0,3:0|0:0,0:0:0:0:
129,302,164515,2,0,P|184:325|240:302,1,119.000002269745,0|8,3:0|0:3,0:0:0:0:
297,248,165001,1,0,0:0:0:0:
297,248,165163,6,0,L|300:188,1,59.5000011348725,4|0,3:2|3:0,0:0:0:0:
382,176,165488,2,0,L|378:235,1,59.5000011348725,8|8,0:3|3:1,0:0:0:0:
440,291,165812,1,8,3:1:0:0:
444,295,165974,1,2,3:2:0:0:
413,374,166136,1,8,0:0:0:0:
413,374,166298,1,8,0:0:0:0:
321,364,166461,102,0,L|210:360,1,97.9999970092774,0|2,1:0|1:2,0:0:0:0:
172,232,167109,2,0,L|277:236,1,97.9999970092774,0|2,1:0|1:2,0:0:0:0:
340,200,167596,1,0,0:0:0:0:
340,200,167758,6,0,P|356:151|335:98,1,97.9999970092774,2|2,1:0|1:2,0:0:0:0:
233,25,168406,2,0,B|144:18|199:59|90:46,1,146.999995513916,2|0,1:2|0:0,0:0:0:0:
15,109,169055,22,0,L|17:259,1,140,14|8,3:0|3:1,0:0:0:0:
77,326,169542,2,0,B|114:287|114:287|226:298,1,140,8|8,3:1|3:0,0:0:0:0:
279,352,170028,2,0,L|364:349,1,70,8|8,3:1|3:1,0:0:0:0:
416,279,170352,6,0,P|440:232|399:138,1,140,4|8,0:1|3:1,0:0:0:0:
345,82,170839,2,0,P|298:58|204:99,1,140,8|8,1:3|1:1,0:0:0:0:
173,169,171325,2,0,L|171:266,1,70,8|8,1:1|3:3,0:0:0:0:
78,272,171650,102,0,L|85:105,1,140,4|8,3:2|3:1,0:0:0:0:
120,41,172136,2,0,B|209:34|154:75|263:62,1,140,10|8,3:3|3:0,0:0:0:0:
347,30,172623,2,0,P|354:63|346:97,1,70,8|8,3:1|3:1,0:0:0:0:
272,160,172947,6,0,P|264:193|271:227,1,70,4|8,0:2|3:0,0:0:0:0:
336,301,173271,2,0,L|430:305,1,70,8|8,1:3|3:3,0:0:0:0:
443,217,173596,1,0,3:0:0:0:
443,217,173677,1,0,3:0:0:0:
443,217,173758,2,0,L|388:214,2,35,0|8|10,3:0|3:1|1:1,0:0:0:0:
306,69,174244,38,0,L|223:68,1,70,4|0,0:2|3:0,0:0:0:0:
158,7,174569,1,0,3:0:0:0:
79,63,174731,1,4,0:3:0:0:
79,63,174893,2,0,P|86:96|78:130,1,70,0|0,3:0|0:0,0:0:0:0:
15,204,175217,2,0,L|17:253,3,35,12|8|8|8,0:0|0:3|0:3|0:3,0:0:0:0:
42,281,175542,38,0,B|81:246|81:246|180:262,1,140,12|0,0:3|3:0,0:0:0:0:
238,334,176028,1,8,0:0:0:0:
238,334,176190,2,0,L|296:332,3,35,0|8|8|0,3:0|3:2|3:2|3:0,0:0:0:0:
318,312,176515,2,0,P|360:320|403:301,1,70,8|8,3:2|3:3,0:0:0:0:
438,230,176839,6,0,L|433:79,1,140,12|0,0:3|3:0,0:0:0:0:
367,24,177325,1,12,0:0:0:0:
367,24,177488,2,0,P|334:17|300:24,1,70,0|0,3:0|3:0,0:0:0:0:
234,97,177812,2,0,P|200:104|166:97,1,70,12|0,0:0|3:0,0:0:0:0:
85,41,178136,53,8,0:3:0:0:
15,110,178298,1,12,0:0:0:0:
15,110,178461,2,0,L|18:193,1,70,2|8,0:0|0:3,0:0:0:0:
76,264,178785,1,12,0:0:0:0:
76,264,178947,38,0,B|133:238|133:238|200:269,1,122.499996261597,8|0,0:1|0:0,0:0:0:0:
234,279,179434,38,0,L|231:209,1,70,4|0,1:0|3:0,0:0:0:0:
322,172,179758,2,0,L|324:241,1,70,8|2,0:0|0:0,0:0:0:0:
418,269,180082,2,0,L|420:338,2,70,0|0|8,3:0|3:0|0:0,0:0:0:0:
478,191,180569,102,0,P|486:157|478:123,1,70,2|8,0:0|0:3,0:0:0:0:
417,47,180893,2,0,L|340:48,1,70,0|8,3:0|0:0,0:0:0:0:
263,98,181217,2,0,B|177:96|220:123|126:116,1,140,2|0,0:0|3:0,0:0:0:0:
44,71,181704,1,8,0:0:0:0:
44,71,181866,1,2,0:0:0:0:
31,168,182028,6,0,L|34:292,1,105,6|0,0:0|0:0,0:0:0:0:
57,315,182352,2,0,P|90:323|124:315,1,70,8|2,0:0|3:2,0:0:0:0:
171,294,182596,1,0,3:0:0:0:
171,294,182677,2,0,P|204:286|238:294,1,70,0|0,3:0|3:0,0:0:0:0:
327,346,183001,1,8,0:0:0:0:
327,346,183163,1,2,0:0:0:0:
404,285,183325,102,0,L|402:192,1,70,8|0,0:3|3:0,0:0:0:0:
323,156,183650,2,0,P|392:185|456:148,1,140,8|2,0:0|1:2,0:0:0:0:
512,88,184136,1,0,3:0:0:0:
512,88,184217,1,0,3:0:0:0:
512,88,184298,2,0,L|513:40,3,35,8|8|10|0,1:0|0:0|0:0|3:0,0:0:0:0:
480,15,184623,6,0,P|446:6|412:14,1,70,4|2,1:2|1:2,0:0:0:0:
324,55,184947,2,0,L|234:52,1,70,8|0,1:2|3:0,0:0:0:0:
167,6,185271,2,0,P|151:48|173:110,1,105,0|0,1:0|0:0,0:0:0:0:
202,138,185596,2,0,P|209:171|200:205,1,70,8|2,1:2|0:0,0:0:0:0:
125,268,185920,6,0,L|38:266,1,70,4|0,1:2|0:0,0:0:0:0:
13,355,186244,2,0,L|141:358,1,105,8|0,1:2|0:0,0:0:0:0:
164,340,186569,2,0,L|248:342,1,70,10|0,1:3|3:0,0:0:0:0:
317,290,186893,2,0,L|401:292,1,70,8|2,1:0|3:2,0:0:0:0:
364,196,187217,70,0,L|294:194,1,70,4|0,3:2|3:0,0:0:0:0:
207,148,187542,2,0,P|199:114|208:80,1,70,8|2,0:0|0:0,0:0:0:0:
284,19,187866,2,0,L|411:21,1,105,0|0,3:0|0:0,0:0:0:0:
426,51,188190,2,0,P|433:84|424:118,1,70,8|2,0:0|0:0,0:0:0:0:
364,196,188515,54,0,L|366:332,1,105,4|0,3:2|0:0,0:0:0:0:
366,349,188839,2,0,P|332:356|298:347,1,70,12|2,0:0|1:2,0:0:0:0:
229,277,189163,2,0,P|195:268|161:275,1,70,8|8,0:3|3:3,0:0:0:0:
82,332,189488,1,8,3:3:0:0:
82,332,189650,1,10,3:3:0:0:
16,256,189812,38,0,L|19:174,1,62.9999980773926,4|0,0:1|0:0,0:0:0:0:
73,124,190136,2,0,B|107:148|107:148|183:138,1,94.499997116089,8|0,0:3|0:0,0:0:0:0:
193,112,190461,2,0,P|256:89|318:122,1,125.999996154785,8|4,0:1|0:3,0:0:0:0:
352,186,190947,1,0,3:0:0:0:
352,186,191109,22,0,L|347:260,1,62.9999980773926,0|8,0:0|0:1,0:0:0:0:
430,279,191434,2,0,L|434:216,1,62.9999980773926,4|0,3:0|3:0,0:0:0:0:
470,190,191677,1,0,0:0:0:0:
470,190,191758,2,0,L|474:127,1,62.9999980773926,8|0,0:1|3:0,0:0:0:0:
441,45,192082,2,0,P|407:37|372:46,1,62.9999980773926,4|2,3:0|0:0,0:0:0:0:
302,84,192406,38,0,L|298:159,1,62.9999980773926,4|2,0:0|0:0,0:0:0:0:
374,193,192731,2,0,L|377:130,1,62.9999980773926,2|2,0:0|0:0,0:0:0:0:
379,42,193055,1,0,0:0:0:0:
470,190,193379,2,0,P|492:260|462:318,1,125.999996154785,2|0,0:0|0:0,0:0:0:0:
127,233,194352,38,0,L|11:237,2,94.499997116089,8|8|8,0:1|0:1|0:1,0:0:0:0:
194,175,195001,86,0,L|341:171,1,125.999996154785,4|8,1:0|0:0,0:0:0:0:
407,205,195488,1,0,0:0:0:0:
407,205,195650,2,0,P|415:171|406:136,1,62.9999980773926,8|2,1:3|0:0,0:0:0:0:
343,85,195974,1,8,0:0:0:0:
334,78,196298,22,0,L|262:79,1,62.9999980773926,8|2,0:3|0:0,0:0:0:0:
204,19,196623,2,0,L|132:20,1,62.9999980773926,8|0,0:0|0:0,0:0:0:0:
65,64,196947,2,0,P|57:98|66:133,1,62.9999980773926,8|2,1:3|0:0,0:0:0:0:
119,192,197271,2,0,P|124:222|116:253,1,62.9999980773926,8|2,1:2|0:0,0:0:0:0:
86,336,197596,6,0,L|174:340,1,62.9999980773926,4|2,0:2|0:0,0:0:0:0:
205,271,197920,2,0,L|293:275,1,62.9999980773926,8|2,1:2|0:3,0:0:0:0:
327,338,198244,2,0,P|371:354|424:330,1,94.499997116089,8|0,1:3|0:0,0:0:0:0:
443,305,198569,2,0,L|441:226,1,62.9999980773926,8|2,1:2|0:0,0:0:0:0:
381,177,198893,70,0,L|379:114,1,62.9999980773926,8|0,0:3|0:0,0:0:0:0:
292,130,199217,2,0,L|294:247,1,94.499997116089,12|0,0:0|0:0,0:0:0:0:
273,264,199542,2,0,P|242:256|211:261,1,62.9999980773926,8|2,1:3|3:2,0:0:0:0:
142,315,199866,2,0,L|90:313,3,31.4999990386963,8|10|10|10,1:2|3:1|3:1|3:1,0:0:0:0:
66,311,200190,54,0,B|37:275|37:275|54:180,1,125.999996154785,4|12,0:0|0:0,0:0:0:0:
70,113,200677,1,0,0:0:0:0:
70,113,200839,2,0,P|100:120|131:115,1,62.9999980773926,8|2,1:3|0:0,0:0:0:0:
207,71,201163,1,8,0:0:0:0:
218,67,201488,86,0,L|215:149,1,62.9999980773926,8|2,0:3|0:0,0:0:0:0:
301,150,201812,2,0,L|303:87,1,62.9999980773926,8|0,0:0|0:0,0:0:0:0:
373,34,202136,2,0,P|403:28|434:36,1,62.9999980773926,8|2,1:3|0:0,0:0:0:0:
494,100,202461,2,0,L|491:162,1,62.9999980773926,8|2,1:2|0:0,0:0:0:0:
418,212,202785,54,0,L|415:274,1,62.9999980773926,4|8,1:2|0:3,0:0:0:0:
440,359,203109,2,0,P|409:364|378:356,1,62.9999980773926,8|2,1:2|0:3,0:0:0:0:
331,281,203434,2,0,P|300:273|269:278,1,62.9999980773926,8|2,1:3|0:0,0:0:0:0:
203,337,203758,2,0,P|160:351|101:322,1,94.499997116089,8|0,1:2|0:0,0:0:0:0:
86,302,204082,86,0,L|84:216,1,62.9999980773926,8|8,0:3|0:3,0:0:0:0:
128,162,204406,2,0,B|209:151|163:188|263:179,1,125.999996154785,12|8,0:0|1:3,0:0:0:0:
344,168,204893,1,2,0:0:0:0:
344,168,204974,1,2,0:0:0:0:
344,168,205055,2,0,L|340:117,3,31.4999990386963,8|10|2|10,1:2|3:1|3:0|3:1,0:0:0:0:
335,92,205379,102,0,P|304:84|273:89,1,62.9999980773926,4|2,3:1|0:0,0:0:0:0:
192,128,205704,2,0,P|161:133|130:125,1,62.9999980773926,8|0,1:2|0:0,0:0:0:0:
66,64,206028,2,0,P|90:116|61:184,1,125.999996154785,0|8,3:0|1:3,0:0:0:0:
25,257,206515,1,8,0:0:0:0:
25,257,206677,70,0,L|111:260,1,62.9999980773926,8|0,1:3|0:0,0:0:0:0:
154,317,207001,2,0,B|191:283|191:283|283:296,1,125.999996154785,8|2,0:0|1:2,0:0:0:0:
341,339,207488,1,8,3:3:0:0:
414,290,207650,2,0,L|416:248,3,31.4999990386963,10|10|8|10,3:1|3:1|3:3|3:1,0:0:0:0:
395,219,207974,70,0,L|397:156,1,62.9999980773926,4|2,1:2|0:0,0:0:0:0:
456,90,208298,2,0,P|402:65|330:102,2,125.999996154785,8|0|8,1:2|3:0|1:3,0:0:0:0:
491,176,209109,1,8,0:0:0:0:
491,176,209271,86,0,L|488:238,1,62.9999980773926,8|0,1:3|0:0,0:0:0:0:
436,310,209596,2,0,P|378:331|322:306,1,125.999996154785,8|2,0:0|1:2,0:0:0:0:
275,245,210082,1,8,3:3:0:0:
275,245,210163,1,8,3:0:0:0:
275,245,210244,2,0,L|234:244,3,31.4999990386963,10|8|0|8,3:1|3:1|3:3|3:1,0:0:0:0:
210,274,210569,102,0,L|147:271,1,62.9999980773926,4|2,1:2|0:0,0:0:0:0:
80,213,210893,2,0,P|74:182|82:151,1,62.9999980773926,8|0,1:2|0:0,0:0:0:0:
133,80,211217,1,0,3:0:0:0:
220,89,211379,2,0,L|223:43,2,31.4999990386963,0|0|8,3:2|3:2|3:2,0:0:0:0:
261,173,211704,1,8,0:0:0:0:
261,173,211866,38,0,B|293:202|293:202|385:190,1,125.999996154785,8|8,1:3|0:0,0:0:0:0:
433,125,212352,1,2,0:0:0:0:
391,46,212515,2,0,L|317:44,1,62.9999980773926,14|8,1:3|3:3,0:0:0:0:
251,89,212839,2,0,L|201:88,3,31.4999990386963,10|10|8|10,3:1|3:1|3:3|3:1,0:0:0:0:
190,55,213163,86,0,P|159:47|128:52,1,62.9999980773926,2|2,1:3|1:3,0:0:0:0:
71,119,213488,2,0,P|63:149|68:180,1,62.9999980773926,8|2,1:2|1:2,0:0:0:0:
123,249,213812,1,12,1:3:0:0:
206,219,213974,2,0,L|205:171,2,31.4999990386963,2|8|8,1:2|0:0|1:2,0:0:0:0:
280,275,214298,1,8,1:1:0:0:
280,275,214461,102,0,B|361:270|319:301|414:294,1,125.999996154785,8|12,1:3|1:2,0:0:0:0:
474,243,214947,1,4,3:0:0:0:
474,243,215028,1,4,3:0:0:0:
474,243,215109,2,0,L|471:165,1,62.9999980773926,8|2,1:0|0:0,0:0:0:0:
387,152,215434,2,0,L|389:214,1,62.9999980773926,2|10,3:0|1:1,0:0:0:0:
311,253,215758,70,0,L|307:130,1,112,2|2,0:0|0:0,0:0:0:0:
249,87,216244,1,0,0:0:0:0:
249,87,216406,2,0,L|247:20,3,56,2|0|2|2,0:0|0:0|0:0|0:0,0:0:0:0:
169,17,217055,38,0,L|172:128,1,112,2|2,0:0|0:0,0:0:0:0:
142,207,217542,1,0,0:0:0:0:
142,207,217704,2,0,L|143:262,3,56,2|2|2|2,0:0|0:0|0:0|0:0,0:0:0:0:
68,288,218352,70,0,L|64:176,1,112,2|2,0:0|0:0,0:0:0:0:
23,108,218839,1,2,0:0:0:0:
23,108,219001,2,0,L|21:52,3,56,2|0|2|2,0:0|0:0|0:0|0:0,0:0:0:0:
