osu file format v14

[General]
AudioFilename: audio.mp3
AudioLeadIn: 0
PreviewTime: 84174
Countdown: 0
SampleSet: Soft
StackLeniency: 0.3
Mode: 0
LetterboxInBreaks: 0
WidescreenStoryboard: 1

[Editor]
Bookmarks: 104542,210805
DistanceSpacing: 1.4
BeatDivisor: 4
GridSize: 16
TimelineZoom: 1.8

[Metadata]
Title:StaRt
TitleUnicode:StaRt
Artist:Mrs. GREEN APPLE
ArtistUnicode:Mrs. GREEN APPLE
Creator:dkblaze
Version:Wanpachi & sanairrt's Hard
Source:
Tags:Wanpachi Cycopton sanairrt BaAR_Vendel Reform Kujinn Japanese rock j-rock Variety
BeatmapID:2928844
BeatmapSetID:1039048

[Difficulty]
HPDrainRate:5
CircleSize:3.4
OverallDifficulty:7
ApproachRate:8
SliderMultiplier:1.3
SliderTickRate:1

[Events]
//Background and Video events
0,0,"BG.jpg",0,0
//Break Periods
2,64321,73477
2,145163,154319
//Storyboard Layer 0 (Background)
//Storyboard Layer 1 (Fail)
//Storyboard Layer 2 (Pass)
//Storyboard Layer 3 (Foreground)
//Storyboard Layer 4 (Overlay)
//Storyboard Sound Samples

[TimingPoints]
2227,315.789473684211,4,2,1,75,1,0
3490,-100,4,2,1,75,0,0
13595,-125,4,2,1,65,0,0
23700,-111.111111111111,4,2,1,70,0,0
31279,-100,4,2,1,60,0,0
33174,-100,4,2,1,70,0,0
33410,-100,4,2,1,5,0,0
33490,-100,4,2,1,75,0,0
33726,-100,4,2,1,5,0,0
33805,-90.9090909090909,4,2,1,80,0,1
41305,-90.9090909090909,4,2,1,5,0,1
41384,-90.9090909090909,4,2,1,80,0,1
42016,-90.9090909090909,4,2,1,80,0,1
45410,-90.9090909090909,4,2,1,5,0,1
45490,-90.9090909090909,4,2,1,80,0,1
46041,-90.9090909090909,4,2,1,5,0,1
46121,-90.9090909090909,4,2,1,80,0,1
51726,-90.9090909090909,4,2,1,5,0,1
51805,-90.9090909090909,4,2,1,80,0,1
52357,-90.9090909090909,4,2,1,5,0,1
52437,-90.9090909090909,4,2,1,80,0,1
53936,-90.9090909090909,4,2,1,5,0,1
54016,-100,4,2,1,75,0,0
64121,-100,4,2,1,40,0,0
74227,-100,4,2,1,70,0,0
81805,-142.857142857143,4,2,1,60,0,0
84332,-90.9090909090909,4,2,1,80,0,1
91831,-90.9090909090909,4,2,1,5,0,1
91911,-90.9090909090909,4,2,1,80,0,1
95936,-90.9090909090909,4,2,1,5,0,1
96016,-90.9090909090909,4,2,1,80,0,1
96568,-90.9090909090909,4,2,1,5,0,1
96648,-90.9090909090909,4,2,1,80,0,1
102252,-90.9090909090909,4,2,1,5,0,1
102332,-90.9090909090909,4,2,1,80,0,1
102884,-90.9090909090909,4,2,1,5,0,1
102963,-90.9090909090909,4,2,1,80,0,1
104463,-90.9090909090909,4,2,1,5,0,1
104542,-100,4,2,1,70,0,0
109515,-100,4,2,1,5,0,0
109595,-100,4,2,1,70,0,0
113620,-100,4,2,1,5,0,0
113700,-100,4,2,1,70,0,0
113936,-100,4,2,1,5,0,0
114016,-100,4,2,1,70,0,0
114490,-100,4,2,1,70,0,0
114648,-100,4,2,1,60,0,0
114963,-100,4,2,1,75,0,0
122147,-100,4,2,1,5,0,0
122227,-100,4,2,1,75,0,0
124121,-111.111111111111,4,2,1,75,0,0
124753,-90.9090909090909,4,2,1,80,0,1
131620,-90.9090909090909,4,2,1,5,0,1
131700,-90.9090909090909,4,2,1,80,0,1
144963,-100,4,2,1,70,0,0
145042,-100,4,2,1,30,0,0
150016,-100,4,2,1,35,0,0
155069,-125,4,2,1,40,0,0
160121,-125,4,2,1,60,0,0
162568,-125,4,2,1,5,0,0
162648,-111.111111111111,4,2,1,70,0,0
163279,-111.111111111111,4,2,1,70,0,0
163595,-100,4,2,1,70,0,0
163911,-100,4,2,1,70,0,0
165094,-100,4,2,1,5,0,0
165174,-90.9090909090909,4,2,1,80,0,1
170147,-90.9090909090909,4,2,1,5,0,1
170227,-90.9090909090909,4,2,1,80,0,1
173936,-90.9090909090909,4,2,1,5,0,1
174016,-90.9090909090909,4,2,1,80,0,1
175199,-90.9090909090909,4,2,1,5,0,1
175279,-90.9090909090909,4,2,1,80,0,1
176778,-90.9090909090909,4,2,1,5,0,1
176858,-90.9090909090909,4,2,1,80,0,1
183094,-90.9090909090909,4,2,1,5,0,1
183174,-90.9090909090909,4,2,1,80,0,1
183410,-90.9090909090909,4,2,1,5,0,1
183490,-90.9090909090909,4,2,1,80,0,1
183726,-90.9090909090909,4,2,1,5,0,1
183805,-90.9090909090909,4,2,1,80,0,1
184041,-90.9090909090909,4,2,1,5,0,1
184121,-90.9090909090909,4,2,1,80,0,1
185305,-90.9090909090909,4,2,1,5,0,1
185384,-111.111111111111,4,2,1,70,0,0
186252,-111.111111111111,4,2,1,5,0,0
186332,-111.111111111111,4,2,1,70,0,0
186648,-100,4,2,1,75,0,0
191621,-100,4,2,1,5,0,0
191700,-100,4,2,1,75,0,0
201727,-100,4,2,1,5,0,0
201805,-100,4,2,1,75,0,0
208121,-100,4,2,1,70,0,0
209384,-100,4,2,1,70,0,0
210332,-100,4,2,1,80,0,0

[Colours]
Combo1 : 57,225,255
Combo2 : 13,116,255

[HitObjects]
99,250,3490,5,6,3:2:0:0:
152,176,3648,1,2,0:0:0:0:
152,176,3727,1,2,0:0:0:0:
152,176,3805,2,0,P|191:188|232:198,1,65,10|2,0:0|0:0,0:0:0:0:
268,267,4121,2,0,P|300:223|294:149,1,130,2|10,3:2|0:0,0:0:0:0:
253,68,4595,1,2,0:0:0:0:
165,94,4753,6,0,P|111:94|88:28,2,130,2|10|2,3:2|0:0|3:2,0:0:0:0:
253,68,5542,1,0,3:0:0:0:
317,151,5700,2,0,P|364:136|399:127,1,65,10|0,0:0|0:0,0:0:0:0:
465,102,6016,5,6,3:2:0:0:
490,190,6174,1,2,3:2:0:0:
490,190,6253,1,2,0:0:0:0:
490,190,6332,2,0,P|480:223|470:260,1,65,10|2,0:0|0:0,0:0:0:0:
440,337,6648,2,0,P|410:298|325:312,1,130,2|10,3:2|0:0,0:0:0:0:
264,359,7121,1,2,0:0:0:0:
191,304,7279,1,2,3:2:0:0:
294,150,7595,6,0,B|231:131|239:178|160:154,1,130,10|2,0:0|3:2,0:0:0:0:
85,115,8069,1,0,3:0:0:0:
23,198,8227,2,0,P|37:244|39:277,1,65,8|0,0:0|0:0,0:0:0:0:
105,321,8542,5,6,3:2:0:0:
191,304,8700,1,2,3:2:0:0:
191,304,8779,1,2,0:0:0:0:
191,304,8858,2,0,P|227:319|270:312,1,65,10|2,0:0|0:0,0:0:0:0:
332,273,9174,2,0,P|312:208|284:124,1,130,2|10,3:2|0:0,0:0:0:0:
211,106,9648,1,2,0:0:0:0:
267,35,9805,6,0,P|313:14|370:76,2,130,2|10|2,3:2|0:0|3:2,0:0:0:0:
211,106,10595,1,0,3:0:0:0:
124,49,10753,2,0,P|79:64|39:81,1,65,10|0,0:0|0:0,0:0:0:0:
18,153,11069,5,6,3:2:0:0:
80,218,11227,1,2,0:0:0:0:
80,218,11305,1,2,0:0:0:0:
80,218,11384,2,0,P|97:179|112:140,1,65,10|2,0:0|0:0,0:0:0:0:
180,105,11700,2,0,P|196:162|220:254,1,130,2|10,3:2|0:0,0:0:0:0:
243,317,12174,1,2,0:0:0:0:
307,252,12332,5,2,3:2:0:0:
378,308,12490,1,2,3:2:0:0:
378,308,12569,1,2,0:0:0:0:
378,308,12648,2,0,P|431:294|471:284,1,65,6|2,0:0|0:0,0:0:0:0:
488,214,12963,1,2,3:2:0:0:
488,214,13121,1,2,3:2:0:0:
420,153,13279,1,10,0:0:0:0:
420,153,13437,1,2,0:0:0:0:
348,206,13595,6,0,P|298:196|232:184,1,104,6|8,3:2|0:0,0:0:0:0:
246,186,14227,2,0,P|229:137|255:86,1,104,2|10,3:2|0:0,0:0:0:0:
297,31,14700,1,2,0:0:0:0:
360,75,14858,6,0,P|386:78|433:85,1,52,2|2,3:2|3:0,0:0:0:0:
462,142,15174,1,10,0:0:0:0:
403,193,15332,1,2,0:0:0:0:
403,193,15411,1,0,0:0:0:0:
403,193,15490,2,0,P|393:223|382:258,1,52,2|0,3:2|3:0,0:0:0:0:
320,308,15805,2,0,P|312:282|304:257,1,52,10|0,0:0|0:0,0:0:0:0:
271,186,16121,6,0,P|230:185|205:249,1,104,2|10,3:2|0:0,0:0:0:0:
215,333,16595,1,2,0:0:0:0:
215,333,16674,1,0,0:0:0:0:
215,333,16753,2,0,P|155:338|94:352,1,104,2|10,3:2|0:0,0:0:0:0:
52,287,17227,1,0,0:0:0:0:
96,217,17384,6,0,P|107:179|101:145,1,52,2|2,3:2|3:2,0:0:0:0:
46,115,17700,2,0,P|83:128|127:66,1,104,10|2,0:0|3:2,0:0:0:0:
200,37,18174,1,10,0:0:0:0:
200,37,18332,2,0,P|204:57|215:106,1,52,8|2,0:0|0:0,0:0:0:0:
257,151,18648,6,0,P|304:142|377:132,1,104,6|10,3:2|0:0,0:0:0:0:
436,114,19121,2,0,P|474:161|462:221,2,104,2|2|2,0:0|3:2|0:0,0:0:0:0:
358,69,19911,6,0,B|302:51|310:88|245:71,1,104,2|10,3:2|0:0,0:0:0:0:
196,22,20384,1,2,0:0:0:0:
196,22,20463,1,0,0:0:0:0:
196,22,20542,2,0,P|165:30|134:39,1,52,2|0,3:2|3:0,0:0:0:0:
79,102,20858,6,0,P|109:111|141:120,1,52,10|0,0:0|0:0,0:0:0:0:
204,140,21174,1,2,3:2:0:0:
263,206,21332,2,0,P|223:216|153:234,1,104,2|2,3:2|0:0,0:0:0:0:
124,243,21727,1,0,0:0:0:0:
124,243,21805,2,0,P|102:289|132:349,1,104,2|10,3:2|0:0,0:0:0:0:
208,342,22279,6,0,B|268:322|256:359|332:329,1,104,2|2,0:0|3:2,0:0:0:0:
391,287,22753,2,0,P|379:231|364:164,1,104,10|10,0:0|0:0,0:0:0:0:
369,185,23700,6,0,P|410:177|439:172,2,58.4999982147217,2|2|10,3:2|0:0|0:0,0:0:0:0:
307,128,24174,1,2,0:0:0:0:
249,185,24332,2,0,P|233:144|219:111,1,58.4999982147217,2|2,3:2|3:2,0:0:0:0:
167,74,24648,2,0,P|156:101|146:127,1,58.4999982147217,10|2,0:0|0:0,0:0:0:0:
72,163,24963,5,2,3:2:0:0:
72,163,25121,1,2,3:2:0:0:
127,222,25279,2,0,B|193:201|176:249|258:222,2,116.999996429443,10|2|10,0:0|3:2|0:0,0:0:0:0:
72,163,26069,1,0,0:0:0:0:
111,89,26227,6,0,P|149:78|187:69,1,58.4999982147217,2|0,3:2|3:0,0:0:0:0:
228,130,26542,2,0,P|267:137|357:146,1,116.999996429443,10|2,0:0|3:2,0:0:0:0:
402,88,27016,1,2,3:2:0:0:
455,150,27174,1,10,0:0:0:0:
455,150,27332,1,0,0:0:0:0:
384,220,27490,6,0,P|378:192|369:154,1,58.4999982147217,10|2,3:2|0:0,0:0:0:0:
303,236,27805,2,0,P|309:264|316:293,1,58.4999982147217,10|2,3:2|0:0,0:0:0:0:
239,355,28121,2,0,P|207:364|165:291,1,116.999996429443,2|8,3:2|0:0,0:0:0:0:
214,245,28595,1,0,0:0:0:0:
145,200,28753,6,0,P|94:211|61:215,2,58.4999982147217,2|2|10,3:2|0:0|0:0,0:0:0:0:
189,130,29227,1,2,0:0:0:0:
264,165,29384,2,0,P|326:153|315:92,1,116.999996429443,2|10,3:2|0:0,0:0:0:0:
291,35,29858,1,0,0:0:0:0:
219,75,30016,6,0,P|191:65|154:54,1,58.4999982147217,2|2,3:2|3:2,0:0:0:0:
74,100,30332,2,0,P|61:133|47:173,1,58.4999982147217,10|2,0:0|0:0,0:0:0:0:
97,224,30648,1,2,3:2:0:0:
97,224,30805,1,2,3:2:0:0:
165,178,30963,2,0,P|199:164|235:172,1,58.4999982147217,10|2,0:0|0:0,0:0:0:0:
285,247,31279,5,8,3:2:0:0:
285,247,33174,6,0,P|334:212|384:241,1,97.5,14|0,3:2|0:0,0:0:0:0:
409,238,33490,2,0,P|421:178|432:126,1,97.5,14|0,3:2|0:0,0:0:0:0:
440,93,33805,6,0,P|406:51|320:87,2,143.000004364014,6|10|2,3:2|0:0|3:2,0:0:0:0:
490,179,34595,1,0,3:0:0:0:
409,238,34753,2,0,P|387:192|363:157,1,71.5000021820069,10|0,0:0|0:0,0:0:0:0:
281,142,35069,6,0,P|260:206|236:305,2,143.000004364014,2|10|2,3:2|0:0|3:2,0:0:0:0:
319,50,35858,1,0,0:0:0:0:
219,63,36016,2,0,P|170:50|131:42,1,71.5000021820069,10|0,0:0|0:0,0:0:0:0:
67,102,36332,5,4,3:2:0:0:
67,102,36490,1,0,3:0:0:0:
114,191,36648,2,0,P|152:181|201:173,1,71.5000021820069,10|2,0:0|0:0,0:0:0:0:
253,103,36963,2,0,B|336:86|315:137|404:112,1,143.000004364014,2|10,3:2|0:0,0:0:0:0:
486,78,37437,1,2,0:0:0:0:
475,178,37595,6,0,B|475:230|500:260|500:260|495:292|453:313,1,143.000004364014,2|10,3:2|0:0,0:0:0:0:
387,243,38069,1,2,0:0:0:0:
387,243,38148,1,0,0:0:0:0:
387,243,38227,2,0,P|358:219|306:219,1,71.5000021820069,2|0,3:2|3:0,0:0:0:0:
253,283,38542,2,0,P|217:277|190:255,1,71.5000021820069,10|0,0:0|0:0,0:0:0:0:
126,178,38858,6,0,P|110:215|87:274,2,71.5000021820069,6|2|10,3:2|0:0|0:0,0:0:0:0:
165,85,39332,1,2,0:0:0:0:
242,149,39490,2,0,P|280:137|324:127,1,71.5000021820069,2|2,3:2|3:2,0:0:0:0:
407,104,39805,1,10,0:0:0:0:
407,104,39963,1,2,0:0:0:0:
475,178,40121,6,0,B|462:204|442:217|442:217|457:262|457:262|459:282|443:303,1,143.000004364014,2|10,3:2|0:0,0:0:0:0:
374,370,40595,1,2,0:0:0:0:
322,283,40753,2,0,P|292:277|240:265,1,71.5000021820069,2|0,3:2|3:0,0:0:0:0:
153,286,41069,2,0,P|197:275|207:204,1,107.25000327301,10|0,0:0|0:0,0:0:0:0:
205,170,41384,5,6,3:2:0:0:
113,130,41542,2,0,B|195:103|182:151|262:122,1,143.000004364014,2|0,3:2|0:0,0:0:0:0:
323,52,42016,2,0,P|368:64|463:59,1,143.000004364014,2|10,3:2|0:0,0:0:0:0:
450,153,42490,1,2,0:0:0:0:
390,232,42648,6,0,P|363:194|336:160,1,71.5000021820069,2|0,3:2|3:0,0:0:0:0:
234,166,42963,2,0,P|256:193|276:223,1,71.5000021820069,14|0,0:0|0:0,0:0:0:0:
254,321,43279,1,2,3:2:0:0:
254,321,43437,1,0,3:0:0:0:
170,266,43595,2,0,P|144:248|100:251,1,71.5000021820069,10|0,0:0|0:0,0:0:0:0:
22,161,43911,6,0,P|74:146|114:135,1,71.5000021820069,14|0,0:0|0:0,0:0:0:0:
175,75,44227,2,0,P|190:127|201:167,1,71.5000021820069,10|0,0:0|0:0,0:0:0:0:
261,228,44542,2,0,P|209:243|168:254,1,71.5000021820069,10|0,0:0|0:0,0:0:0:0:
97,280,44858,1,10,0:0:0:0:
97,280,45016,1,2,0:0:0:0:
40,196,45174,6,0,P|61:133|78:81,1,107.25000327301,2|0,3:0|0:0,0:0:0:0:
96,49,45490,2,0,P|138:40|175:62,1,71.5000021820069,10|0,0:0|0:0,0:0:0:0:
227,126,45805,2,0,P|247:189|265:241,1,107.25000327301,2|0,3:2|0:0,0:0:0:0:
282,273,46121,2,0,P|324:282|361:260,1,71.5000021820069,10|0,0:0|0:0,0:0:0:0:
436,185,46437,6,0,P|399:165|355:143,1,71.5000021820069,14|0,0:0|0:0,0:0:0:0:
302,71,46753,2,0,P|285:102|268:134,1,71.5000021820069,10|0,0:0|0:0,0:0:0:0:
188,205,47069,2,0,P|219:221|251:238,1,71.5000021820069,10|0,0:0|0:0,0:0:0:0:
338,286,47384,1,10,0:0:0:0:
338,286,47542,1,2,0:0:0:0:
398,206,47700,6,0,P|385:159|378:125,1,71.5000021820069,2|0,3:2|3:0,0:0:0:0:
302,71,48016,1,14,0:0:0:0:
188,205,48332,5,2,3:2:0:0:
126,127,48490,1,8,0:0:0:0:
126,127,48569,1,8,0:0:0:0:
126,127,48648,2,0,L|186:105,3,35.7500010910034,10|8|10|8,0:0|0:0|0:0|0:0,0:0:0:0:
206,98,48963,6,0,B|230:140|269:143|269:143|276:181|276:181|301:217,1,143.000004364014,6|8,3:2|0:0,0:0:0:0:
338,286,49437,1,2,0:0:0:0:
262,352,49595,2,0,B|242:344|226:316|226:316|196:346|154:339|154:339|138:348|125:350,1,143.000004364014,2|8,3:2|0:0,0:0:0:0:
58,290,50069,1,2,0:0:0:0:
99,198,50227,6,0,B|178:175|165:233|266:194,1,143.000004364014,2|10,3:2|0:0,0:0:0:0:
333,174,50700,1,2,0:0:0:0:
357,76,50858,2,0,P|299:88|271:94,1,71.5000021820069,2|0,3:2|3:0,0:0:0:0:
205,151,51174,1,8,0:0:0:0:
149,73,51332,1,2,0:0:0:0:
81,147,51490,6,0,P|56:192|68:271,1,107.25000327301,6|0,3:2|0:0,0:0:0:0:
79,291,51805,2,0,P|127:273|174:257,1,71.5000021820069,14|0,0:0|0:0,0:0:0:0:
217,194,52121,2,0,B|242:200|266:194|266:194|277:211|294:215|294:215|321:206,1,107.25000327301,6|0,3:2|0:0,0:0:0:0:
362,190,52437,2,0,P|394:209|401:263,1,71.5000021820069,14|0,0:0|0:0,0:0:0:0:
369,333,52753,6,0,B|344:331|320:301|320:301|297:301|282:323|282:323|268:341|235:355,1,143.000004364014,2|10,3:2|0:0,0:0:0:0:
175,282,53227,1,2,0:0:0:0:
90,357,53384,2,0,P|72:306|59:273,1,71.5000021820069,10|0,0:0|3:0,0:0:0:0:
18,198,53700,2,0,P|80:202|104:160,1,107.25000327301,14|0,0:0|0:0,0:0:0:0:
121,127,54016,5,6,3:2:0:0:
204,164,54174,1,2,0:0:0:0:
204,164,54253,1,2,0:0:0:0:
204,164,54332,2,0,P|261:152|295:144,1,65,10|2,0:0|0:0,0:0:0:0:
359,152,54648,2,0,P|312:147|307:72,1,130,2|10,3:2|0:0,0:0:0:0:
364,13,55121,1,2,0:0:0:0:
423,81,55279,6,0,P|438:142|459:233,2,130,2|10|2,3:2|0:0|3:2,0:0:0:0:
364,13,56069,1,0,3:0:0:0:
284,79,56227,2,0,P|237:67|190:63,1,65,10|0,0:0|0:0,0:0:0:0:
165,137,56542,5,6,3:2:0:0:
96,76,56700,1,2,0:0:0:0:
96,76,56779,1,2,0:0:0:0:
96,76,56858,2,0,P|78:123|65:162,1,65,10|2,0:0|0:0,0:0:0:0:
40,223,57174,2,0,B|83:258|120:253|120:253|141:228|181:226,1,130,2|10,3:2|0:0,0:0:0:0:
186,316,57648,1,2,0:0:0:0:
256,257,57805,1,2,3:2:0:0:
401,365,58121,6,0,P|411:293|423:219,1,130,10|2,0:0|3:2,0:0:0:0:
486,173,58595,1,0,3:0:0:0:
397,116,58753,2,0,P|362:126|341:156,1,65,8|0,0:0|0:0,0:0:0:0:
303,228,59069,5,6,3:2:0:0:
237,164,59227,1,2,0:0:0:0:
237,164,59305,1,2,0:0:0:0:
237,164,59384,2,0,P|200:171|145:182,1,65,10|2,0:0|0:0,0:0:0:0:
117,249,59700,2,0,B|88:247|72:223|72:223|73:204|66:187|66:187|87:166|96:137,1,130,2|10,3:2|0:0,0:0:0:0:
38,78,60174,1,2,0:0:0:0:
118,35,60332,6,0,P|176:38|275:47,2,130,2|10|2,3:2|0:0|3:2,0:0:0:0:
38,78,61121,1,0,3:0:0:0:
104,158,61279,2,0,P|116:203|115:243,1,65,10|0,0:0|0:0,0:0:0:0:
54,288,61595,5,6,3:2:0:0:
131,335,61753,1,2,0:0:0:0:
131,335,61832,1,2,0:0:0:0:
130,335,61911,2,0,P|163:326|194:319,1,65,10|2,0:0|0:0,0:0:0:0:
245,243,62227,2,0,B|319:249|392:263,1,130,2|10,3:2|0:0,0:0:0:0:
440,321,62700,1,2,0:0:0:0:
493,248,62858,5,2,3:2:0:0:
436,177,63016,1,2,3:2:0:0:
436,177,63095,1,2,0:0:0:0:
436,177,63174,2,0,P|422:127|422:105,1,65,6|2,0:0|0:0,0:0:0:0:
357,48,63490,1,2,3:2:0:0:
357,48,63648,1,2,3:2:0:0:
283,101,63805,1,10,0:0:0:0:
283,101,63963,1,2,0:0:0:0:
192,92,64121,5,6,3:2:0:0:
192,92,74227,6,0,P|162:85|122:74,2,65,6|2|8,3:2|0:0|0:0,0:0:0:0:
261,33,74700,1,2,0:0:0:0:
321,100,74858,2,0,P|341:145|353:178,1,65,2|2,3:2|3:2,0:0:0:0:
418,216,75174,2,0,P|391:228|355:244,1,65,10|2,0:0|0:0,0:0:0:0:
309,319,75490,5,2,3:2:0:0:
309,319,75648,1,2,3:2:0:0:
238,262,75805,2,0,P|217:250|172:262,1,65,10|2,0:0|0:0,0:0:0:0:
111,325,76121,1,2,3:2:0:0:
8,174,76437,2,0,P|56:164|94:157,1,65,10|0,0:0|0:0,0:0:0:0:
127,88,76753,5,6,3:2:0:0:
127,88,76911,1,0,0:0:0:0:
198,144,77069,2,0,B|266:128|257:174|332:148,1,130,10|2,0:0|3:2,0:0:0:0:
369,71,77542,1,0,3:0:0:0:
428,139,77700,1,10,0:0:0:0:
428,139,77858,1,0,0:0:0:0:
431,229,78016,6,0,P|406:224|367:217,1,65,10|2,3:2|0:0,0:0:0:0:
297,279,78332,2,0,P|324:288|365:302,1,65,10|2,3:2|0:0,0:0:0:0:
269,196,78648,2,0,P|236:217|213:301,1,130,2|12,3:2|0:0,0:0:0:0:
297,279,79121,1,0,0:0:0:0:
370,224,79279,6,0,P|363:188|356:151,2,65,6|2|10,3:2|0:0|0:0,0:0:0:0:
297,279,79753,1,2,0:0:0:0:
233,214,79911,2,0,B|174:195|181:243|102:219,1,130,2|10,3:2|0:0,0:0:0:0:
41,156,80384,1,0,0:0:0:0:
101,87,80542,6,0,P|140:72|179:77,1,65,2|2,3:2|3:2,0:0:0:0:
237,125,80858,2,0,P|266:121|299:103,1,65,14|2,0:0|0:0,0:0:0:0:
360,38,81174,1,2,3:2:0:0:
360,38,81332,1,2,3:2:0:0:
421,104,81490,2,0,P|407:148|399:182,1,65,10|2,0:0|0:0,0:0:0:0:
357,234,81805,6,0,P|388:244|417:255,2,45.4999986114502,10|2|2,3:2|0:0|0:0,0:0:0:0:
290,280,82279,1,2,0:0:0:0:
232,226,82437,2,0,P|243:176|253:133,1,90.9999972229005,2|2,0:0|0:0,0:0:0:0:
316,92,82911,1,2,0:0:0:0:
259,38,83069,2,0,P|225:26|177:59,2,90.9999972229005,2|10|10,0:0|3:2|3:2,0:0:0:0:
352,220,84332,6,0,B|326:215|305:188|305:188|262:187|215:243,2,143.000004364014,6|10|2,3:2|0:0|3:2,0:0:0:0:
434,162,85121,1,0,3:0:0:0:
367,87,85279,2,0,P|314:96|271:104,1,71.5000021820069,10|0,0:0|0:0,0:0:0:0:
230,176,85595,6,0,P|209:145|217:39,2,143.000004364014,2|10|2,3:2|0:0|3:2,0:0:0:0:
295,251,86384,1,0,3:0:0:0:
213,308,86542,2,0,P|159:293|116:282,1,71.5000021820069,10|0,0:0|0:0,0:0:0:0:
81,209,86858,5,4,3:2:0:0:
81,209,87016,1,0,3:0:0:0:
158,145,87174,2,0,P|172:182|187:223,1,71.5000021820069,10|2,0:0|0:0,0:0:0:0:
205,256,87411,1,0,0:0:0:0:
205,256,87490,2,0,B|282:233|273:276|352:252,1,143.000004364014,2|10,3:2|0:0,0:0:0:0:
442,227,87963,1,2,0:0:0:0:
388,141,88121,6,0,P|363:77|398:3,1,143.000004364014,2|10,3:2|0:0,0:0:0:0:
465,77,88595,1,2,0:0:0:0:
493,172,88753,2,0,P|476:214|462:254,1,71.5000021820069,2|0,3:2|3:0,0:0:0:0:
398,312,89069,2,0,P|385:278|372:245,1,71.5000021820069,10|0,0:0|0:0,0:0:0:0:
271,230,89384,6,0,P|239:242|195:260,2,71.5000021820069,6|2|10,3:2|0:0|0:0,0:0:0:0:
326,144,89858,1,2,0:0:0:0:
254,74,90016,2,0,P|217:54|178:64,1,71.5000021820069,2|2,3:2|3:2,0:0:0:0:
141,147,90332,1,10,0:0:0:0:
141,147,90490,1,2,0:0:0:0:
60,88,90648,6,0,B|55:103|38:124|38:124|34:154|49:184|49:184|31:203|23:236,1,143.000004364014,2|10,3:2|0:0,0:0:0:0:
78,303,91121,1,2,0:0:0:0:
154,238,91279,2,0,P|192:222|231:230,1,71.5000021820069,2|0,3:2|3:0,0:0:0:0:
280,308,91595,2,0,P|334:310|355:258,1,107.25000327301,10|0,0:0|0:0,0:0:0:0:
369,219,91911,5,6,3:2:0:0:
294,153,92069,1,2,0:0:0:0:
369,87,92227,2,0,P|413:68|452:84,1,71.5000021820069,8|0,0:0|0:0,0:0:0:0:
492,170,92542,2,0,B|463:179|449:205|449:205|404:185|364:222|364:222,1,143.000004364014,2|10,3:2|0:0,0:0:0:0:
294,153,93016,1,2,0:0:0:0:
220,221,93174,6,0,P|178:238|134:230,1,71.5000021820069,2|0,3:2|3:0,0:0:0:0:
67,181,93490,2,0,P|88:129|100:97,1,71.5000021820069,14|0,0:0|0:0,0:0:0:0:
133,23,93805,1,2,3:2:0:0:
133,23,93963,1,0,3:0:0:0:
213,83,94121,2,0,P|257:73|300:65,1,71.5000021820069,10|0,0:0|0:0,0:0:0:0:
384,13,94437,6,0,P|405:69|413:109,1,71.5000021820069,14|0,0:0|0:0,0:0:0:0:
476,165,94753,2,0,P|421:186|381:194,1,71.5000021820069,10|0,0:0|0:0,0:0:0:0:
325,257,95069,2,0,P|304:202|295:162,1,71.5000021820069,10|0,0:0|0:0,0:0:0:0:
273,93,95384,1,10,0:0:0:0:
273,93,95542,1,2,0:0:0:0:
202,23,95700,6,0,P|184:75|159:154,1,107.25000327301,2|0,3:0|0:0,0:0:0:0:
152,172,96016,2,0,P|159:209|168:251,1,71.5000021820069,10|0,0:0|0:0,0:0:0:0:
237,312,96332,2,0,P|255:259|280:180,1,107.25000327301,2|0,3:2|0:0,0:0:0:0:
287,163,96648,2,0,P|279:125|270:84,1,71.5000021820069,10|0,0:0|0:0,0:0:0:0:
189,15,96963,6,0,P|133:31|89:45,1,71.5000021820069,14|0,0:0|0:0,0:0:0:0:
38,106,97279,2,0,P|94:122|138:136,1,71.5000021820069,10|0,0:0|0:0,0:0:0:0:
188,196,97595,2,0,P|153:205|120:217,1,71.5000021820069,10|0,0:0|0:0,0:0:0:0:
53,292,97911,1,10,0:0:0:0:
53,292,98069,1,2,0:0:0:0:
115,370,98227,6,0,P|129:326|145:292,1,71.5000021820069,2|0,3:2|3:0,0:0:0:0:
186,195,98542,1,14,0:0:0:0:
281,318,98858,5,2,3:2:0:0:
340,237,99016,1,8,0:0:0:0:
340,237,99095,1,8,0:0:0:0:
340,237,99174,2,0,P|331:207|325:186,3,35.7500010910034,10|8|10|8,0:0|0:0|0:0|0:0,0:0:0:0:
316,153,99490,6,0,P|369:127|435:186,1,143.000004364014,6|8,3:2|0:0,0:0:0:0:
472,263,99963,1,2,0:0:0:0:
407,339,100121,2,0,B|382:329|345:333|345:333|329:323|329:323|297:333|257:318,1,143.000004364014,2|8,3:2|0:0,0:0:0:0:
221,231,100595,1,2,0:0:0:0:
156,308,100753,6,0,P|138:243|113:164,1,143.000004364014,2|10,3:2|0:0,0:0:0:0:
37,105,101227,1,2,0:0:0:0:
121,52,101384,2,0,P|180:64|224:76,1,71.5000021820069,2|0,3:2|3:0,0:0:0:0:
256,142,101700,1,8,0:0:0:0:
328,73,101858,1,2,0:0:0:0:
403,138,102016,6,0,P|433:187|428:253,1,107.25000327301,6|0,3:2|0:0,0:0:0:0:
416,282,102332,2,0,P|372:268|330:256,1,71.5000021820069,14|0,0:0|0:0,0:0:0:0:
251,231,102648,2,0,P|187:243|119:256,1,107.25000327301,6|0,3:2|0:0,0:0:0:0:
95,255,102963,2,0,P|73:217|84:171,1,71.5000021820069,14|0,0:0|0:0,0:0:0:0:
95,91,103279,6,0,B|131:86|152:103|152:103|188:78|188:78|207:82|243:78,1,143.000004364014,2|10,3:2|0:0,0:0:0:0:
294,153,103753,1,2,0:0:0:0:
368,86,103911,2,0,P|384:129|397:171,1,71.5000021820069,10|0,0:0|3:0,0:0:0:0:
478,204,104227,2,0,P|464:258|447:332,1,107.25000327301,14|0,0:0|0:0,0:0:0:0:
442,351,104542,5,6,3:2:0:0:
360,309,104700,2,0,P|346:274|370:228,1,65,2|8,0:0|0:0,0:0:0:0:
254,196,105016,1,2,0:0:0:0:
335,154,105174,2,0,P|350:119|326:73,1,65,2|0,3:2|3:0,0:0:0:0:
298,14,105490,1,10,0:0:0:0:
225,71,105648,6,0,P|151:61|89:57,1,130,2|2,0:0|3:2,0:0:0:0:
33,123,106121,2,0,P|49:156|51:204,1,65,10|0,0:0|0:0,0:0:0:0:
23,269,106437,1,2,3:2:0:0:
100,316,106595,2,0,P|131:310|160:295,1,65,2|8,3:2|0:0,0:0:0:0:
203,214,106911,1,2,0:0:0:0:
260,308,107069,6,0,B|341:320|313:282|386:294,1,130,6|10,3:2|0:0,0:0:0:0:
455,233,107542,2,0,P|465:183|475:152,1,65,2|0,0:0|3:0,0:0:0:0:
471,78,107858,1,2,0:0:0:0:
380,90,108016,2,0,P|348:81|316:75,1,65,10|0,0:0|0:0,0:0:0:0:
236,32,108332,5,2,3:2:0:0:
202,116,108490,2,0,P|167:136|120:137,1,65,2|8,3:2|0:0,0:0:0:0:
51,129,108805,1,2,0:0:0:0:
86,214,108963,2,0,P|120:233|167:234,1,65,2|0,3:2|3:0,0:0:0:0:
137,328,109279,2,0,P|184:319|225:293,1,97.5,10|0,0:0|0:0,0:0:0:0:
251,255,109595,5,6,3:2:0:0:
212,172,109753,2,0,P|219:134|225:93,1,65,2|8,3:2|0:0,0:0:0:0:
348,59,110069,1,2,0:0:0:0:
309,141,110227,2,0,P|317:179|322:220,1,65,2|0,3:2|3:0,0:0:0:0:
267,279,110542,1,10,0:0:0:0:
331,343,110700,6,0,P|402:306|450:314,1,130,2|2,0:0|3:2,0:0:0:0:
487,230,111174,2,0,P|488:197|472:170,1,65,10|0,0:0|0:0,0:0:0:0:
390,128,111490,1,2,3:2:0:0:
321,189,111648,2,0,P|289:191|262:174,1,65,2|8,3:2|0:0,0:0:0:0:
230,88,111963,1,2,0:0:0:0:
132,120,112121,6,0,P|127:201|121:269,1,130,6|10,3:2|0:0,0:0:0:0:
66,322,112595,1,2,0:0:0:0:
149,359,112753,2,0,P|188:364|227:353,1,65,0|2,3:0|3:2,0:0:0:0:
284,302,113069,2,0,P|323:297|362:308,1,65,10|0,0:0|0:0,0:0:0:0:
429,342,113384,6,0,P|440:273|451:236,1,97.5,2|0,3:2|0:0,0:0:0:0:
479,213,113700,2,0,P|466:166|460:117,1,97.5,14|0,0:0|0:0,0:0:0:0:
470,72,114016,1,10,3:2:0:0:
470,72,114174,1,10,0:0:0:0:
379,60,114332,1,10,0:0:0:0:
306,115,114490,1,10,0:0:0:0:
100,294,114963,6,0,B|96:261|102:234|102:234|83:223|83:223|73:198|57:183,2,130,14|0|8,0:0|3:0|0:0,0:0:0:0:
175,345,115753,1,0,0:0:0:0:
247,290,115911,6,0,B|256:275|255:249|255:249|230:209|230:209|240:185|231:161,1,130,2|8,3:2|0:0,0:0:0:0:
175,114,116384,1,2,0:0:0:0:
175,114,116463,1,2,0:0:0:0:
175,114,116542,2,0,B|202:85|252:88|252:88|274:106|314:111,1,130,2|10,3:2|0:0,0:0:0:0:
372,62,117016,1,2,0:0:0:0:
440,122,117174,6,0,B|417:156|416:184|416:184|436:208|436:208|439:230|449:247,1,130,6|10,3:2|0:0,0:0:0:0:
396,315,117648,1,0,0:0:0:0:
313,276,117805,2,0,P|270:287|234:293,1,65,2|2,3:2|3:2,0:0:0:0:
173,340,118121,1,10,0:0:0:0:
95,292,118279,6,0,B|90:269|100:244|100:244|91:215|91:215|114:203|127:179,1,130,2|0,0:0|0:0,0:0:0:0:
97,92,118753,2,0,P|127:84|159:75,1,65,10|2,0:0|0:0,0:0:0:0:
228,14,119069,1,2,3:2:0:0:
228,14,119227,1,2,3:2:0:0:
281,87,119384,1,10,0:0:0:0:
362,46,119542,1,0,0:0:0:0:
425,126,119700,6,0,B|443:153|443:180|443:180|434:189|434:189|434:216|416:244,1,130,6|8,3:2|0:0,0:0:0:0:
423,335,120174,2,0,B|389:337|366:323|366:323|362:311|362:311|339:297|324:269,1,130,2|0,0:0|3:0,0:0:0:0:
242,228,120648,2,0,B|256:198|279:184|279:184|292:188|292:188|315:174|347:177,1,130,10|0,0:0|3:0,0:0:0:0:
307,96,121121,6,0,B|292:66|268:52|268:52|256:56|256:56|232:42|200:45,1,130,2|2,0:0|0:0,0:0:0:0:
118,88,121595,2,0,P|130:125|134:161,1,65,2|0,3:2|3:0,0:0:0:0:
199,215,121911,2,0,P|134:249|123:295,1,97.5,8|0,0:0|0:0,0:0:0:0:
147,308,122227,6,0,P|178:310|211:313,1,65,4|0,3:2|3:0,0:0:0:0:
290,359,122542,2,0,P|354:352|419:346,1,130,14|2,0:1|3:2,0:0:0:0:
477,276,123016,1,0,3:0:0:0:
418,206,123174,2,0,P|412:171|423:140,1,65,14|0,0:1|0:0,0:0:0:0:
437,53,123490,6,0,B|368:42|379:88|306:75,1,130,4|14,3:2|0:1,0:0:0:0:
234,28,123963,1,0,0:0:0:0:
168,90,124121,6,0,B|172:96|173:103|173:103|178:109|180:115|180:115|179:123|177:130|177:130|178:137|176:144,3,58.4999982147217,10|10|10|10,0:0|0:0|0:0|0:0,0:0:0:0:
266,206,124753,6,0,P|254:254|251:299,1,71.5000021820069,6|0,3:2|0:0,0:0:0:0:
266,376,125069,2,0,P|217:364|172:361,1,71.5000021820069,10|0,0:0|0:0,0:0:0:0:
96,376,125384,2,0,P|107:327|110:282,1,71.5000021820069,2|0,3:2|0:0,0:0:0:0:
96,206,125700,2,0,P|144:217|189:220,1,71.5000021820069,10|0,0:0|0:0,0:0:0:0:
229,141,126016,6,0,P|218:106|233:69,1,71.5000021820069,2|0,3:2|0:0,0:0:0:0:
311,15,126332,2,0,P|345:25|382:10,1,71.5000021820069,10|0,0:0|0:0,0:0:0:0:
470,53,126648,2,0,P|459:132|455:198,1,143.000004364014,2|8,3:2|0:0,0:0:0:0:
500,284,127121,1,0,0:0:0:0:
405,331,127279,6,0,B|328:340|339:293|248:311,1,143.000004364014,4|10,3:2|0:0,0:0:0:0:
181,253,127753,1,2,0:0:0:0:
94,303,127911,2,0,P|88:336|77:373,2,71.5000021820069,2|2|10,3:2|0:0|0:0,0:0:0:0:
35,221,128384,1,2,0:0:0:0:
105,149,128542,6,0,P|103:76|41:45,1,143.000004364014,2|10,3:2|0:0,0:0:0:0:
142,4,129016,1,2,0:0:0:0:
142,4,129174,2,0,P|195:18|231:26,1,71.5000021820069,2|0,3:2|0:0,0:0:0:0:
310,6,129490,2,0,P|300:40|291:75,1,71.5000021820069,10|0,0:0|0:0,0:0:0:0:
333,174,129805,6,0,P|347:142|381:136,1,71.5000021820069,6|0,3:2|0:0,0:0:0:0:
484,164,130121,2,0,P|509:187|505:221,1,71.5000021820069,10|0,0:0|0:0,0:0:0:0:
454,306,130437,2,0,B|423:297|384:315|384:315|361:279|330:270,1,143.000004364014,2|8,3:2|0:0,0:0:0:0:
244,218,130911,1,2,0:0:0:0:
333,174,131069,6,0,P|318:133|310:79,1,71.5000021820069,2|2,3:2|0:0,0:0:0:0:
333,7,131384,2,0,P|282:26|230:37,1,107.25000327301,10|0,0:0|0:0,0:0:0:0:
192,70,131700,2,0,P|160:54|126:65,1,71.5000021820069,2|0,3:2|0:0,0:0:0:0:
71,149,132016,2,0,P|73:183|99:207,1,71.5000021820069,10|0,0:0|0:0,0:0:0:0:
207,222,132332,6,0,B|285:212|258:271|343:257,1,143.000004364014,6|8,3:2|0:0,0:0:0:0:
426,207,132805,1,2,0:0:0:0:
356,137,132963,2,0,P|373:79|381:60,1,71.5000021820069,2|0,3:2|0:0,0:0:0:0:
302,1,133279,2,0,P|244:18|225:26,1,71.5000021820069,10|0,0:0|0:0,0:0:0:0:
175,104,133595,6,0,P|107:79|38:61,1,143.000004364014,2|14,3:2|0:0,0:0:0:0:
7,159,134069,1,2,0:0:0:0:
7,159,134227,2,0,P|38:187|43:238,1,71.5000021820069,2|8,3:2|0:3,0:0:0:0:
7,309,134542,1,10,0:3:0:0:
7,309,134700,1,4,0:3:0:0:
107,347,134858,6,0,P|140:334|175:325,1,71.5000021820069,4|2,3:2|0:0,0:0:0:0:
248,258,135174,1,10,0:0:0:0:
196,172,135332,1,2,0:0:0:0:
261,95,135490,2,0,P|294:107|329:116,1,71.5000021820069,2|2,3:2|3:2,0:0:0:0:
420,72,135805,1,10,0:0:0:0:
420,72,135963,1,0,0:0:0:0:
479,151,136121,6,0,P|477:199|447:224,1,71.5000021820069,2|2,3:2|3:2,0:0:0:0:
416,304,136437,2,0,P|375:278|368:239,1,71.5000021820069,10|2,0:0|0:0,0:0:0:0:
378,157,136753,2,0,P|309:171|264:225,1,143.000004364014,2|8,3:2|0:0,0:0:0:0:
189,292,137227,1,0,0:0:0:0:
155,191,137384,6,0,P|166:149|174:114,1,71.5000021820069,4|2,3:2|3:2,0:0:0:0:
126,31,137700,1,10,0:0:0:0:
29,59,137858,1,2,0:0:0:0:
26,159,138016,2,0,P|48:243|64:313,1,143.000004364014,2|10,3:2|0:0,0:0:0:0:
142,356,138490,1,0,0:0:0:0:
220,293,138648,6,0,P|264:282|295:290,1,71.5000021820069,2|2,3:2|3:2,0:0:0:0:
376,336,138963,1,8,0:0:0:0:
376,336,139121,1,2,0:0:0:0:
456,276,139279,2,0,B|457:200|419:231|421:132,1,143.000004364014,2|10,3:2|0:0,0:0:0:0:
500,78,139753,1,2,0:0:0:0:
409,19,139911,6,0,B|370:21|339:9|339:9|329:17|319:23|319:23|285:24|261:52,1,143.000004364014,6|8,3:2|0:0,0:0:0:0:
192,95,140384,1,2,0:0:0:0:
253,174,140542,2,0,P|242:224|235:268,1,71.5000021820069,2|0,3:2|3:0,0:0:0:0:
250,344,140858,2,0,P|200:333|156:326,1,71.5000021820069,10|0,0:0|0:0,0:0:0:0:
74,350,141174,6,0,P|30:277|58:200,1,143.000004364014,6|8,3:2|0:0,0:0:0:0:
130,179,141648,1,2,0:0:0:0:
46,125,141805,2,0,P|38:55|79:-1,1,143.000004364014,2|12,3:2|0:0,0:0:0:0:
163,53,142279,1,2,0:0:0:0:
262,6,142437,6,0,B|351:15|299:44|399:59,1,143.000004364014,6|8,3:2|0:0,0:0:0:0:
481,103,142911,1,2,0:0:0:0:
417,180,143069,2,0,P|437:264|447:328,1,143.000004364014,2|8,3:2|0:0,0:0:0:0:
354,359,143542,1,2,0:0:0:0:
354,359,143621,1,0,0:0:0:0:
354,359,143700,6,0,P|297:299|234:300,1,143.000004364014,2|12,3:2|0:0,0:0:0:0:
157,353,144174,1,0,0:0:0:0:
78,279,144332,2,0,P|89:233|95:196,1,71.5000021820069,10|0,0:0|3:0,0:0:0:0:
176,140,144648,1,12,0:0:0:0:
93,73,144805,1,2,0:0:0:0:
162,4,144963,5,6,3:2:0:0:
121,47,155069,5,2,3:2:0:0:
121,47,155384,1,0,3:0:0:0:
121,46,155700,2,0,P|115:72|111:98,1,52,2|0,3:2|0:0,0:0:0:0:
49,142,156016,2,0,P|54:167|58:193,1,52,2|0,3:2|0:0,0:0:0:0:
116,267,156332,6,0,B|61:263|78:290|12:285,2,104,2|0|0,3:2|3:0|3:0,0:0:0:0:
116,267,157279,1,0,3:0:0:0:
243,337,157595,6,0,P|298:327|317:279,1,104,2|0,3:2|3:0,0:0:0:0:
316,287,158227,2,0,P|342:281|372:276,1,52,2|0,3:2|0:0,0:0:0:0:
411,204,158542,2,0,P|385:198|355:193,1,52,2|0,3:2|0:0,0:0:0:0:
317,121,158858,6,0,P|367:109|418:100,2,104,2|2|2,3:2|3:2|3:2,0:0:0:0:
317,121,159805,1,2,3:2:0:0:
182,64,160121,6,0,P|210:108|219:171,1,104,0|6,3:0|3:2,0:0:0:0:
319,243,160753,2,0,B|262:235|278:278|210:265,1,104,0|6,3:0|3:2,0:0:0:0:
135,342,161384,6,0,P|124:272|109:221,1,104,0|6,3:0|3:2,0:0:0:0:
32,158,162016,1,0,3:0:0:0:
32,158,162332,2,0,P|41:120|46:81,1,78,6|0,3:2|0:0,0:0:0:0:
69,59,162648,6,0,P|97:56|121:71,1,58.4999982147217,2|2,3:2|0:0,0:0:0:0:
190,28,162963,2,0,P|206:51|205:79,1,58.4999982147217,6|2,3:2|0:0,0:0:0:0:
277,117,163279,2,0,P|265:143|239:156,1,58.4999982147217,2|2,3:2|0:0,0:0:0:0:
174,220,163595,6,0,P|155:215|135:212,3,32.5,6|0|2|0,3:2|0:0|0:0|0:0,0:0:0:0:
197,242,163911,5,10,3:2:0:0:
197,242,164227,1,10,3:2:0:0:
197,242,164542,2,0,B|325:221|279:297|414:284,1,227.5,2|0,0:0|0:0,0:0:0:0:
451,250,165174,6,0,P|444:203|444:166,1,71.5000021820069,6|0,3:2|0:0,0:0:0:0:
396,89,165490,1,10,0:0:0:0:
303,127,165648,1,0,0:0:0:0:
284,29,165805,2,0,P|202:33|175:104,1,143.000004364014,2|10,3:2|0:0,0:0:0:0:
105,152,166279,1,2,0:0:0:0:
11,115,166437,6,0,P|34:183|51:253,1,143.000004364014,2|10,3:2|0:0,0:0:0:0:
14,346,166911,1,2,0:0:0:0:
107,383,167069,2,0,P|140:371|175:363,1,71.5000021820069,2|0,3:2|3:0,0:0:0:0:
155,265,167384,2,0,P|207:277|258:293,1,107.25000327301,10|0,0:0|0:0,0:0:0:0:
291,332,167700,6,0,P|329:289|411:301,1,143.000004364014,4|10,3:2|0:0,0:0:0:0:
496,250,168174,1,2,0:0:0:0:
435,169,168332,2,0,P|454:85|478:18,1,143.000004364014,2|10,3:2|0:0,0:0:0:0:
376,3,168805,1,2,0:0:0:0:
301,70,168963,6,0,B|225:75|248:37|150:49,1,143.000004364014,2|10,3:2|0:0,0:0:0:0:
85,110,169437,1,2,0:0:0:0:
85,110,169516,1,8,0:0:0:0:
85,110,169595,2,0,P|99:165|104:192,1,71.5000021820069,2|0,3:2|3:0,0:0:0:0:
191,227,169911,2,0,P|176:278|165:331,1,107.25000327301,10|0,0:0|0:0,0:0:0:0:
207,360,170227,6,0,P|266:317|344:349,2,143.000004364014,4|8|0,3:2|0:0|3:0,0:0:0:0:
115,320,171016,2,0,P|107:285|98:250,1,71.5000021820069,2|8,3:2|0:0,0:0:0:0:
17,189,171332,6,0,P|80:126|81:63,1,143.000004364014,2|0,0:0|3:0,0:0:0:0:
169,24,171805,2,0,B|222:-3|258:30|258:30|265:57|303:75,1,143.000004364014,8|0,0:0|3:0,0:0:0:0:
382,33,172279,1,0,3:0:0:0:
461,93,172437,2,0,P|449:151|447:189,1,71.5000021820069,8|0,0:0|0:0,0:0:0:0:
495,265,172753,6,0,B|422:253|439:305|346:292,1,143.000004364014,4|8,3:2|0:0,0:0:0:0:
261,326,173227,1,2,0:0:0:0:
178,270,173384,2,0,P|190:218|196:180,1,71.5000021820069,2|2,3:2|3:2,0:0:0:0:
104,151,173700,2,0,P|94:98|81:46,1,107.25000327301,10|0,0:0|0:0,0:0:0:0:
112,6,174016,6,0,P|147:22|185:14,1,71.5000021820069,2|0,3:2|3:0,0:0:0:0:
251,86,174332,1,14,0:0:0:0:
337,36,174490,1,2,0:0:0:0:
407,108,174648,2,0,P|419:153|436:195,1,71.5000021820069,2|0,3:2|3:0,0:0:0:0:
498,247,174963,2,0,B|436:259|456:282|403:295,1,107.25000327301,10|0,0:0|0:0,0:0:0:0:
365,328,175279,6,0,P|328:291|293:284,1,71.5000021820069,14|0,0:0|0:0,0:0:0:0:
230,224,175595,2,0,P|262:209|284:181,1,71.5000021820069,10|0,0:0|0:0,0:0:0:0:
372,132,175911,2,0,P|335:95|300:88,1,71.5000021820069,10|0,0:0|0:0,0:0:0:0:
264,10,176227,1,10,0:0:0:0:
264,10,176384,1,2,0:0:0:0:
188,76,176542,6,0,P|125:49|69:45,1,107.25000327301,2|0,3:0|0:0,0:0:0:0:
36,39,176858,2,0,P|44:83|47:123,1,71.5000021820069,10|0,0:0|0:0,0:0:0:0:
131,163,177174,2,0,P|117:233|110:304,1,143.000004364014,2|10,3:2|0:0,0:0:0:0:
182,375,177648,1,0,0:0:0:0:
268,306,177805,6,0,P|310:299|345:310,1,71.5000021820069,14|0,0:0|0:0,0:0:0:0:
433,335,178121,2,0,P|440:300|433:265,1,71.5000021820069,10|0,0:0|0:0,0:0:0:0:
468,171,178437,2,0,P|433:178|398:170,1,71.5000021820069,10|0,0:0|0:0,0:0:0:0:
349,89,178753,1,10,0:0:0:0:
349,89,178911,1,2,0:0:0:0:
262,139,179069,6,0,P|227:129|192:123,1,71.5000021820069,2|0,3:2|3:0,0:0:0:0:
144,27,179384,2,0,P|84:77|88:154,1,143.000004364014,14|2,0:0|3:2,0:0:0:0:
31,224,179858,1,8,0:0:0:0:
31,224,179937,1,8,0:0:0:0:
31,224,180016,2,0,L|39:258,3,35.7500010910034,10|8|10|8,0:0|0:0|0:0|0:0,0:0:0:0:
47,308,180332,6,0,B|126:301|106:349|192:337,1,143.000004364014,6|8,3:2|0:0,0:0:0:0:
258,271,180805,1,2,0:0:0:0:
210,182,180963,2,0,P|226:112|236:41,1,143.000004364014,2|8,3:2|0:0,0:0:0:0:
328,2,181437,1,2,0:0:0:0:
415,49,181595,6,0,P|476:88|470:166,1,143.000004364014,2|10,3:2|0:0,0:0:0:0:
407,225,182069,1,2,0:0:0:0:
463,307,182227,2,0,P|423:321|389:334,1,71.5000021820069,2|0,3:2|3:0,0:0:0:0:
302,367,182542,1,8,0:0:0:0:
221,307,182700,1,2,0:0:0:0:
120,353,182858,6,0,B|105:330|105:308|105:308|112:301|112:301|112:278|127:255,1,107.25000327301,6|0,3:2|0:0,0:0:0:0:
163,219,183174,2,0,B|177:196|177:174|177:174|170:167|170:167|170:144|155:121,1,107.25000327301,14|0,0:0|0:0,0:0:0:0:
119,85,183490,2,0,B|141:99|163:99|163:99|170:92|170:92|193:92|216:77,1,107.25000327301,6|0,3:2|0:0,0:0:0:0:
253,42,183805,2,0,B|275:27|297:27|297:27|304:34|304:34|327:34|350:49,1,107.25000327301,14|0,0:0|0:0,0:0:0:0:
386,85,184121,6,0,P|364:165|355:249,1,143.000004364014,2|10,3:2|0:0,0:0:0:0:
411,308,184595,1,2,0:0:0:0:
321,353,184753,2,0,P|281:355|250:334,1,71.5000021820069,10|0,0:0|3:0,0:0:0:0:
145,364,185069,2,0,P|170:317|165:264,1,107.25000327301,14|0,0:0|0:0,0:0:0:0:
194,235,185384,6,0,B|172:257|134:264|134:264|126:255|126:255|95:248|70:217|70:217|74:207|74:207|66:176|79:140|79:140|91:138|91:138|112:114|151:108|151:108|160:119,1,321.74999018097,2|0,0:0|0:0,0:0:0:0:
188,148,186332,1,8,3:2:0:0:
32,29,186648,5,6,3:2:0:0:
10,122,186805,1,2,0:0:0:0:
10,122,186884,1,2,0:0:0:0:
10,122,186963,2,0,P|16:167|23:203,1,65,10|2,0:0|0:0,0:0:0:0:
14,277,187279,2,0,B|88:269|51:306|149:293,1,130,2|10,3:2|0:0,0:0:0:0:
180,211,187753,1,2,0:0:0:0:
266,239,187911,6,0,P|295:301|266:367,2,130,2|10|2,3:2|0:0|3:2,0:0:0:0:
330,174,188700,1,0,3:0:0:0:
409,219,188858,2,0,P|445:214|487:209,1,65,10|0,0:0|0:0,0:0:0:0:
512,116,189174,5,6,3:2:0:0:
451,56,189332,1,2,0:0:0:0:
451,56,189411,1,2,0:0:0:0:
451,56,189490,2,0,P|415:51|373:46,1,65,10|2,0:0|0:0,0:0:0:0:
301,15,189805,2,0,P|248:51|248:115,1,130,2|10,3:2|0:0,0:0:0:0:
176,170,190279,1,2,0:0:0:0:
119,98,190437,5,2,3:2:0:0:
15,247,190753,2,0,P|36:306|52:384,1,130,10|2,0:0|3:2,0:0:0:0:
131,329,191227,1,0,3:0:0:0:
205,380,191384,2,0,P|247:363|254:300,1,97.5,8|0,0:0|0:0,0:0:0:0:
238,275,191700,6,0,P|231:227|221:186,1,65,6|2,3:2|3:2,0:0:0:0:
260,178,191937,1,2,0:0:0:0:
260,178,192016,2,0,P|267:130|277:89,1,65,10|2,0:0|0:0,0:0:0:0:
237,28,192332,2,0,P|295:72|360:54,1,130,2|10,3:2|0:0,0:0:0:0:
426,17,192805,1,2,0:0:0:0:
501,67,192963,6,0,P|486:153|488:204,2,130,2|10|2,3:2|0:0|3:2,0:0:0:0:
426,17,193753,1,0,3:0:0:0:
347,62,193911,2,0,P|311:67|280:56,1,65,10|0,0:0|0:0,0:0:0:0:
188,29,194227,6,0,P|192:73|194:108,1,65,6|2,3:2|3:2,0:0:0:0:
160,124,194463,1,2,0:0:0:0:
160,124,194542,2,0,P|156:168|154:203,1,65,10|2,0:0|0:0,0:0:0:0:
77,238,194858,2,0,P|35:314|45:366,1,130,2|10,3:2|0:0,0:0:0:0:
128,377,195332,1,2,0:0:0:0:
203,325,195490,6,0,P|244:334|288:337,1,65,2|2,3:2|3:2,0:0:0:0:
315,330,195727,1,2,0:0:0:0:
315,330,195805,1,6,0:0:0:0:
390,278,195963,1,2,0:0:0:0:
465,328,196121,2,0,P|473:296|481:265,1,65,2|2,3:2|3:2,0:0:0:0:
422,195,196437,2,0,P|413:163|405:132,1,65,10|2,0:0|0:0,0:0:0:0:
329,65,196753,5,6,3:2:0:0:
277,142,196911,1,2,0:0:0:0:
277,142,196990,1,2,0:0:0:0:
277,142,197069,2,0,P|239:141|205:124,1,65,10|2,0:0|0:0,0:0:0:0:
168,52,197384,2,0,P|163:116|149:180,1,130,2|10,3:2|0:0,0:0:0:0:
87,247,197858,1,2,0:0:0:0:
151,311,198016,6,0,B|228:305|193:340|282:334,2,130,2|10|2,3:2|0:0|3:2,0:0:0:0:
87,247,198805,1,0,3:0:0:0:
149,180,198963,2,0,P|163:116|166:90,1,65,10|0,0:0|0:0,0:0:0:0:
71,72,199279,5,6,3:2:0:0:
136,9,199437,1,2,0:0:0:0:
136,9,199516,1,2,0:0:0:0:
136,9,199595,2,0,P|174:6|215:14,1,65,10|2,0:0|0:0,0:0:0:0:
291,0,199911,2,0,P|339:45|409:44,1,130,2|10,3:2|0:0,0:0:0:0:
487,18,200384,1,2,0:0:0:0:
499,108,200542,5,2,3:2:0:0:
387,251,200858,1,10,0:0:0:0:
266,114,201174,1,2,3:2:0:0:
192,167,201332,1,0,3:0:0:0:
114,119,201490,2,0,P|106:70|92:24,1,97.5,8|0,0:0|0:0,0:0:0:0:
47,19,201805,6,0,P|38:50|33:82,1,65,6|2,3:2|3:2,0:0:0:0:
7,121,202042,1,2,0:0:0:0:
7,121,202121,2,0,P|15:152|20:184,1,65,10|2,0:0|0:0,0:0:0:0:
108,208,202437,2,0,P|156:167|219:172,1,130,2|10,3:2|0:0,0:0:0:0:
295,223,202911,1,2,0:0:0:0:
384,204,203069,6,0,P|366:266|356:330,2,130,2|10|2,3:2|0:0|3:2,0:0:0:0:
474,215,203858,1,0,3:0:0:0:
436,131,204016,2,0,P|427:99|422:67,1,65,10|0,0:0|0:0,0:0:0:0:
342,21,204332,6,0,P|309:21|277:28,1,65,6|2,3:2|0:0,0:0:0:0:
235,10,204569,1,2,0:0:0:0:
235,10,204648,2,0,P|202:9|170:2,1,65,10|2,0:0|0:0,0:0:0:0:
87,39,204963,2,0,P|43:96|67:166,1,130,2|10,3:2|0:0,0:0:0:0:
124,206,205437,1,2,0:0:0:0:
211,180,205595,6,0,P|209:219|209:261,1,65,2|2,3:2|3:2,0:0:0:0:
247,279,205832,1,2,0:0:0:0:
247,279,205911,2,0,P|249:318|249:360,1,65,6|2,0:0|0:0,0:0:0:0:
337,383,206227,1,2,3:2:0:0:
337,383,206384,1,2,3:2:0:0:
410,329,206542,1,10,0:0:0:0:
490,372,206700,1,2,0:0:0:0:
256,48,207805,5,8,0:0:0:0:
96,144,208121,5,2,0:0:0:0:
256,240,208437,1,2,0:0:0:0:
416,144,208753,1,2,0:0:0:0:
256,48,209069,1,2,0:0:0:0:
168,208,209384,5,2,0:0:0:0:
344,208,209700,1,2,0:0:0:0:
256,368,210016,1,2,0:0:0:0:
255,143,210332,6,0,B|246:118|224:102|224:102|266:83|303:79|303:79|269:64|256:29|256:29|266:20|270:12,1,227.5,14|0,0:0|0:0,0:0:0:0:
