osu file format v14

[General]
AudioFilename: audio.mp3
AudioLeadIn: 0
PreviewTime: 84174
Countdown: 0
SampleSet: Soft
StackLeniency: 0.6
Mode: 0
LetterboxInBreaks: 0
WidescreenStoryboard: 1

[Editor]
Bookmarks: 124753,156963,203384
DistanceSpacing: 0.6
BeatDivisor: 4
GridSize: 32
TimelineZoom: 2.099999

[Metadata]
Title:StaRt
TitleUnicode:StaRt
Artist:Mrs. GREEN APPLE
ArtistUnicode:Mrs. GREEN APPLE
Creator:dkblaze
Version:Reform's Extra
Source:
Tags:Wanpachi Cycopton sanairrt BaAR_Vendel Reform Kujinn Japanese rock j-rock Variety
BeatmapID:2201576
BeatmapSetID:1039048

[Difficulty]
HPDrainRate:5.5
CircleSize:4
OverallDifficulty:9
ApproachRate:9.2
SliderMultiplier:1.8
SliderTickRate:1

[Events]
//Background and Video events
0,0,"BG.jpg",0,0
//Break Periods
//Storyboard Layer 0 (Background)
//Storyboard Layer 1 (Fail)
//Storyboard Layer 2 (Pass)
//Storyboard Layer 3 (Foreground)
//Storyboard Layer 4 (Overlay)
//Storyboard Sound Samples

[TimingPoints]
2227,315.789473684211,4,2,1,75,1,0
2327,-100,4,2,1,75,0,0
2858,-100,4,2,1,5,0,0
2937,-100,4,2,1,75,0,0
13595,-142.857142857143,4,2,1,65,0,0
23700,-111.111111111111,4,2,1,70,0,0
31279,-100,4,2,1,60,0,0
33174,-66.6666666666667,4,2,1,70,0,0
33490,-62.5,4,2,1,75,0,0
33805,-83.3333333333333,4,2,1,80,0,1
54016,-90.9090909090909,4,2,1,75,0,0
64121,-200,4,2,1,40,0,0
74227,-111.111111111111,4,2,1,70,0,0
81805,-142.857142857143,4,2,1,60,0,0
84332,-83.3333333333333,4,2,1,80,0,1
104542,-90.9090909090909,4,2,1,70,0,0
114648,-90.9090909090909,4,2,1,60,0,0
114963,-66.6666666666667,4,2,1,75,0,0
115279,-90.9090909090909,4,2,1,75,0,0
124121,-200,4,2,1,75,0,0
124753,-76.9230769230769,4,2,1,80,0,1
133595,-83.3333333333333,4,2,1,80,0,1
139911,-76.9230769230769,4,2,1,80,0,1
141174,-83.3333333333333,4,2,1,80,0,1
142437,-90.9090909090909,4,2,1,80,0,1
144963,-166.666666666667,4,2,1,70,0,0
145042,-166.666666666667,4,2,1,30,0,0
150016,-200,4,2,1,35,0,0
155069,-125,4,2,1,40,0,0
160121,-125,4,2,1,60,0,0
163911,-125,4,2,1,70,0,0
164582,-125,4,2,1,50,0,0
165174,-83.3333333333333,4,2,1,80,0,1
185384,-200,4,2,1,70,0,0
186253,-500,4,2,1,5,0,0
186332,-71.4285714285714,4,2,1,70,0,0
186490,-71.4285714285714,4,2,1,5,0,0
186648,-83.3333333333333,4,2,1,75,0,0
206858,-500,4,2,1,75,0,0
207727,-500,4,2,1,5,0,0
207805,-71.4285714285714,4,2,1,75,0,0
208121,-500,4,2,1,70,0,0
208358,-500,4,2,1,5,0,0
208437,-333.333333333333,4,2,1,70,0,0
208674,-500,4,2,1,5,0,0
208753,-250,4,2,1,70,0,0
208990,-500,4,2,1,5,0,0
209069,-166.666666666667,4,2,1,70,0,0
209305,-500,4,2,1,5,0,0
209384,-125,4,2,1,70,0,0
209621,-500,4,2,1,5,0,0
209700,-100,4,2,1,70,0,0
209937,-250,4,2,1,5,0,0
210016,-83.3333333333334,4,2,1,70,0,0
210253,-166.666666666667,4,2,1,5,0,0
210332,-76.9230769230769,4,2,1,80,0,0
210805,-71.4285714285714,4,2,1,5,0,0

[Colours]
Combo1 : 57,225,255
Combo2 : 13,116,255

[HitObjects]
95,73,3174,5,12,3:2:0:0:
95,73,3490,2,0,P|142:92|188:87,1,90,6|2,3:2|0:0,0:0:0:0:
332,30,3805,1,10,0:0:0:0:
173,184,3963,1,2,0:0:0:0:
401,160,4121,2,0,P|360:141|315:143,1,90,2|0,3:2|3:0,0:0:0:0:
407,329,4437,1,10,0:0:0:0:
503,232,4595,1,2,0:0:0:0:
304,234,4753,6,0,P|296:292|288:349,1,90,2|0,3:2|3:0,0:0:0:0:
137,121,5069,2,0,P|145:179|153:236,1,90,10|0,0:0|0:0,0:0:0:0:
378,71,5384,2,0,P|370:129|362:186,1,90,2|0,3:2|3:0,0:0:0:0:
93,11,5700,2,0,P|101:69|109:126,1,90,10|0,0:0|0:0,0:0:0:0:
278,44,6016,5,6,3:2:0:0:
189,269,6174,1,2,3:2:0:0:
189,269,6253,1,2,0:0:0:0:
189,269,6332,2,0,P|143:293|96:284,1,90,10|2,0:0|0:0,0:0:0:0:
337,166,6648,2,0,P|381:163|419:185,1,90,2|0,3:2|3:0,0:0:0:0:
274,321,6963,1,10,0:0:0:0:
182,170,7121,1,2,0:0:0:0:
407,278,7279,6,0,P|462:277|509:168,2,180,2|10|2,3:2|0:0|3:2,0:0:0:0:
291,166,8069,1,0,3:0:0:0:
158,248,8227,2,0,P|147:301|135:363,1,90,8|0,0:0|0:0,0:0:0:0:
28,168,8542,5,6,3:2:0:0:
180,37,8700,1,2,3:2:0:0:
180,37,8779,1,2,0:0:0:0:
180,37,8858,2,0,P|191:90|203:152,1,90,10|2,0:0|0:0,0:0:0:0:
386,288,9174,2,0,P|394:243|403:199,1,90,2|0,3:2|3:0,0:0:0:0:
293,30,9490,1,10,0:0:0:0:
457,93,9648,1,2,0:0:0:0:
225,237,9805,6,0,P|173:226|127:220,1,90,2|0,3:2|3:0,0:0:0:0:
362,128,10121,2,0,P|406:121|450:111,1,90,10|0,0:0|0:0,0:0:0:0:
244,72,10437,2,0,P|200:62|155:54,1,90,2|0,3:2|3:0,0:0:0:0:
344,235,10753,2,0,P|387:244|432:251,1,90,10|0,0:0|0:0,0:0:0:0:
150,271,11069,5,6,3:2:0:0:
252,70,11227,1,2,0:0:0:0:
252,70,11305,1,2,0:0:0:0:
252,70,11384,2,0,P|261:126|269:173,1,90,10|2,0:0|0:0,0:0:0:0:
30,312,11700,2,0,P|37:267|44:223,1,90,2|0,3:2|3:0,0:0:0:0:
187,43,12016,1,10,0:0:0:0:
8,114,12174,1,2,0:0:0:0:
264,242,12332,5,2,3:2:0:0:
70,177,12490,1,2,3:2:0:0:
70,177,12569,1,2,0:0:0:0:
70,177,12648,1,6,0:0:0:0:
294,130,12805,1,2,0:0:0:0:
165,302,12963,1,2,3:2:0:0:
106,101,13121,1,2,3:2:0:0:
271,217,13279,1,10,0:0:0:0:
88,266,13437,1,2,0:0:0:0:
241,133,13595,6,0,P|298:130|356:181,1,125.999996154785,6|8,3:2|0:0,0:0:0:0:
405,252,14069,1,0,0:0:0:0:
405,252,14227,2,0,L|472:242,1,62.9999980773926,2|0,3:2|3:0,0:0:0:0:
340,326,14542,2,0,L|273:316,1,62.9999980773926,10|2,0:0|0:0,0:0:0:0:
126,190,14858,5,2,3:2:0:0:
210,225,15016,1,2,3:0:0:0:
112,268,15174,1,10,0:0:0:0:
200,303,15332,1,2,0:0:0:0:
200,303,15411,1,0,0:0:0:0:
200,303,15490,2,0,P|250:302|282:285,1,62.9999980773926,2|0,3:2|3:0,0:0:0:0:
339,185,15805,2,0,P|289:186|257:203,1,62.9999980773926,10|0,0:0|0:0,0:0:0:0:
422,343,16121,6,0,P|429:297|436:264,1,62.9999980773926,2|0,3:2|3:0,0:0:0:0:
349,112,16437,1,10,0:0:0:0:
479,180,16595,1,2,0:0:0:0:
313,267,16753,2,0,P|307:236|302:204,1,62.9999980773926,2|0,3:2|3:0,0:0:0:0:
448,95,17069,2,0,P|443:126|437:157,1,62.9999980773926,10|0,0:0|0:0,0:0:0:0:
295,29,17384,5,2,3:2:0:0:
295,29,17542,1,2,3:2:0:0:
222,104,17700,2,0,P|190:117|157:118,1,62.9999980773926,10|0,0:0|0:0,0:0:0:0:
326,183,18016,1,2,3:2:0:0:
196,253,18174,1,10,0:0:0:0:
339,314,18332,1,8,0:0:0:0:
339,314,18648,6,0,P|289:297|201:293,1,125.999996154785,6|10,3:2|0:0,0:0:0:0:
120,342,19121,2,0,P|85:351|51:352,1,62.9999980773926,2|0,0:0|3:0,0:0:0:0:
152,164,19437,1,2,3:2:0:0:
208,271,19595,1,8,0:0:0:0:
94,243,19753,1,2,0:0:0:0:
261,141,19911,6,0,P|283:189|298:280,1,125.999996154785,2|10,3:2|0:0,0:0:0:0:
404,105,20384,1,2,0:0:0:0:
404,105,20542,2,0,P|390:146|386:187,1,62.9999980773926,2|0,3:2|3:0,0:0:0:0:
284,45,20858,6,0,P|246:29|212:32,1,62.9999980773926,10|0,0:0|0:0,0:0:0:0:
122,81,21174,1,2,3:2:0:0:
299,72,21332,2,0,P|261:56|227:59,1,62.9999980773926,2|8,3:2|0:0,0:0:0:0:
137,108,21648,1,2,0:0:0:0:
266,183,21805,6,0,P|304:167|338:170,1,62.9999980773926,2|0,3:2|3:0,0:0:0:0:
428,219,22121,1,10,0:0:0:0:
251,210,22279,2,0,P|289:194|323:197,1,62.9999980773926,2|0,0:0|3:0,0:0:0:0:
413,246,22595,1,2,3:2:0:0:
214,320,22753,6,0,L|147:304,1,62.9999980773926,10|0,0:0|0:0,0:0:0:0:
413,246,23069,2,0,L|480:230,1,62.9999980773926,10|0,0:0|0:0,0:0:0:0:
474,231,23700,5,2,3:2:0:0:
377,42,23858,1,2,0:0:0:0:
335,261,24016,1,10,0:0:0:0:
436,105,24174,1,2,0:0:0:0:
414,314,24332,1,2,3:2:0:0:
306,112,24490,1,2,3:2:0:0:
258,303,24648,1,10,0:0:0:0:
321,152,24805,1,2,0:0:0:0:
314,366,24963,5,2,3:2:0:0:
212,152,25121,1,2,3:2:0:0:
336,296,25279,2,0,P|375:312|425:311,1,80.9999975280763,10|0,0:0|0:0,0:0:0:0:
171,226,25595,2,0,P|130:227|93:243,1,80.9999975280763,2|0,3:2|3:0,0:0:0:0:
388,214,25911,2,0,P|407:171|406:118,1,80.9999975280763,10|0,0:0|0:0,0:0:0:0:
238,22,26227,6,0,P|219:65|220:118,1,80.9999975280763,2|0,3:2|3:0,0:0:0:0:
230,264,26542,1,10,0:0:0:0:
136,138,26700,1,0,0:0:0:0:
136,138,26779,1,2,0:0:0:0:
136,138,26858,1,2,3:2:0:0:
310,192,27016,1,2,3:2:0:0:
145,339,27174,2,0,P|122:297|124:244,1,80.9999975280763,10|0,0:0|0:0,0:0:0:0:
265,126,27490,5,10,3:2:0:0:
217,284,27648,1,2,0:0:0:0:
191,75,27805,1,10,3:2:0:0:
285,237,27963,1,2,0:0:0:0:
318,48,28121,2,0,P|359:28|411:30,1,80.9999975280763,2|0,3:2|3:0,0:0:0:0:
165,194,28437,2,0,P|124:190|89:172,1,80.9999975280763,8|0,0:0|0:0,0:0:0:0:
410,139,28753,6,0,P|400:196|391:253,1,80.9999975280763,2|2,3:2|0:0,0:0:0:0:
226,134,29069,1,10,0:0:0:0:
292,308,29227,1,2,0:0:0:0:
304,77,29384,2,0,P|263:39|154:52,1,161.999995056153,2|10,3:2|0:0,0:0:0:0:
213,240,29858,1,0,0:0:0:0:
75,138,30016,5,2,3:2:0:0:
138,324,30174,1,2,3:2:0:0:
190,83,30332,1,10,0:0:0:0:
105,256,30490,1,2,0:0:0:0:
62,35,30648,1,2,3:2:0:0:
277,145,30805,1,2,3:2:0:0:
36,211,30963,1,10,0:0:0:0:
146,14,31121,1,2,0:0:0:0:
248,240,31279,5,8,3:2:0:0:
248,240,33174,6,0,B|368:238|313:306|446:311,1,202.500007724762,14|0,3:2|0:0,0:0:0:0:
481,247,33490,6,0,P|517:172|441:31,1,216,14|0,3:2|0:0,0:0:0:0:
407,31,33805,6,0,P|356:60|294:60,1,107.999996704102,6|0,3:2|0:0,0:0:0:0:
77,118,34121,2,0,P|138:117|195:155,1,107.999996704102,10|0,0:0|0:0,0:0:0:0:
272,340,34437,1,2,3:2:0:0:
72,263,34595,1,0,3:0:0:0:
315,147,34753,2,0,P|296:216|284:275,1,107.999996704102,10|0,0:0|0:0,0:0:0:0:
67,49,35069,6,0,P|86:118|98:177,1,107.999996704102,2|0,3:2|3:0,0:0:0:0:
269,20,35384,2,0,P|321:-5|387:9,1,107.999996704102,10|0,0:0|0:0,0:0:0:0:
394,237,35700,1,2,3:2:0:0:
216,136,35858,1,0,0:0:0:0:
497,85,36016,2,0,P|490:142|481:201,1,107.999996704102,10|0,0:0|0:0,0:0:0:0:
242,365,36332,6,0,P|234:311|227:257,1,107.999996704102,4|0,3:2|3:0,0:0:0:0:
309,66,36648,1,10,0:0:0:0:
137,136,36805,1,2,0:0:0:0:
374,268,36963,2,0,P|381:214|388:160,1,107.999996704102,2|0,3:2|3:0,0:0:0:0:
180,43,37279,1,10,0:0:0:0:
259,214,37437,1,2,0:0:0:0:
332,52,37595,6,0,P|390:29|469:50,1,107.999996704102,2|0,3:2|3:0,0:0:0:0:
354,268,37911,1,10,0:0:0:0:
219,118,38069,1,2,0:0:0:0:
219,118,38148,1,0,0:0:0:0:
219,118,38227,2,0,P|161:95|82:116,1,107.999996704102,2|0,3:2|3:0,0:0:0:0:
144,314,38542,2,0,P|197:316|246:295,1,107.999996704102,10|0,0:0|0:0,0:0:0:0:
379,147,38858,5,6,3:2:0:0:
178,210,39016,1,2,0:0:0:0:
390,280,39174,1,10,0:0:0:0:
265,166,39332,1,2,0:0:0:0:
338,339,39490,1,2,3:2:0:0:
305,95,39648,1,2,3:2:0:0:
189,282,39806,1,10,0:0:0:0:
222,46,39963,1,2,0:0:0:0:
453,247,40121,6,0,P|480:155|441:25,1,215.999993408203,2|10,3:2|0:0,0:0:0:0:
341,208,40595,1,2,0:0:0:0:
266,86,40753,2,0,P|213:64|143:72,1,107.999996704102,2|0,3:2|3:0,0:0:0:0:
314,302,41069,2,0,P|367:302|416:281,1,107.999996704102,10|0,0:0|0:0,0:0:0:0:
166,176,41384,5,6,3:2:0:0:
353,130,41542,1,2,3:2:0:0:
172,284,41700,2,0,P|118:284|69:263,1,107.999996704102,8|0,0:0|0:0,0:0:0:0:
207,78,42016,1,2,3:2:0:0:
328,231,42174,1,0,3:0:0:0:
70,164,42332,2,0,P|59:103|86:40,1,107.999996704102,10|2,0:0|0:0,0:0:0:0:
341,17,42648,6,0,P|398:33|467:46,1,107.999996704102,2|0,3:2|3:0,0:0:0:0:
246,168,42963,2,0,P|193:178|141:193,1,107.999996704102,14|0,0:0|0:0,0:0:0:0:
413,236,43279,1,2,3:2:0:0:
328,68,43437,1,0,3:0:0:0:
210,305,43595,2,0,P|157:295|105:280,1,107.999996704102,10|0,0:0|0:0,0:0:0:0:
219,85,43911,5,14,0:0:0:0:
302,303,44069,1,0,0:0:0:0:
335,31,44227,5,10,0:0:0:0:
198,256,44384,1,0,0:0:0:0:
242,0,44542,5,10,0:0:0:0:
365,251,44700,1,0,0:0:0:0:
421,62,44858,5,10,0:0:0:0:
182,133,45016,1,2,0:0:0:0:
299,316,45174,6,0,P|345:341|399:341,1,107.999996704102,2|0,3:0|0:0,0:0:0:0:
270,98,45490,2,0,P|216:97|169:123,1,107.999996704102,10|0,0:0|0:0,0:0:0:0:
429,223,45805,2,0,P|439:167|449:100,1,107.999996704102,2|0,3:2|0:0,0:0:0:0:
179,216,46121,2,0,P|187:269|196:322,1,107.999996704102,10|0,0:0|0:0,0:0:0:0:
289,87,46437,5,14,0:0:0:0:
359,300,46595,1,0,0:0:0:0:
369,27,46753,5,10,0:0:0:0:
267,261,46911,1,0,0:0:0:0:
149,60,47069,5,10,0:0:0:0:
409,128,47227,1,0,0:0:0:0:
107,219,47384,5,10,0:0:0:0:
327,186,47542,1,2,0:0:0:0:
127,333,47700,6,0,P|60:331|22:299,1,107.999996704102,2|0,3:2|3:0,0:0:0:0:
237,126,48016,2,0,P|304:128|342:160,1,107.999996704102,14|0,0:0|0:0,0:0:0:0:
246,304,48332,1,2,3:2:0:0:
127,81,48490,1,8,0:0:0:0:
127,81,48569,1,8,0:0:0:0:
127,81,48648,1,10,0:0:0:0:
37,239,48805,5,10,0:0:0:0:
37,239,48884,1,8,0:0:0:0:
37,239,48963,2,0,B|179:242|108:166|246:166,1,215.999993408203,6|8,3:2|0:0,0:0:0:0:
412,275,49437,1,2,0:0:0:0:
336,93,49595,2,0,P|298:65|223:69,1,107.999996704102,2|0,3:2|3:0,0:0:0:0:
272,282,49911,1,8,0:0:0:0:
416,171,50069,1,2,0:0:0:0:
146,143,50227,6,0,P|165:210|173:275,1,107.999996704102,2|0,3:2|3:0,0:0:0:0:
404,361,50542,2,0,P|413:307|428:256,1,107.999996704102,10|2,0:0|0:0,0:0:0:0:
283,37,50858,1,2,3:2:0:0:
444,95,51016,1,0,3:0:0:0:
294,207,51174,2,0,P|240:234|170:217,1,107.999996704102,8|2,0:0|0:0,0:0:0:0:
42,42,51490,6,0,P|68:102|74:228,1,161.999995056153,6|0,3:2|0:0,0:0:0:0:
29,268,51805,2,0,P|38:327|141:331,1,161.999995056153,14|0,0:0|0:0,0:0:0:0:
191,281,52121,2,0,P|244:273|340:352,1,161.999995056153,6|0,3:2|0:0,0:0:0:0:
405,375,52437,2,0,B|439:270|365:319|408:183,1,161.999995056153,14|0,0:0|0:0,0:0:0:0:
478,145,52753,5,2,3:2:0:0:
266,190,52911,1,0,0:0:0:0:
485,279,53069,1,10,0:0:0:0:
248,206,53227,1,2,0:0:0:0:
393,92,53384,1,10,0:0:0:0:
330,309,53542,1,0,3:0:0:0:
174,124,53700,1,14,0:0:0:0:
174,124,54016,5,6,3:2:0:0:
398,218,54174,1,2,0:0:0:0:
398,218,54253,1,2,0:0:0:0:
398,218,54332,2,0,P|364:193|296:194,1,99.0000030212403,10|2,0:0|0:0,0:0:0:0:
108,353,54648,2,0,P|156:351|197:324,1,99.0000030212403,2|0,3:2|3:0,0:0:0:0:
213,110,54963,1,10,0:0:0:0:
72,196,55121,1,2,0:0:0:0:
288,304,55279,6,0,P|294:243|307:183,1,99.0000030212403,2|0,3:2|3:0,0:0:0:0:
136,62,55595,2,0,P|144:110|154:182,1,99.0000030212403,10|0,0:0|0:0,0:0:0:0:
294,65,55911,2,0,P|343:39|412:47,1,99.0000030212403,2|0,3:2|3:0,0:0:0:0:
174,274,56227,2,0,P|125:271|82:247,1,99.0000030212403,10|0,0:0|0:0,0:0:0:0:
306,173,56542,5,6,3:2:0:0:
173,42,56700,1,2,0:0:0:0:
173,42,56779,1,2,0:0:0:0:
173,42,56858,2,0,P|124:44|81:68,1,99.0000030212403,10|2,0:0|0:0,0:0:0:0:
253,260,57174,2,0,P|295:284|344:286,1,99.0000030212403,2|0,3:2|3:0,0:0:0:0:
147,150,57490,1,10,0:0:0:0:
311,97,57648,1,2,0:0:0:0:
108,246,57805,6,0,P|65:214|92:78,2,198.000006042481,2|10|2,3:2|0:0|3:2,0:0:0:0:
257,152,58595,1,0,3:0:0:0:
406,270,58753,2,0,P|474:261|509:223,1,99.0000030212403,8|0,0:0|0:0,0:0:0:0:
381,55,59069,5,6,3:2:0:0:
304,248,59227,1,2,0:0:0:0:
304,248,59305,1,2,0:0:0:0:
304,248,59384,2,0,P|313:308|322:360,1,99.0000030212403,10|2,0:0|0:0,0:0:0:0:
175,134,59700,2,0,P|183:85|190:36,1,99.0000030212403,2|0,3:2|3:0,0:0:0:0:
341,171,60016,1,10,0:0:0:0:
176,259,60174,1,2,0:0:0:0:
277,94,60332,6,0,P|322:70|391:83,1,99.0000030212403,2|0,3:2|3:0,0:0:0:0:
170,272,60648,2,0,P|121:273|78:250,1,99.0000030212403,10|0,0:0|0:0,0:0:0:0:
330,209,60963,2,0,P|318:266|307:328,1,99.0000030212403,2|0,3:2|3:0,0:0:0:0:
137,68,61279,2,0,P|149:125|160:187,1,99.0000030212403,10|0,0:0|0:0,0:0:0:0:
296,36,61595,5,6,3:2:0:0:
212,245,61753,1,2,0:0:0:0:
212,245,61832,1,2,0:0:0:0:
212,245,61911,2,0,P|150:258|81:269,1,99.0000030212403,10|2,0:0|0:0,0:0:0:0:
375,343,62227,2,0,P|437:356|506:367,1,99.0000030212403,2|0,3:2|3:0,0:0:0:0:
248,134,62542,1,10,0:0:0:0:
416,220,62700,1,2,0:0:0:0:
218,291,62858,5,2,3:2:0:0:
320,81,63016,1,2,3:2:0:0:
320,81,63095,1,2,0:0:0:0:
320,81,63174,1,6,0:0:0:0:
358,293,63332,1,2,0:0:0:0:
163,199,63490,1,2,3:2:0:0:
350,167,63648,1,2,3:2:0:0:
264,329,63805,1,10,0:0:0:0:
222,138,63963,1,2,0:0:0:0:
395,271,64121,6,0,P|447:275|490:212,1,135,6|0,3:2|0:0,0:0:0:0:
457,125,64753,2,0,P|428:111|403:106,1,45,2|0,0:0|0:0,0:0:0:0:
340,174,65069,2,0,P|320:184|298:191,1,45,0|0,0:0|0:0,0:0:0:0:
212,148,65384,5,2,0:0:0:0:
401,250,65700,1,2,0:0:0:0:
162,292,66016,1,2,0:0:0:0:
262,68,66332,1,2,0:0:0:0:
302,346,66648,5,2,0:0:0:0:
302,346,66805,2,0,P|293:308|286:250,1,90,0|0,0:0|0:0,0:0:0:0:
221,177,67279,2,0,P|183:168|138:199,1,90,2|0,0:0|0:0,0:0:0:0:
83,253,67753,1,0,0:0:0:0:
83,253,67911,6,0,P|46:245|20:240,1,45,2|2,0:0|0:0,0:0:0:0:
149,333,68227,2,0,P|186:325|212:320,1,45,2|0,0:0|0:0,0:0:0:0:
290,269,68542,1,2,0:0:0:0:
174,206,68700,1,8,0:0:0:0:
292,145,68858,1,8,0:0:0:0:
292,145,69174,6,0,P|350:153|393:164,1,90,2|2,0:0|0:0,0:0:0:0:
466,230,69648,2,0,P|422:239|377:245,1,90,2|2,0:0|0:0,0:0:0:0:
290,294,70121,2,0,P|252:281|227:275,1,45,2|0,0:0|0:0,0:0:0:0:
165,230,70437,6,0,P|160:197|157:173,1,45,2|0,0:0|0:0,0:0:0:0:
224,131,70753,2,0,P|229:98|232:74,1,45,2|0,0:0|0:0,0:0:0:0:
164,28,71069,1,2,0:0:0:0:
290,223,71384,6,0,P|332:214|392:203,1,90,2|2,0:0|0:0,0:0:0:0:
291,241,71858,2,0,P|333:232|393:221,1,90,2|2,0:0|0:0,0:0:0:0:
224,307,72332,6,0,P|182:298|122:287,1,90,2|2,0:0|0:0,0:0:0:0:
223,325,72806,2,0,P|181:316|121:305,1,90,2|2,0:0|0:0,0:0:0:0:
309,343,73279,5,2,0:0:0:0:
55,294,73595,1,2,0:0:0:0:
320,97,74227,5,6,3:2:0:0:
133,150,74384,1,2,0:0:0:0:
356,248,74542,1,8,0:0:0:0:
189,198,74700,1,2,0:0:0:0:
344,104,74858,1,2,3:2:0:0:
256,280,75016,1,2,3:2:0:0:
182,78,75174,1,10,0:0:0:0:
388,186,75332,1,2,0:0:0:0:
173,231,75490,5,2,3:2:0:0:
276,63,75648,1,2,3:2:0:0:
330,304,75805,1,10,0:0:0:0:
208,121,75963,1,2,0:0:0:0:
134,311,76121,2,0,P|99:325|40:317,1,80.9999975280763,2|0,3:2|3:0,0:0:0:0:
40,173,76437,2,0,P|75:159|134:167,1,80.9999975280763,10|0,0:0|0:0,0:0:0:0:
242,347,76753,6,0,P|234:289|224:235,1,80.9999975280763,6|0,3:2|0:0,0:0:0:0:
335,55,77069,2,0,P|328:94|323:135,1,80.9999975280763,10|0,0:0|0:0,0:0:0:0:
380,265,77384,1,2,3:2:0:0:
209,140,77542,1,0,3:0:0:0:
337,342,77700,2,0,P|378:358|418:353,1,80.9999975280763,10|0,0:0|0:0,0:0:0:0:
149,216,78016,5,10,3:2:0:0:
341,130,78174,1,2,0:0:0:0:
248,312,78332,1,10,3:2:0:0:
161,115,78490,1,2,0:0:0:0:
363,268,78648,2,0,P|416:258|474:247,1,80.9999975280763,2|0,3:2|3:0,0:0:0:0:
154,341,78963,2,0,P|101:331|43:320,1,80.9999975280763,12|0,0:0|0:0,0:0:0:0:
215,117,79279,5,6,3:2:0:0:
259,296,79437,1,2,0:0:0:0:
272,59,79595,1,10,0:0:0:0:
197,245,79753,1,2,0:0:0:0:
142,53,79911,2,0,P|101:35|54:38,1,80.9999975280763,2|0,3:2|0:0,0:0:0:0:
285,162,80227,1,10,0:0:0:0:
95,223,80384,1,0,0:0:0:0:
295,279,80542,5,2,3:2:0:0:
68,210,80700,1,2,3:2:0:0:
272,299,80858,1,14,0:0:0:0:
59,349,81016,1,2,0:0:0:0:
210,149,81174,1,2,3:2:0:0:
160,332,81332,1,2,3:2:0:0:
108,81,81490,1,10,0:0:0:0:
202,267,81648,1,2,0:0:0:0:
304,39,81805,6,0,L|376:28,1,62.9999980773926,10|2,3:2|0:0,0:0:0:0:
442,132,82121,2,0,L|370:121,1,62.9999980773926,2|2,0:0|0:0,0:0:0:0:
317,189,82437,1,2,0:0:0:0:
450,349,82753,6,0,L|462:270,2,62.9999980773926,2|2|2,0:0|0:0|0:0,0:0:0:0:
53,198,83384,1,10,3:2:0:0:
380,45,83700,1,10,3:2:0:0:
226,331,84332,6,0,P|176:307|106:304,1,107.999996704102,6|0,3:2|0:0,0:0:0:0:
369,198,84648,2,0,P|422:192|470:168,1,107.999996704102,10|0,0:0|0:0,0:0:0:0:
143,105,84963,1,2,3:2:0:0:
323,23,85121,1,0,3:0:0:0:
228,304,85279,2,0,P|213:233|197:184,1,107.999996704102,10|0,0:0|0:0,0:0:0:0:
419,8,85595,6,0,P|403:59|393:112,1,107.999996704102,2|0,3:2|3:0,0:0:0:0:
132,95,85911,2,0,P|175:63|254:72,1,107.999996704102,10|0,0:0|0:0,0:0:0:0:
407,296,86227,1,2,3:2:0:0:
228,216,86384,1,0,3:0:0:0:
444,88,86542,2,0,P|459:151|469:215,1,107.999996704102,10|0,0:0|0:0,0:0:0:0:
187,343,86858,6,0,P|121:339|80:279,1,107.999996704102,4|0,3:2|3:0,0:0:0:0:
236,98,87174,1,10,0:0:0:0:
342,264,87332,1,2,0:0:0:0:
86,195,87490,2,0,P|79:139|103:81,1,107.999996704102,2|0,3:2|3:0,0:0:0:0:
348,63,87805,1,10,0:0:0:0:
240,238,87963,1,2,0:0:0:0:
164,30,88121,6,0,P|124:6|38:13,1,107.999996704102,2|0,3:2|3:0,0:0:0:0:
147,231,88437,1,10,0:0:0:0:
274,110,88595,1,2,0:0:0:0:
44,135,88753,2,0,P|25:189|34:254,1,107.999996704102,2|0,3:2|3:0,0:0:0:0:
283,346,89069,2,0,P|301:295|298:242,1,107.999996704102,10|0,0:0|0:0,0:0:0:0:
143,92,89384,5,6,3:2:0:0:
193,287,89542,1,2,0:0:0:0:
231,50,89700,1,10,0:0:0:0:
132,242,89858,1,2,0:0:0:0:
68,35,90016,1,2,3:2:0:0:
301,140,90174,1,2,3:2:0:0:
48,219,90332,1,10,0:0:0:0:
156,16,90490,1,2,0:0:0:0:
338,258,90648,6,0,P|433:263|486:144,1,215.999993408203,2|10,3:2|0:0,0:0:0:0:
317,44,91121,1,2,0:0:0:0:
144,229,91279,2,0,P|87:227|38:181,1,107.999996704102,2|0,3:2|3:0,0:0:0:0:
110,42,91595,2,0,P|167:44|216:90,1,107.999996704102,10|0,0:0|0:0,0:0:0:0:
270,287,91911,5,6,3:2:0:0:
311,85,92069,1,2,0:0:0:0:
154,233,92227,2,0,P|165:311|172:368,1,107.999996704102,8|0,0:0|0:0,0:0:0:0:
404,147,92542,2,0,P|393:225|386:282,1,107.999996704102,2|0,3:2|3:0,0:0:0:0:
154,87,92858,1,10,0:0:0:0:
324,17,93016,1,2,0:0:0:0:
175,213,93174,6,0,P|119:208|72:158,1,107.999996704102,2|0,3:2|3:0,0:0:0:0:
356,41,93490,2,0,P|412:46|459:96,1,107.999996704102,14|0,0:0|0:0,0:0:0:0:
308,280,93805,1,2,3:2:0:0:
242,120,93963,1,0,3:0:0:0:
458,201,94121,2,0,P|459:272|430:321,1,107.999996704102,10|0,0:0|0:0,0:0:0:0:
105,187,94437,5,14,0:0:0:0:
333,147,94595,1,0,0:0:0:0:
79,213,94753,5,10,0:0:0:0:
338,254,94911,1,0,0:0:0:0:
154,121,95069,5,10,0:0:0:0:
216,323,95227,1,0,0:0:0:0:
220,45,95384,5,10,0:0:0:0:
160,253,95542,1,2,0:0:0:0:
328,61,95700,6,0,P|391:45|448:37,1,107.999996704102,2|0,3:0|0:0,0:0:0:0:
105,146,96016,2,0,P|51:137|0:123,1,107.999996704102,10|0,0:0|0:0,0:0:0:0:
233,241,96332,2,0,P|247:301|257:358,1,107.999996704102,2|0,3:2|0:0,0:0:0:0:
460,174,96648,2,0,P|469:120|482:68,1,107.999996704102,10|0,0:0|0:0,0:0:0:0:
389,334,96963,5,14,0:0:0:0:
297,74,97121,1,0,0:0:0:0:
269,331,97279,5,10,0:0:0:0:
356,129,97437,1,0,0:0:0:0:
466,298,97595,5,10,0:0:0:0:
203,212,97753,1,0,0:0:0:0:
491,172,97911,5,10,0:0:0:0:
300,243,98069,1,2,0:0:0:0:
373,17,98227,6,0,P|405:60|411:122,1,107.999996704102,2|0,3:2|3:0,0:0:0:0:
231,336,98542,2,0,P|199:293|193:231,1,107.999996704102,14|0,0:0|0:0,0:0:0:0:
282,68,98858,1,2,3:2:0:0:
84,155,99016,1,8,0:0:0:0:
84,155,99095,1,8,0:0:0:0:
84,155,99174,1,10,0:0:0:0:
335,261,99332,5,10,0:0:0:0:
335,261,99411,1,8,0:0:0:0:
335,261,99490,2,0,B|472:283|406:184|558:201,1,215.999993408203,6|8,3:2|0:0,0:0:0:0:
358,141,99963,1,2,0:0:0:0:
417,305,100121,2,0,P|469:337|530:329,1,107.999996704102,2|0,3:2|3:0,0:0:0:0:
298,205,100437,1,8,0:0:0:0:
436,120,100595,1,2,0:0:0:0:
237,333,100753,6,0,P|226:271|212:198,1,107.999996704102,2|0,3:2|3:0,0:0:0:0:
336,8,101069,2,0,P|326:61|316:114,1,107.999996704102,10|2,0:0|0:0,0:0:0:0:
381,269,101384,1,2,3:2:0:0:
203,152,101542,1,0,3:0:0:0:
449,66,101700,2,0,P|458:119|468:172,1,107.999996704102,8|2,0:0|0:0,0:0:0:0:
396,335,102016,6,0,P|336:349|254:280,1,161.999995056153,6|0,3:2|0:0,0:0:0:0:
220,220,102332,2,0,P|179:173|52:198,1,161.999995056153,14|0,0:0|0:0,0:0:0:0:
42,240,102648,2,0,P|61:305|74:366,1,107.999996704102,6|0,3:2|0:0,0:0:0:0:
353,131,102963,2,0,P|334:196|321:257,1,107.999996704102,14|0,0:0|0:0,0:0:0:0:
150,88,103279,5,2,3:2:0:0:
216,306,103437,1,0,0:0:0:0:
239,31,103595,1,10,0:0:0:0:
117,253,103753,1,2,0:0:0:0:
48,20,103911,1,10,0:0:0:0:
285,111,104069,1,0,3:0:0:0:
40,200,104227,1,14,0:0:0:0:
40,200,104542,5,6,3:2:0:0:
160,121,104700,2,0,B|281:140|213:212|361:230,1,198.000006042481,2|2,0:0|0:0,0:0:0:0:
404,45,105174,2,0,P|355:67|336:121,1,99.0000030212403,2|0,3:2|3:0,0:0:0:0:
434,143,105490,1,10,0:0:0:0:
193,60,105648,6,0,P|215:135|230:270,1,198.000006042481,2|2,0:0|3:2,0:0:0:0:
343,347,106121,2,0,P|392:370|438:361,1,99.0000030212403,10|0,0:0|0:0,0:0:0:0:
406,224,106437,1,2,3:2:0:0:
156,344,106595,6,0,P|79:332|63:204,1,198.000006042481,2|2,3:2|0:0,0:0:0:0:
210,88,107069,2,0,P|194:144|186:210,1,99.0000030212403,6|0,3:2|3:0,0:0:0:0:
239,286,107384,1,10,0:0:0:0:
238,7,107542,6,0,B|121:-7|173:92|21:72,1,198.000006042481,2|2,0:0|0:0,0:0:0:0:
266,166,108016,2,0,P|314:145|378:144,1,99.0000030212403,10|0,0:0|0:0,0:0:0:0:
142,102,108332,1,2,3:2:0:0:
396,253,108490,6,0,P|455:226|448:71,1,198.000006042481,2|2,3:2|0:0,0:0:0:0:
222,56,108963,1,2,3:2:0:0:
299,228,109121,1,0,3:0:0:0:
459,62,109279,2,0,P|406:36|339:51,1,99.0000030212403,10|0,0:0|0:0,0:0:0:0:
202,168,109595,5,6,3:2:0:0:
362,331,109753,2,0,P|370:253|397:111,1,198.000006042481,2|2,3:2|0:0,0:0:0:0:
181,24,110227,2,0,P|201:87|210:145,1,99.0000030212403,2|0,3:2|3:0,0:0:0:0:
348,24,110542,1,10,0:0:0:0:
212,257,110700,6,0,B|92:242|174:173|29:157,1,198.000006042481,2|2,0:0|3:2,0:0:0:0:
297,336,111174,2,0,P|348:330|386:291,1,99.0000030212403,10|0,0:0|0:0,0:0:0:0:
293,208,111490,1,2,3:2:0:0:
470,336,111648,6,0,P|457:262|490:128,1,198.000006042481,2|2,3:2|0:0,0:0:0:0:
387,25,112121,2,0,P|313:0|245:125,1,198.000006042481,6|10,3:2|0:0,0:0:0:0:
326,259,112595,2,0,P|337:192|347:128,1,99.0000030212403,2|0,0:0|3:0,0:0:0:0:
216,29,112911,1,2,3:2:0:0:
108,247,113069,2,0,P|97:180|87:116,1,99.0000030212403,10|0,0:0|0:0,0:0:0:0:
310,57,113384,5,2,3:2:0:0:
218,218,113542,1,0,3:0:0:0:
125,37,113700,2,0,P|85:29|21:62,1,99.0000030212403,14|0,0:0|0:0,0:0:0:0:
121,283,114016,1,10,3:2:0:0:
233,56,114174,1,10,0:0:0:0:
322,328,114332,1,10,0:0:0:0:
99,145,114490,1,10,0:0:0:0:
389,244,114648,6,0,B|432:239|432:239|442:242|442:242|496:233,1,99.0000030212403,0|0,0:0|0:0,0:0:0:0:
443,110,114963,6,0,B|321:114|397:200|249:197,1,202.500007724762,14|0,0:0|0:0,0:0:0:0:
182,161,115279,1,0,3:0:0:0:
295,56,115437,1,2,3:2:0:0:
203,260,115595,2,0,P|146:257|105:217,1,99.0000030212403,8|0,0:0|0:0,0:0:0:0:
53,27,115911,6,0,P|110:30|151:70,1,99.0000030212403,2|0,3:2|0:0,0:0:0:0:
311,286,116227,2,0,P|322:231|334:168,1,99.0000030212403,8|2,0:0|0:0,0:0:0:0:
253,15,116542,1,2,3:2:0:0:
415,96,116700,1,0,3:0:0:0:
189,239,116858,2,0,P|178:184|166:121,1,99.0000030212403,10|2,0:0|0:0,0:0:0:0:
366,20,117174,6,0,P|444:14|510:130,1,198.000006042481,6|10,3:2|0:0,0:0:0:0:
284,142,117648,1,0,0:0:0:0:
469,222,117805,1,2,3:2:0:0:
292,269,117963,1,2,3:2:0:0:
383,109,118121,1,10,0:0:0:0:
351,345,118279,6,0,P|302:367|247:357,1,99.0000030212403,2|0,0:0|3:0,0:0:0:0:
166,141,118595,1,0,0:0:0:0:
47,305,118753,2,0,P|96:327|151:317,1,99.0000030212403,10|2,0:0|0:0,0:0:0:0:
292,98,119069,1,2,3:2:0:0:
227,280,119227,1,2,3:2:0:0:
161,50,119384,2,0,L|60:61,1,99.0000030212403,10|0,0:0|0:0,0:0:0:0:
265,203,119700,6,0,B|391:234|335:134|488:176,1,198.000006042481,6|8,3:2|0:0,0:0:0:0:
505,34,120174,2,0,P|480:87|484:268,1,198.000006042481,2|0,0:0|3:0,0:0:0:0:
355,70,120648,2,0,P|327:24|178:26,1,198.000006042481,10|0,0:0|3:0,0:0:0:0:
107,203,121121,2,0,B|134:91|49:125|89:-9,1,198.000006042481,2|2,0:0|0:0,0:0:0:0:
212,102,121595,1,2,3:2:0:0:
19,165,121753,1,0,3:0:0:0:
178,285,121911,2,0,P|235:305|286:287,1,99.0000030212403,8|0,0:0|0:0,0:0:0:0:
472,143,122227,5,4,3:2:0:0:
375,321,122384,1,0,3:0:0:0:
297,62,122542,2,0,P|289:129|282:180,1,99.0000030212403,14|0,0:1|0:0,0:0:0:0:
462,289,122858,1,2,3:2:0:0:
394,96,123016,1,0,3:0:0:0:
279,294,123174,2,0,P|229:298|177:258,1,99.0000030212403,14|0,0:1|0:0,0:0:0:0:
99,87,123490,5,4,3:2:0:0:
276,184,123648,1,0,3:0:0:0:
63,317,123805,2,0,P|45:264|66:192,1,99.0000030212403,14|0,0:1|0:0,0:0:0:0:
295,43,124121,6,0,L|346:36,3,45,10|10|10|10,0:0|0:0|0:0|0:0,0:0:0:0:
419,122,124753,6,0,P|438:196|384:351,2,233.999989288331,6|10|2,3:2|0:0|3:2,0:0:0:0:
277,251,125542,1,0,0:0:0:0:
217,65,125700,2,0,P|166:31|93:40,1,116.999994644165,10|0,0:0|0:0,0:0:0:0:
0,212,126016,6,0,P|51:246|124:237,1,116.999994644165,2|0,3:2|0:0,0:0:0:0:
324,72,126332,2,0,P|266:72|219:105,1,116.999994644165,10|0,0:0|0:0,0:0:0:0:
333,325,126648,1,2,3:2:0:0:
450,183,126805,1,0,0:0:0:0:
182,216,126963,2,0,P|204:282|216:352,1,116.999994644165,8|0,0:0|0:0,0:0:0:0:
479,58,127279,6,0,P|431:24|346:37,1,116.999994644165,4|2,3:2|0:0,0:0:0:0:
229,219,127595,1,10,0:0:0:0:
402,128,127753,1,2,0:0:0:0:
186,91,127911,1,2,3:2:0:0:
314,272,128069,1,2,0:0:0:0:
320,31,128227,1,10,0:0:0:0:
125,145,128384,1,2,0:0:0:0:
436,312,128542,6,0,P|442:220|481:69,1,233.999989288331,2|10,3:2|0:0,0:0:0:0:
325,230,129016,1,2,0:0:0:0:
179,26,129174,2,0,P|200:87|209:143,1,116.999994644165,2|0,3:2|0:0,0:0:0:0:
69,333,129490,2,0,P|48:272|39:216,1,116.999994644165,10|0,0:0|0:0,0:0:0:0:
225,64,129805,6,0,P|313:47|416:173,2,233.999989288331,6|10|2,3:2|0:0|3:2,0:0:0:0:
310,308,130595,1,0,0:0:0:0:
110,202,130753,1,8,0:0:0:0:
305,153,130911,1,2,0:0:0:0:
180,319,131069,5,2,3:2:0:0:
113,112,131227,1,2,0:0:0:0:
270,247,131384,2,0,P|325:270|388:261,1,116.999994644165,10|0,0:0|0:0,0:0:0:0:
154,26,131700,2,0,P|96:17|43:42,1,116.999994644165,2|0,3:2|0:0,0:0:0:0:
396,154,132016,2,0,P|416:83|393:25,1,116.999994644165,10|0,0:0|0:0,0:0:0:0:
113,112,132332,6,0,P|135:216|157:373,1,233.999989288331,6|8,3:2|0:0,0:0:0:0:
257,84,132805,1,2,0:0:0:0:
357,237,132963,2,0,P|344:302|333:364,1,116.999994644165,2|0,3:2|0:0,0:0:0:0:
88,133,133279,2,0,P|101:198|112:260,1,116.999994644165,10|0,0:0|0:0,0:0:0:0:
362,106,133595,5,2,3:2:0:0:
238,251,133753,1,0,3:0:0:0:
119,48,133911,2,0,P|173:12|252:20,1,107.999996704102,14|2,0:0|0:0,0:0:0:0:
391,214,134227,1,2,3:2:0:0:
391,214,134305,1,0,0:0:0:0:
391,214,134384,1,8,0:3:0:0:
178,134,134542,1,10,0:3:0:0:
367,38,134700,1,4,0:3:0:0:
204,289,134858,6,0,P|136:278|96:232,1,107.999996704102,4|2,3:2|0:0,0:0:0:0:
202,104,135174,1,10,0:0:0:0:
314,286,135332,1,2,0:0:0:0:
272,62,135490,1,2,3:2:0:0:
127,228,135648,1,2,3:2:0:0:
179,17,135805,1,10,0:0:0:0:
308,196,135963,1,0,0:0:0:0:
87,97,136121,5,2,3:2:0:0:
331,40,136279,1,2,3:2:0:0:
124,108,136437,1,10,0:0:0:0:
385,175,136595,1,2,0:0:0:0:
132,346,136753,2,0,P|112:288|117:218,1,107.999996704102,2|0,3:2|3:0,0:0:0:0:
253,34,137069,2,0,P|273:92|268:162,1,107.999996704102,8|0,0:0|0:0,0:0:0:0:
30,195,137384,6,0,P|67:143|142:146,1,107.999996704102,4|2,3:2|3:2,0:0:0:0:
329,322,137700,1,10,0:0:0:0:
126,246,137858,1,2,0:0:0:0:
345,134,138016,2,0,P|395:149|422:194,1,107.999996704102,2|0,3:2|3:0,0:0:0:0:
203,325,138332,1,10,0:0:0:0:
240,132,138490,1,0,0:0:0:0:
352,269,138648,5,2,3:2:0:0:
303,29,138805,1,2,3:2:0:0:
149,247,138963,1,8,0:0:0:0:
175,69,139121,1,2,0:0:0:0:
338,327,139279,2,0,P|405:334|482:342,1,107.999996704102,2|0,3:2|3:0,0:0:0:0:
213,192,139595,1,10,0:0:0:0:
370,114,139753,1,2,0:0:0:0:
170,339,139911,6,0,P|91:312|76:139,1,233.999989288331,6|8,3:2|0:0,0:0:0:0:
186,40,140384,1,2,0:0:0:0:
384,258,140542,2,0,P|442:230|453:156,1,116.999994644165,2|0,3:2|3:0,0:0:0:0:
361,5,140858,2,0,P|303:33|292:107,1,116.999994644165,10|0,0:0|0:0,0:0:0:0:
468,304,141174,6,0,B|336:263|396:379|227:324,1,215.999993408203,6|8,3:2|0:0,0:0:0:0:
56,181,141648,1,2,0:0:0:0:
160,352,141805,2,0,P|186:299|185:224,1,107.999996704102,2|0,3:2|3:0,0:0:0:0:
79,43,142121,1,12,0:0:0:0:
262,86,142279,1,2,0:0:0:0:
78,232,142437,6,0,P|98:180|240:176,1,198.000006042481,6|8,3:2|0:0,0:0:0:0:
362,289,142911,1,2,0:0:0:0:
290,84,143069,1,2,3:2:0:0:
457,214,143227,1,0,3:0:0:0:
248,256,143384,1,8,0:0:0:0:
397,102,143542,1,2,0:0:0:0:
290,373,143700,6,0,L|180:358,1,99.0000030212403,2|0,3:2|3:0,0:0:0:0:
34,143,144016,2,0,L|144:128,1,99.0000030212403,12|0,0:0|0:0,0:0:0:0:
350,270,144332,1,10,0:0:0:0:
135,221,144490,1,0,3:0:0:0:
273,92,144648,1,12,0:0:0:0:
273,92,144963,6,0,L|263:161,2,53.9999983520508,6|0|2,3:2|0:0|0:0,0:0:0:0:
436,240,145595,2,0,L|446:309,2,53.9999983520508,0|0|2,0:0|0:0|0:0,0:0:0:0:
443,41,146227,6,0,L|502:34,2,53.9999983520508,0|0|2,0:0|0:0|0:0,0:0:0:0:
318,151,146858,2,0,L|259:144,2,53.9999983520508,0|0|2,0:0|0:0|0:0,0:0:0:0:
234,300,147490,6,0,P|224:348|218:376,2,53.9999983520508,0|0|2,0:0|0:0|0:0,0:0:0:0:
112,200,148121,2,0,P|106:173|100:147,2,53.9999983520508,0|0|2,0:0|0:0|0:0,0:0:0:0:
218,26,148753,6,0,P|257:33|282:41,2,53.9999983520508,0|0|2,0:0|0:0|0:0,0:0:0:0:
112,200,149384,2,0,P|85:206|59:211,2,53.9999983520508,0|0|2,0:0|0:0|0:0,0:0:0:0:
315,325,150016,6,0,P|349:293|459:305,1,157.5,2|0,0:0|0:0,0:0:0:0:
476,326,150648,2,0,P|483:281|494:223,1,90,2|2,0:0|0:0,0:0:0:0:
342,72,151279,6,0,P|341:31|339:8,2,45,2|0|0,0:0|0:0|0:0,0:0:0:0:
179,175,151911,2,0,P|177:197|177:219,2,45,0|0|0,0:0|0:0|0:0,0:0:0:0:
29,65,152542,6,0,B|124:87|88:29|196:49,1,157.5,2|0,0:0|0:0,0:0:0:0:
247,97,153174,2,0,P|288:111|351:94,1,90,2|2,0:0|0:0,0:0:0:0:
490,19,153805,6,0,L|484:82,2,45,2|0|0,0:0|0:0|0:0,0:0:0:0:
388,183,154437,2,0,L|394:246,2,45,0|0|0,0:0|0:0|0:0,0:0:0:0:
208,46,155069,6,0,P|173:35|87:113,1,144,2|0,3:2|3:0,0:0:0:0:
90,90,155700,2,0,P|100:137|104:176,1,72,2|0,3:2|0:0,0:0:0:0:
215,311,156016,2,0,P|219:275|227:240,1,72,2|0,3:2|0:0,0:0:0:0:
357,136,156332,6,0,P|404:130|449:150,2,72,2|0|0,3:2|0:0|3:0,0:0:0:0:
215,311,156963,2,0,P|168:317|123:297,2,72,0|0|0,3:0|0:0|3:0,0:0:0:0:
433,357,157595,6,0,P|439:304|467:203,1,144,2|0,3:2|3:0,0:0:0:0:
461,216,158227,2,0,P|409:210|376:183,1,72,2|0,3:2|0:0,0:0:0:0:
307,50,158542,2,0,P|359:56|392:83,1,72,2|0,3:2|0:0,0:0:0:0:
266,217,158858,5,2,3:2:0:0:
149,109,159174,1,2,3:2:0:0:
41,226,159490,1,2,3:2:0:0:
158,334,159805,1,2,3:2:0:0:
362,206,160121,6,0,P|371:159|379:120,1,72,0|0,3:0|0:0,0:0:0:0:
262,32,160437,2,0,P|253:79|245:118,1,72,6|0,3:2|0:0,0:0:0:0:
361,205,160753,2,0,P|354:170|348:135,1,72,0|0,3:0|0:0,0:0:0:0:
234,238,161069,2,0,P|241:273|248:309,1,72,6|0,3:2|0:0,0:0:0:0:
181,160,161384,6,0,P|131:146|100:142,1,72,0|0,3:0|0:0,0:0:0:0:
334,268,161700,2,0,P|369:261|403:251,1,72,6|0,3:2|0:0,0:0:0:0:
172,261,162016,2,0,P|181:311|189:365,1,72,0|0,3:0|0:0,0:0:0:0:
290,120,162332,1,6,3:2:0:0:
290,120,162648,5,2,3:2:0:0:
301,228,162805,1,2,0:0:0:0:
186,83,162963,1,6,3:2:0:0:
171,183,163121,1,2,0:0:0:0:
325,38,163279,1,2,3:2:0:0:
352,148,163437,1,2,0:0:0:0:
238,20,163595,2,0,L|232:62,3,36,6|0|2|0,3:2|0:0|0:0|0:0,0:0:0:0:
130,43,163911,5,10,3:2:0:0:
467,210,164227,1,10,3:2:0:0:
112,326,164542,6,0,L|110:296,14,18,2|0|0|0|0|0|0|0|2|0|0|0|2|0|0,0:0|0:0|0:0|0:0|0:0|0:0|0:0|0:0|0:0|0:0|0:0|0:0|0:0|0:0|0:0,0:0:0:0:
139,227,165174,6,0,P|181:199|258:209,1,107.999996704102,6|0,3:2|0:0,0:0:0:0:
376,357,165490,1,10,0:0:0:0:
213,290,165648,1,0,0:0:0:0:
338,114,165805,2,0,P|348:180|355:250,1,107.999996704102,2|0,3:2|3:0,0:0:0:0:
135,100,166121,1,10,0:0:0:0:
287,23,166279,1,2,0:0:0:0:
130,247,166437,6,0,P|73:239|32:190,1,107.999996704102,2|0,3:2|3:0,0:0:0:0:
160,13,166753,1,10,0:0:0:0:
270,154,166911,1,2,0:0:0:0:
0,128,167069,2,0,P|-10:73|15:7,1,107.999996704102,2|0,3:2|3:0,0:0:0:0:
241,183,167384,2,0,P|251:235|236:287,1,107.999996704102,10|0,0:0|0:0,0:0:0:0:
175,75,167700,6,0,P|247:64|312:54,1,107.999996704102,4|0,3:2|3:0,0:0:0:0:
399,238,168016,1,10,0:0:0:0:
480,49,168174,1,2,0:0:0:0:
276,218,168332,2,0,P|204:207|139:197,1,107.999996704102,2|0,3:2|3:0,0:0:0:0:
328,16,168648,1,10,0:0:0:0:
388,186,168805,1,2,0:0:0:0:
189,55,168963,6,0,P|112:52|57:195,1,215.999993408203,2|10,3:2|0:0,0:0:0:0:
200,293,169437,1,2,0:0:0:0:
373,100,169595,2,0,P|429:105|473:154,1,107.999996704102,2|0,3:2|3:0,0:0:0:0:
433,370,169911,2,0,P|377:365|333:316,1,107.999996704102,10|0,0:0|0:0,0:0:0:0:
203,32,170227,6,0,B|163:150|268:105|213:264,2,215.999993408203,4|8|0,3:2|0:0|3:0,0:0:0:0:
342,143,171016,1,2,3:2:0:0:
105,224,171174,2,0,P|57:186|46:121,1,107.999996704102,8|2,0:0|0:0,0:0:0:0:
321,60,171490,5,0,3:0:0:0:
248,248,171648,1,0,3:0:0:0:
172,28,171805,2,0,P|112:27|67:66,1,107.999996704102,8|0,0:0|0:0,0:0:0:0:
160,259,172121,1,0,3:0:0:0:
263,94,172279,1,0,3:0:0:0:
360,297,172437,2,0,P|420:298|465:259,1,107.999996704102,8|0,0:0|0:0,0:0:0:0:
236,79,172753,6,0,B|103:85|193:179|27:180,1,215.999993408203,4|8,3:2|0:0,0:0:0:0:
248,296,173227,1,2,0:0:0:0:
65,138,173384,1,2,3:2:0:0:
301,206,173542,1,2,3:2:0:0:
110,333,173700,2,0,P|50:333|-9:285,1,107.999996704102,10|2,0:0|0:0,0:0:0:0:
150,45,174016,6,0,P|177:142|201:280,1,215.999993408203,2|14,3:2|0:0,0:0:0:0:
274,47,174490,1,2,0:0:0:0:
353,284,174648,1,2,3:2:0:0:
405,90,174805,1,0,3:0:0:0:
261,306,174963,2,0,P|208:336|144:323,1,107.999996704102,10|0,0:0|0:0,0:0:0:0:
43,97,175279,5,14,0:0:0:0:
321,173,175437,1,0,0:0:0:0:
60,294,175595,5,10,0:0:0:0:
318,218,175753,1,0,0:0:0:0:
10,206,175911,5,10,0:0:0:0:
297,300,176069,1,0,0:0:0:0:
140,118,176227,5,10,0:0:0:0:
176,328,176384,1,2,0:0:0:0:
298,63,176542,6,0,P|346:41|407:50,1,107.999996704102,2|0,3:0|0:0,0:0:0:0:
183,217,176858,2,0,P|129:222|81:200,1,107.999996704102,10|0,0:0|0:0,0:0:0:0:
362,177,177174,2,0,P|347:243|341:307,1,107.999996704102,2|0,3:2|0:0,0:0:0:0:
126,37,177490,2,0,P|141:103|147:167,1,107.999996704102,10|0,0:0|0:0,0:0:0:0:
305,32,177805,5,14,0:0:0:0:
199,267,177963,1,0,0:0:0:0:
214,59,178121,5,10,0:0:0:0:
321,328,178279,1,0,0:0:0:0:
340,108,178437,5,10,0:0:0:0:
221,360,178595,1,0,0:0:0:0:
151,143,178753,5,10,0:0:0:0:
389,218,178911,1,2,0:0:0:0:
135,311,179069,6,0,P|74:316|15:322,1,107.999996704102,2|0,3:2|3:0,0:0:0:0:
323,94,179384,2,0,P|384:99|443:105,1,107.999996704102,14|0,0:0|0:0,0:0:0:0:
263,305,179700,1,2,3:2:0:0:
142,58,179858,1,8,0:0:0:0:
142,58,179937,1,8,0:0:0:0:
142,58,180016,1,10,0:0:0:0:
326,204,180174,5,10,0:0:0:0:
326,204,180253,1,8,0:0:0:0:
326,204,180332,2,0,B|186:182|265:279|92:253,1,215.999993408203,6|8,3:2|0:0,0:0:0:0:
266,341,180805,1,2,0:0:0:0:
402,150,180963,2,0,P|420:216|417:289,1,107.999996704102,2|0,3:2|3:0,0:0:0:0:
187,116,181279,1,8,0:0:0:0:
353,40,181437,1,2,0:0:0:0:
198,245,181595,6,0,P|136:243|89:197,1,107.999996704102,2|0,3:2|3:0,0:0:0:0:
162,26,181911,2,0,P|224:28|271:74,1,107.999996704102,10|2,0:0|0:0,0:0:0:0:
377,235,182227,1,2,3:2:0:0:
178,145,182384,1,0,3:0:0:0:
388,65,182542,1,8,0:0:0:0:
301,274,182700,1,2,0:0:0:0:
105,45,182858,6,0,P|74:95|114:219,1,161.999995056153,6|0,3:2|0:0,0:0:0:0:
127,258,183174,2,0,B|229:241|180:308|312:317,1,161.999995056153,14|0,0:0|0:0,0:0:0:0:
357,357,183490,2,0,P|352:272|409:180,1,161.999995056153,6|0,3:2|0:0,0:0:0:0:
453,150,183805,2,0,P|451:97|348:71,1,161.999995056153,14|0,0:0|0:0,0:0:0:0:
291,101,184121,5,2,3:2:0:0:
425,251,184279,1,0,0:0:0:0:
189,175,184437,1,10,0:0:0:0:
424,94,184595,1,2,0:0:0:0:
269,286,184753,1,10,0:0:0:0:
233,36,184911,1,0,3:0:0:0:
455,183,185069,1,14,0:0:0:0:
455,183,185384,6,0,B|393:160|305:195|377:233|276:286|203:251,1,270,2|8,0:0|3:2,0:0:0:0:
213,255,186648,5,6,3:2:0:0:
74,87,186805,1,2,0:0:0:0:
74,87,186884,1,2,0:0:0:0:
74,87,186963,2,0,P|92:146|92:224,1,107.999996704102,10|2,0:0|0:0,0:0:0:0:
200,40,187279,2,0,P|247:10|310:21,1,107.999996704102,2|0,3:2|3:0,0:0:0:0:
367,203,187595,1,10,0:0:0:0:
218,131,187753,1,2,0:0:0:0:
472,38,187911,6,0,P|454:97|454:175,1,107.999996704102,2|0,3:2|3:0,0:0:0:0:
292,326,188227,2,0,P|274:267|274:189,1,107.999996704102,10|0,0:0|0:0,0:0:0:0:
325,44,188542,1,2,3:2:0:0:
178,136,188700,1,0,3:0:0:0:
432,243,188858,2,0,P|450:184|450:106,1,107.999996704102,10|0,0:0|0:0,0:0:0:0:
225,59,189174,5,6,3:2:0:0:
337,325,189332,1,2,0:0:0:0:
337,325,189411,1,2,0:0:0:0:
337,325,189490,2,0,P|402:331|472:337,1,107.999996704102,10|2,0:0|0:0,0:0:0:0:
194,144,189805,2,0,P|129:150|59:156,1,107.999996704102,2|0,3:2|3:0,0:0:0:0:
225,282,190121,1,10,0:0:0:0:
331,141,190279,1,2,0:0:0:0:
111,279,190437,6,0,P|141:358|275:367,2,215.999993408203,2|10|2,3:2|0:0|3:2,0:0:0:0:
186,97,191227,1,0,3:0:0:0:
360,252,191384,2,0,P|422:248|458:210,1,107.999996704102,8|0,0:0|0:0,0:0:0:0:
295,18,191700,5,6,3:2:0:0:
228,202,191858,1,2,3:2:0:0:
228,202,191937,1,2,0:0:0:0:
228,202,192016,2,0,P|242:266|253:346,1,107.999996704102,10|2,0:0|0:0,0:0:0:0:
432,68,192332,2,0,P|418:132|407:212,1,107.999996704102,2|0,3:2|3:0,0:0:0:0:
134,113,192648,1,10,0:0:0:0:
274,21,192805,1,2,0:0:0:0:
148,241,192963,6,0,P|87:236|43:193,1,107.999996704102,2|0,3:2|3:0,0:0:0:0:
314,104,193279,2,0,P|375:109|419:152,1,107.999996704102,10|0,0:0|0:0,0:0:0:0:
288,358,193595,2,0,P|275:287|253:221,1,107.999996704102,2|0,3:2|3:0,0:0:0:0:
512,117,193911,2,0,P|497:169|488:222,1,107.999996704102,10|0,0:0|0:0,0:0:0:0:
324,22,194227,5,6,3:2:0:0:
399,287,194384,1,2,3:2:0:0:
399,287,194463,1,2,0:0:0:0:
399,287,194542,2,0,P|446:325|501:321,1,107.999996704102,10|2,0:0|0:0,0:0:0:0:
232,76,194858,2,0,P|179:78|139:113,1,107.999996704102,2|0,3:2|3:0,0:0:0:0:
278,282,195174,1,10,0:0:0:0:
381,125,195332,1,2,0:0:0:0:
373,338,195490,5,2,3:2:0:0:
264,68,195648,1,2,3:2:0:0:
264,68,195727,1,2,0:0:0:0:
264,68,195805,1,6,0:0:0:0:
435,247,195963,1,2,0:0:0:0:
213,175,196121,1,2,3:2:0:0:
378,98,196279,1,2,3:2:0:0:
279,280,196437,1,10,0:0:0:0:
172,87,196595,1,2,0:0:0:0:
139,313,196753,5,6,3:2:0:0:
276,91,196911,1,2,0:0:0:0:
276,91,196990,1,2,0:0:0:0:
276,91,197069,2,0,P|327:65|394:78,1,107.999996704102,10|2,0:0|0:0,0:0:0:0:
197,302,197384,2,0,P|143:305|96:280,1,107.999996704102,2|0,3:2|3:0,0:0:0:0:
190,64,197700,1,10,0:0:0:0:
307,221,197858,1,2,0:0:0:0:
69,163,198016,6,0,P|62:104|51:45,1,107.999996704102,2|0,3:2|3:0,0:0:0:0:
213,238,198332,2,0,P|203:291|197:344,1,107.999996704102,10|0,0:0|0:0,0:0:0:0:
190,86,198648,2,0,P|251:51|310:61,1,107.999996704102,2|0,3:2|3:0,0:0:0:0:
99,278,198963,2,0,P|45:275|2:244,1,107.999996704102,10|0,0:0|0:0,0:0:0:0:
101,74,199279,5,6,3:2:0:0:
246,269,199437,1,2,0:0:0:0:
246,269,199516,1,2,0:0:0:0:
246,269,199595,2,0,P|312:257|391:246,1,107.999996704102,10|2,0:0|0:0,0:0:0:0:
189,54,199911,2,0,P|135:45|82:35,1,107.999996704102,2|0,3:2|3:0,0:0:0:0:
134,251,200227,1,10,0:0:0:0:
273,134,200384,1,2,0:0:0:0:
50,179,200542,6,0,P|19:225|105:357,2,215.999993408203,2|10|2,3:2|0:0|3:2,0:0:0:0:
241,222,201332,1,0,3:0:0:0:
136,50,201490,2,0,P|102:30|29:38,1,107.999996704102,8|0,0:0|0:0,0:0:0:0:
114,249,201805,5,6,3:2:0:0:
275,75,201963,1,2,3:2:0:0:
275,75,202042,1,2,0:0:0:0:
275,75,202121,2,0,P|309:55|382:63,1,107.999996704102,10|2,0:0|0:0,0:0:0:0:
350,317,202437,2,0,P|297:324|249:301,1,107.999996704102,2|0,3:2|3:0,0:0:0:0:
408,121,202753,1,10,0:0:0:0:
474,267,202911,1,2,0:0:0:0:
236,164,203069,6,0,P|183:156|130:147,1,107.999996704102,2|0,3:2|3:0,0:0:0:0:
378,32,203384,2,0,P|431:23|484:14,1,107.999996704102,10|0,0:0|0:0,0:0:0:0:
285,269,203700,2,0,P|267:214|274:159,1,107.999996704102,2|0,3:2|3:0,0:0:0:0:
461,57,204016,2,0,P|479:112|472:167,1,107.999996704102,10|0,0:0|0:0,0:0:0:0:
231,58,204332,5,6,3:2:0:0:
367,265,204490,1,2,0:0:0:0:
367,265,204569,1,2,0:0:0:0:
367,265,204648,2,0,P|434:273|507:283,1,107.999996704102,10|2,0:0|0:0,0:0:0:0:
192,160,204963,2,0,P|125:168|52:178,1,107.999996704102,2|0,3:2|3:0,0:0:0:0:
362,96,205279,1,10,0:0:0:0:
234,281,205437,1,2,0:0:0:0:
234,27,205595,5,2,3:2:0:0:
360,235,205753,1,2,3:2:0:0:
360,235,205832,1,2,0:0:0:0:
360,235,205911,1,6,0:0:0:0:
135,112,206069,1,2,0:0:0:0:
339,48,206227,1,2,3:2:0:0:
228,230,206384,1,2,3:2:0:0:
173,28,206542,1,10,0:0:0:0:
354,148,206700,1,2,0:0:0:0:
256,192,206858,12,8,207805,0:0:0:0:
90,30,208121,6,0,L|95:61,1,27,2|0,0:0|0:0,0:0:0:0:
149,109,208437,6,0,L|144:155,1,40.4999987640381,2|0,0:0|0:0,0:0:0:0:
92,205,208753,6,0,P|103:226|106:266,1,54,2|0,0:0|0:0,0:0:0:0:
99,336,209069,6,0,P|118:362|178:370,1,80.9999975280763,2|0,0:0|0:0,0:0:0:0:
217,308,209384,6,0,P|249:281|327:293,1,108,2|0,0:0|0:0,0:0:0:0:
392,349,209700,6,0,P|452:361|500:276,1,135,2|0,0:0|0:0,0:0:0:0:
452,249,210016,6,0,P|412:184|454:105,1,161.999995056153,2|0,0:0|0:0,0:0:0:0:
486,30,210332,6,0,B|400:5|288:66|403:116|279:193|155:141,1,350.999983932496,14|0,0:0|0:0,0:0:0:0:
