osu file format v14

[General]
AudioFilename: audio.mp3
AudioLeadIn: 0
PreviewTime: 84174
Countdown: 0
SampleSet: Soft
StackLeniency: 0.4
Mode: 0
LetterboxInBreaks: 0
WidescreenStoryboard: 0

[Editor]
DistanceSpacing: 0.6
BeatDivisor: 4
GridSize: 32
TimelineZoom: 2.699999

[Metadata]
Title:StaRt
TitleUnicode:StaRt
Artist:Mrs. GREEN APPLE
ArtistUnicode:Mrs. GREEN APPLE
Creator:dkblaze
Version:Dreamy Tomorrow
Source:
Tags:Wanpachi Cycopton sanairrt BaAR_Vendel Reform Kujinn Japanese rock j-rock Variety
BeatmapID:2171935
BeatmapSetID:1039048

[Difficulty]
HPDrainRate:5
CircleSize:3.8
OverallDifficulty:9.2
ApproachRate:9.2
SliderMultiplier:1.9
SliderTickRate:1

[Events]
//Background and Video events
0,0,"BG.jpg",0,0
//Break Periods
2,145163,149446
//Storyboard Layer 0 (Background)
//Storyboard Layer 1 (Fail)
//Storyboard Layer 2 (Pass)
//Storyboard Layer 3 (Foreground)
//Storyboard Layer 4 (Overlay)
//Storyboard Sound Samples

[TimingPoints]
2227,315.789473684211,4,2,1,75,1,0
2327,-100,4,2,1,75,0,0
2937,-100,4,2,1,75,0,0
8227,-76.9230769230769,4,2,1,75,0,0
8463,-76.9230769230769,4,2,1,5,0,0
8542,-100,4,2,1,75,0,0
13595,-142.857142857143,4,2,1,65,0,0
23700,-111.111111111111,4,2,1,70,0,0
27490,-90.9090909090909,4,2,1,70,0,0
31279,-100,4,2,1,60,0,0
33174,-62.5,4,2,1,70,0,0
33411,-62.5,4,2,1,5,0,0
33490,-100,4,2,1,75,0,0
33529,-100,4,2,1,55,0,0
33805,-83.3333333333333,4,2,1,80,0,1
36016,-71.4285714285714,4,2,1,80,0,1
36332,-83.3333333333333,4,2,1,80,0,1
43911,-83.3333333333333,4,2,1,80,0,1
51490,-62.5,4,2,1,80,0,1
51727,-62.5,4,2,1,5,0,1
51805,-62.5,4,2,1,80,0,1
52042,-62.5,4,2,1,5,0,1
52121,-62.5,4,2,1,80,0,1
52358,-62.5,4,2,1,5,0,1
52437,-62.5,4,2,1,80,0,1
52674,-62.5,4,2,1,5,0,1
52753,-71.4285714285714,4,2,1,80,0,1
53700,-166.666666666667,4,2,1,80,0,1
53937,-166.666666666667,4,2,1,5,0,1
54016,-90.9090909090909,4,2,1,75,0,0
58753,-76.9230769230769,4,2,1,75,0,0
58990,-76.9230769230769,4,2,1,5,0,0
59069,-90.9090909090909,4,2,1,75,0,0
64121,-200,4,2,1,40,0,0
74227,-111.111111111111,4,2,1,70,0,0
81805,-100,4,2,1,60,0,0
84016,-142.857142857143,4,2,1,40,0,0
84253,-142.857142857143,4,2,1,5,0,0
84332,-76.9230769230769,4,2,1,80,0,1
86542,-71.4285714285714,4,2,1,80,0,1
86858,-76.9230769230769,4,2,1,80,0,1
94437,-83.3333333333333,4,2,1,80,0,1
102016,-76.9230769230769,4,2,1,80,0,1
103279,-90.9090909090909,4,2,1,80,0,1
104227,-76.9230769230769,4,2,1,80,0,1
104463,-76.9230769230769,4,2,1,5,0,1
104542,-90.9090909090909,4,2,1,70,0,0
109279,-76.9230769230769,4,2,1,70,0,0
109516,-76.9230769230769,4,2,1,5,0,0
109595,-90.9090909090909,4,2,1,70,0,0
114648,-100,4,2,1,60,0,0
114963,-66.6666666666667,4,2,1,75,0,0
115279,-90.9090909090909,4,2,1,75,0,0
119700,-71.4285714285714,4,2,1,75,0,0
121911,-76.9230769230769,4,2,1,75,0,0
122148,-76.9230769230769,4,2,1,5,0,0
122227,-76.9230769230769,4,2,1,75,0,0
124753,-76.9230769230769,4,2,1,80,0,1
133595,-83.3333333333333,4,2,1,80,0,1
139911,-76.9230769230769,4,2,1,80,0,1
141174,-83.3333333333333,4,2,1,80,0,1
142437,-90.9090909090909,4,2,1,80,0,1
143700,-83.3333333333333,4,2,1,80,0,1
144016,-142.857142857143,4,2,1,80,0,1
144332,-111.111111111111,4,2,1,80,0,1
144963,-100,4,2,1,70,0,0
145042,-100,4,2,1,30,0,0
150016,-200,4,2,1,35,0,0
155069,-125,4,2,1,40,0,0
160121,-499.999999999997,4,2,1,60,0,0
160437,-83.3333333333333,4,2,1,70,0,0
160753,-500,4,2,1,70,0,0
161069,-83.3333333333333,4,2,1,70,0,0
161384,-500,4,2,1,70,0,0
161700,-83.3333333333333,4,2,1,70,0,0
162016,-499.999999999997,4,2,1,70,0,0
162332,-83.3333333333333,4,2,1,70,0,0
163911,-100,4,2,1,70,0,0
164542,-50,4,2,1,70,0,0
164858,-100,4,2,1,70,0,0
164898,-100,4,2,1,50,0,0
165174,-76.9230769230769,4,2,1,80,0,1
167384,-71.4285714285714,4,2,1,80,0,1
167700,-76.9230769230769,4,2,1,80,0,1
169911,-71.4285714285714,4,2,1,80,0,1
171490,-76.9230769230769,4,2,1,80,0,1
175279,-83.3333333333333,4,2,1,80,0,1
180332,-71.4285714285714,4,2,1,80,0,1
180648,-83.3333333333333,4,2,1,80,0,1
182858,-71.4285714285714,4,2,1,80,0,1
183095,-71.4285714285714,4,2,1,5,0,1
183174,-71.4285714285714,4,2,1,80,0,1
183411,-71.4285714285714,4,2,1,5,0,1
183490,-71.4285714285714,4,2,1,80,0,1
183727,-71.4285714285714,4,2,1,5,0,1
183805,-71.4285714285714,4,2,1,80,0,1
184042,-71.4285714285714,4,2,1,5,0,1
184121,-83.3333333333333,4,2,1,80,0,1
184753,-100,4,2,1,70,0,1
185069,-111.111111111111,4,2,1,80,0,1
185384,-400,4,2,1,70,0,0
186253,-400,4,2,1,5,0,0
186332,-40,4,2,1,70,0,0
186411,-40,4,2,1,5,0,0
186648,-83.3333333333333,4,2,1,75,0,0
191384,-71.4285714285714,4,2,1,75,0,0
191621,-71.4285714285714,4,2,1,5,0,0
191700,-83.3333333333333,4,2,1,75,0,0
201490,-71.4285714285714,4,2,1,75,0,0
201727,-71.4285714285714,4,2,1,5,0,0
201805,-83.3333333333333,4,2,1,75,0,0
206858,-500,4,2,1,75,0,0
207727,-500,4,2,1,5,0,0
207805,-62.5,4,2,1,75,0,0
208121,-500,4,2,1,70,0,0
208358,-500,4,2,1,5,0,0
208437,-500,4,2,1,70,0,0
208674,-500,4,2,1,5,0,0
208753,-500,4,2,1,70,0,0
208990,-500,4,2,1,5,0,0
209069,-500,4,2,1,70,0,0
209305,-500,4,2,1,5,0,0
209384,-500,4,2,1,70,0,0
209621,-500,4,2,1,5,0,0
209700,-250,4,2,1,70,0,0
209937,-250,4,2,1,5,0,0
210016,-166.666666666667,4,2,1,70,0,0
210253,-166.666666666667,4,2,1,5,0,0
210332,-90.9090909090909,4,2,1,80,0,0
210805,-90.9090909090909,4,2,1,5,0,0

[Colours]
Combo1 : 57,225,255
Combo2 : 13,116,255

[HitObjects]
374,141,3174,5,12,3:2:0:0:
291,46,3332,1,2,0:0:0:0:
291,46,3411,1,2,0:0:0:0:
291,46,3490,5,6,3:2:0:0:
111,195,3648,1,2,0:0:0:0:
111,195,3727,1,2,0:0:0:0:
111,195,3805,1,10,0:0:0:0:
11,94,3963,1,2,0:0:0:0:
200,29,4121,2,0,P|188:82|184:124,1,95,2|0,3:2|3:0,0:0:0:0:
0,247,4437,1,10,0:0:0:0:
98,105,4595,1,2,0:0:0:0:
275,155,4753,6,0,P|288:238|291:282,1,95,2|0,3:2|3:0,0:0:0:0:
489,324,5069,2,0,P|492:295|512:205,1,95,10|0,0:0|0:0,0:0:0:0:
263,146,5384,2,0,P|276:229|279:273,1,95,2|0,3:2|3:0,0:0:0:0:
512,79,5700,2,0,P|476:46|429:47,1,95,10|0,0:0|0:0,0:0:0:0:
385,265,6016,5,6,3:2:0:0:
487,198,6174,1,2,3:2:0:0:
487,198,6253,1,2,0:0:0:0:
487,198,6332,1,10,0:0:0:0:
262,129,6490,1,2,0:0:0:0:
442,25,6648,2,0,P|433:87|430:119,1,95,2|0,3:2|3:0,0:0:0:0:
262,282,6963,1,10,0:0:0:0:
145,176,7121,1,2,0:0:0:0:
298,58,7279,6,0,P|338:89|343:137,1,95,2|0,3:2|0:0,0:0:0:0:
138,165,7595,2,0,P|176:132|222:136,1,95,10|0,0:0|0:0,0:0:0:0:
294,300,7911,1,2,3:2:0:0:
187,359,8069,1,0,3:0:0:0:
0,203,8227,6,0,P|55:211|192:239,1,185.249991519928,8|0,0:0|0:0,0:0:0:0:
220,247,8542,5,6,3:2:0:0:
280,149,8700,1,2,3:2:0:0:
280,149,8779,1,2,0:0:0:0:
280,149,8858,1,10,0:0:0:0:
103,274,9016,1,2,0:0:0:0:
280,149,9174,2,0,P|312:171|333:235,1,95,2|0,3:2|3:0,0:0:0:0:
111,294,9490,1,10,0:0:0:0:
85,170,9648,1,2,0:0:0:0:
302,316,9805,6,0,P|304:289|316:221,1,95,2|0,3:2|3:0,0:0:0:0:
137,99,10121,2,0,P|135:74|123:4,1,95,10|0,0:0|0:0,0:0:0:0:
332,210,10437,2,0,P|339:181|363:119,1,95,2|0,3:2|3:0,0:0:0:0:
180,320,10753,2,0,P|176:286|165:219,1,95,10|0,0:0|0:0,0:0:0:0:
3,158,11069,5,6,3:2:0:0:
248,193,11227,1,2,0:0:0:0:
248,193,11305,1,2,0:0:0:0:
248,193,11384,1,10,0:0:0:0:
58,266,11542,1,2,0:0:0:0:
106,83,11700,2,0,P|114:143|119:184,1,95,2|0,3:2|3:0,0:0:0:0:
297,110,12016,1,10,0:0:0:0:
185,258,12174,1,2,0:0:0:0:
106,83,12332,5,2,3:2:0:0:
247,177,12490,1,2,3:2:0:0:
247,177,12569,1,2,0:0:0:0:
247,177,12648,1,6,0:0:0:0:
2,279,12805,1,2,0:0:0:0:
297,110,12963,1,2,3:2:0:0:
185,72,13121,1,2,3:2:0:0:
127,338,13279,1,10,0:0:0:0:
245,288,13437,1,2,0:0:0:0:
30,31,13595,6,0,P|49:119|53:163,1,132.999995941162,6|8,3:2|0:0,0:0:0:0:
44,171,14227,2,0,P|111:152|168:196,1,132.999995941162,2|10,3:2|0:0,0:0:0:0:
96,238,14700,1,2,0:0:0:0:
251,304,14858,5,2,3:2:0:0:
279,297,15016,1,2,3:0:0:0:
342,200,15174,1,10,0:0:0:0:
367,206,15332,1,2,0:0:0:0:
465,292,15490,1,2,3:2:0:0:
465,292,15805,5,10,0:0:0:0:
465,292,15963,1,0,0:0:0:0:
210,370,16121,6,0,P|211:328|184:229,1,132.999995941162,2|10,3:2|0:0,0:0:0:0:
33,148,16595,1,2,0:0:0:0:
114,172,16753,2,0,P|152:161|197:151,1,66.4999979705811,2|0,3:2|3:0,0:0:0:0:
273,59,17069,1,10,0:0:0:0:
194,0,17227,1,0,0:0:0:0:
289,53,17384,6,0,P|279:100|273:141,1,66.4999979705811,2|2,3:2|3:2,0:0:0:0:
395,195,17700,2,0,P|390:166|375:100,1,66.4999979705811,10|0,0:0|0:0,0:0:0:0:
310,229,18016,5,2,3:2:0:0:
498,298,18174,1,10,0:0:0:0:
406,384,18332,1,8,0:0:0:0:
395,369,18648,6,0,P|398:315|410:231,1,132.999995941162,6|10,3:2|0:0,0:0:0:0:
490,183,19121,2,0,P|437:188|377:111,1,132.999995941162,2|2,0:0|3:2,0:0:0:0:
287,237,19595,2,0,P|260:228|222:219,1,66.4999979705811,8|2,0:0|0:0,0:0:0:0:
109,118,19911,6,0,P|88:159|97:203,1,66.4999979705811,2|0,3:2|3:0,0:0:0:0:
39,261,20227,1,10,0:0:0:0:
150,355,20384,1,2,0:0:0:0:
220,314,20542,2,0,P|172:330|142:343,1,66.4999979705811,2|0,3:2|3:0,0:0:0:0:
342,384,20858,2,0,P|344:356|351:318,1,66.4999979705811,10|0,0:0|0:0,0:0:0:0:
253,152,21174,5,2,3:2:0:0:
286,225,21332,2,0,P|282:202|270:159,1,66.4999979705811,2|8,3:2|0:0,0:0:0:0:
454,80,21648,5,2,0:0:0:0:
425,158,21806,2,0,P|427:135|441:86,1,66.4999979705811,2|0,3:2|3:0,0:0:0:0:
290,22,22121,5,10,0:0:0:0:
370,40,22279,2,0,P|347:32|294:17,1,66.4999979705811,2|0,0:0|3:0,0:0:0:0:
166,0,22595,1,2,3:2:0:0:
336,159,22753,5,10,0:0:0:0:
40,319,23069,1,10,0:0:0:0:
40,319,23700,5,2,3:2:0:0:
127,342,23858,1,2,0:0:0:0:
229,359,24016,1,10,0:0:0:0:
34,308,24174,5,2,0:0:0:0:
167,266,24332,1,2,3:2:0:0:
293,225,24490,1,2,3:2:0:0:
208,168,24648,5,10,0:0:0:0:
161,251,24805,1,2,0:0:0:0:
11,98,24963,5,2,3:2:0:0:
35,199,25121,1,2,3:2:0:0:
196,86,25279,6,0,P|159:71|121:23,1,85.4999973907472,10|0,0:0|0:0,0:0:0:0:
22,192,25595,2,0,P|55:181|106:170,1,85.4999973907472,2|0,3:2|3:0,0:0:0:0:
292,23,25911,1,10,0:0:0:0:
377,128,26069,1,0,0:0:0:0:
263,244,26227,5,2,3:2:0:0:
183,182,26384,1,0,3:0:0:0:
273,253,26542,2,0,P|299:246|362:233,1,85.4999973907472,10|0,0:0|0:0,0:0:0:0:
437,294,26779,1,2,0:0:0:0:
419,288,26858,1,2,3:2:0:0:
351,353,27016,1,2,3:2:0:0:
273,253,27174,1,10,0:0:0:0:
361,363,27332,1,0,0:0:0:0:
172,203,27490,5,10,3:2:0:0:
235,67,27648,1,2,0:0:0:0:
74,196,27805,5,10,3:2:0:0:
211,321,27963,1,2,0:0:0:0:
419,149,28121,6,0,B|309:153|340:56|216:69,1,209.000006378174,2|8,3:2|0:0,0:0:0:0:
235,67,28595,1,0,0:0:0:0:
74,196,28753,5,2,3:2:0:0:
172,254,28911,1,2,0:0:0:0:
150,115,29069,1,10,0:0:0:0:
257,166,29227,1,2,0:0:0:0:
100,369,29384,2,0,B|32:342|32:342|68:186,1,209.000006378174,2|10,3:2|0:0,0:0:0:0:
12,129,29858,1,0,0:0:0:0:
174,12,30016,5,2,3:2:0:0:
150,115,30174,1,2,3:2:0:0:
256,228,30332,5,10,0:0:0:0:
240,327,30490,1,2,0:0:0:0:
92,188,30648,5,2,3:2:0:0:
244,87,30805,1,2,3:2:0:0:
398,258,30963,5,10,0:0:0:0:
512,190,31121,1,2,0:0:0:0:
243,337,31279,5,8,3:2:0:0:
243,337,33174,6,0,B|291:222|154:249|199:116,1,228,14|0,3:2|0:0,0:0:0:0:
281,46,33490,2,0,P|267:52|246:57,6,23.75,14|0|0|0|0|0|0,3:2|0:0|0:0|0:0|0:0|0:0|0:0,0:0:0:0:
190,115,33805,6,0,P|164:103|22:60,1,170.999994781494,6|0,3:2|0:0,0:0:0:0:
23,52,34121,2,0,B|-18:98|-18:98|0:147,1,113.999996520996,10|0,0:0|0:0,0:0:0:0:
41,284,34437,1,2,3:2:0:0:
141,196,34595,1,0,3:0:0:0:
276,329,34753,2,0,P|335:345|386:363,1,113.999996520996,10|0,0:0|0:0,0:0:0:0:
509,156,35069,6,0,P|444:171|393:190,1,113.999996520996,2|0,3:2|3:0,0:0:0:0:
128,185,35384,2,0,P|115:137|147:78,1,113.999996520996,10|0,0:0|0:0,0:0:0:0:
402,77,35700,2,0,P|342:63|225:30,1,170.999994781494,2|0,3:2|0:0,0:0:0:0:
139,165,36016,2,0,P|227:151|288:243,1,199.499993911743,10|0,0:0|0:0,0:0:0:0:
187,372,36332,6,0,P|189:348|210:245,1,113.999996520996,4|0,3:2|3:0,0:0:0:0:
402,77,36648,1,10,0:0:0:0:
339,134,36805,1,2,0:0:0:0:
471,380,36963,2,0,P|472:343|488:192,1,170.999994781494,2|0,3:2|0:0,0:0:0:0:
496,161,37279,1,10,0:0:0:0:
325,301,37437,1,2,0:0:0:0:
32,169,37595,6,0,P|118:158|171:222,1,170.999994781494,2|0,3:2|0:0,0:0:0:0:
173,275,37911,1,10,0:0:0:0:
78,301,38069,1,2,0:0:0:0:
290,31,38227,2,0,P|319:80|319:140,1,113.999996520996,2|0,3:2|3:0,0:0:0:0:
484,271,38542,2,0,P|475:340|434:375,1,113.999996520996,10|0,0:0|0:0,0:0:0:0:
78,301,38858,5,6,3:2:0:0:
178,255,39016,1,2,0:0:0:0:
370,378,39174,5,10,0:0:0:0:
491,327,39332,1,2,0:0:0:0:
253,174,39490,5,2,3:2:0:0:
279,276,39648,1,2,3:2:0:0:
512,26,39805,5,10,0:0:0:0:
477,175,39963,1,2,0:0:0:0:
225,74,40121,6,0,P|261:128|375:116,1,170.999994781494,2|0,3:2|0:0,0:0:0:0:
374,108,40437,1,10,0:0:0:0:
303,13,40595,1,2,0:0:0:0:
161,151,40753,2,0,P|155:204|155:336,1,170.999994781494,2|0,3:2|0:0,0:0:0:0:
166,384,41069,2,0,P|170:351|161:253,1,113.999996520996,10|0,0:0|0:0,0:0:0:0:
0,117,41384,5,6,3:2:0:0:
252,208,41542,1,2,3:2:0:0:
99,2,41700,2,0,P|89:45|79:160,1,113.999996520996,8|0,0:0|0:0,0:0:0:0:
271,339,42016,2,0,P|265:310|250:209,1,113.999996520996,2|0,3:2|3:0,0:0:0:0:
479,315,42332,1,10,0:0:0:0:
382,384,42490,1,2,0:0:0:0:
265,242,42648,6,0,P|289:236|378:222,1,113.999996520996,2|0,3:2|3:0,0:0:0:0:
38,171,42963,2,0,P|78:180|153:191,1,113.999996520996,14|0,0:0|0:0,0:0:0:0:
427,105,43279,2,0,P|417:52|367:15,1,113.999996520996,2|0,3:2|3:0,0:0:0:0:
461,307,43595,2,0,P|500:278|512:213,1,113.999996520996,10|0,0:0|0:0,0:0:0:0:
158,227,43911,5,14,0:0:0:0:
129,375,44069,1,0,0:0:0:0:
1,95,44227,5,10,0:0:0:0:
202,48,44384,1,0,0:0:0:0:
483,340,44542,5,10,0:0:0:0:
299,307,44700,1,0,0:0:0:0:
472,17,44858,5,10,0:0:0:0:
448,181,45016,1,2,0:0:0:0:
143,95,45174,6,0,P|107:87|29:70,1,113.999996520996,2|0,3:0|0:0,0:0:0:0:
334,19,45490,2,0,P|370:64|362:126,1,113.999996520996,10|0,0:0|0:0,0:0:0:0:
108,220,45805,2,0,P|155:206|227:188,1,113.999996520996,2|0,3:2|0:0,0:0:0:0:
502,384,46121,2,0,P|451:370|384:344,1,113.999996520996,10|0,0:0|0:0,0:0:0:0:
108,220,46437,5,14,0:0:0:0:
88,384,46595,1,0,0:0:0:0:
418,188,46753,5,10,0:0:0:0:
396,8,46911,1,0,0:0:0:0:
25,259,47069,5,10,0:0:0:0:
197,297,47227,1,0,0:0:0:0:
492,82,47384,5,10,0:0:0:0:
319,54,47542,1,2,0:0:0:0:
490,368,47700,6,0,P|488:347|475:248,1,113.999996520996,2|0,3:2|3:0,0:0:0:0:
238,85,48016,2,0,P|227:176|225:210,1,113.999996520996,14|0,0:0|0:0,0:0:0:0:
375,118,48332,5,2,3:2:0:0:
85,262,48490,1,8,0:0:0:0:
85,262,48569,1,8,0:0:0:0:
85,262,48648,1,10,0:0:0:0:
206,384,48805,1,10,0:0:0:0:
423,51,48963,6,0,P|398:253|397:277,1,227.999993041992,6|8,3:2|0:0,0:0:0:0:
77,139,49437,1,2,0:0:0:0:
281,233,49595,2,0,B|175:228|213:116|90:131,1,227.999993041992,2|8,3:2|0:0,0:0:0:0:
54,341,50069,1,2,0:0:0:0:
8,90,50227,6,0,P|22:169|34:263,1,170.999994781494,2|0,3:2|0:0,0:0:0:0:
157,28,50542,1,10,0:0:0:0:
254,123,50700,1,2,0:0:0:0:
401,27,50858,2,0,P|425:19|529:5,1,113.999996520996,2|0,3:2|3:0,0:0:0:0:
231,214,51174,1,8,0:0:0:0:
346,100,51332,1,2,0:0:0:0:
478,215,51490,6,0,P|506:303|390:371,1,228,6|0,3:2|0:0,0:0:0:0:
197,308,51805,6,0,B|227:311|274:321|274:321|325:270|325:270|359:279|410:285,1,228,14|0,0:0|0:0,0:0:0:0:
170,124,52121,6,0,B|145:51|245:-40|291:94|229:154,1,228,6|0,3:2|0:0,0:0:0:0:
14,196,52437,6,0,P|36:180|238:152,1,228,14|0,0:0|0:0,0:0:0:0:
411,167,52753,6,0,B|313:143|376:50|250:53,1,199.499993911743,2|0,3:2|0:0,0:0:0:0:
251,59,53069,1,10,0:0:0:0:
100,213,53227,1,2,0:0:0:0:
243,143,53384,1,10,0:0:0:0:
6,15,53542,1,0,3:0:0:0:
80,309,53700,6,0,P|81:280|90:224,1,85.4999973907472,14|0,0:0|0:0,0:0:0:0:
112,126,54016,5,6,3:2:0:0:
0,205,54174,1,2,0:0:0:0:
0,205,54253,1,2,0:0:0:0:
0,205,54332,1,10,0:0:0:0:
188,326,54490,1,2,0:0:0:0:
335,165,54648,2,0,P|350:226|359:289,1,104.500003189087,2|0,3:2|3:0,0:0:0:0:
481,177,54963,1,10,0:0:0:0:
282,66,55121,1,2,0:0:0:0:
350,274,55279,6,0,P|309:260|237:242,1,104.500003189087,2|0,3:2|3:0,0:0:0:0:
136,111,55595,2,0,P|145:77|168:6,1,104.500003189087,10|0,0:0|0:0,0:0:0:0:
341,283,55911,2,0,P|300:269|228:251,1,104.500003189087,2|0,3:2|3:0,0:0:0:0:
505,64,56227,2,0,P|509:132|508:176,1,104.500003189087,10|0,0:0|0:0,0:0:0:0:
341,283,56542,5,6,3:2:0:0:
231,119,56700,1,2,0:0:0:0:
231,119,56779,1,2,0:0:0:0:
231,119,56858,1,10,0:0:0:0:
321,22,57016,1,2,0:0:0:0:
479,168,57174,2,0,P|416:182|367:192,1,104.500003189087,2|0,3:2|3:0,0:0:0:0:
243,126,57490,1,10,0:0:0:0:
158,229,57648,1,2,0:0:0:0:
64,61,57805,6,0,P|129:52|177:78,1,104.500003189087,2|0,3:2|0:0,0:0:0:0:
12,287,58121,2,0,P|4:241|45:178,1,104.500003189087,10|0,0:0|0:0,0:0:0:0:
244,336,58437,1,2,3:2:0:0:
158,229,58595,1,0,3:0:0:0:
284,11,58753,6,0,P|290:163|288:199,1,185.249991519928,8|0,0:0|0:0,0:0:0:0:
283,241,59069,5,6,3:2:0:0:
383,165,59227,1,2,0:0:0:0:
383,165,59305,1,2,0:0:0:0:
383,165,59384,1,10,0:0:0:0:
475,321,59542,1,2,0:0:0:0:
225,384,59700,2,0,P|222:361|203:250,1,104.500003189087,2|0,3:2|3:0,0:0:0:0:
200,130,60016,1,10,0:0:0:0:
71,249,60174,1,2,0:0:0:0:
31,140,60332,6,0,P|42:191|51:242,1,104.500003189087,2|0,3:2|3:0,0:0:0:0:
265,97,60648,2,0,P|255:148|249:200,1,104.500003189087,10|0,0:0|0:0,0:0:0:0:
23,22,60963,2,0,P|34:73|43:124,1,104.500003189087,2|0,3:2|3:0,0:0:0:0:
324,44,61279,2,0,P|283:46|224:-18,1,104.500003189087,10|0,0:0|0:0,0:0:0:0:
138,140,61595,5,6,3:2:0:0:
345,254,61753,1,2,0:0:0:0:
345,254,61832,1,2,0:0:0:0:
345,254,61911,1,10,0:0:0:0:
255,299,62069,1,2,0:0:0:0:
462,154,62227,2,0,P|447:238|444:269,1,104.500003189087,2|0,3:2|3:0,0:0:0:0:
249,100,62542,1,10,0:0:0:0:
368,159,62700,1,2,0:0:0:0:
337,50,62858,5,2,3:2:0:0:
154,193,63016,1,2,3:2:0:0:
154,193,63095,1,2,0:0:0:0:
154,193,63174,1,6,0:0:0:0:
45,123,63332,1,2,0:0:0:0:
183,18,63490,5,2,3:2:0:0:
262,97,63648,1,2,3:2:0:0:
4,226,63805,5,10,0:0:0:0:
229,336,63963,1,2,0:0:0:0:
156,384,64121,6,0,P|147:365|140:227,1,142.5,6|0,3:2|0:0,0:0:0:0:
232,215,64753,2,0,P|238:193|248:158,1,47.5,2|0,0:0|0:0,0:0:0:0:
299,102,65069,1,0,0:0:0:0:
291,90,65227,1,0,0:0:0:0:
173,8,65384,6,0,P|144:18|97:28,1,71.25,2|0,0:0|0:0,0:0:0:0:
64,47,65700,2,0,P|32:37|2:29,1,47.5,2|0,0:0|0:0,0:0:0:0:
118,110,66016,1,2,0:0:0:0:
122,125,66174,1,0,0:0:0:0:
35,178,66332,2,0,P|30:207|29:228,1,47.5,2|0,0:0|0:0,0:0:0:0:
176,262,66648,5,2,0:0:0:0:
187,268,66805,2,0,P|196:337|197:369,1,95,0|0,0:0|0:0,0:0:0:0:
99,337,67279,2,0,P|94:378|93:403,1,47.5,2|0,0:0|0:0,0:0:0:0:
266,246,67595,1,0,0:0:0:0:
272,235,67753,1,0,0:0:0:0:
198,182,67911,6,0,P|175:172|143:164,1,47.5,2|2,0:0|0:0,0:0:0:0:
315,137,68227,2,0,P|339:126|377:116,1,47.5,2|0,0:0|0:0,0:0:0:0:
222,21,68542,1,2,0:0:0:0:
266,246,68700,1,8,0:0:0:0:
225,34,68858,1,8,0:0:0:0:
161,98,69016,1,0,0:0:0:0:
315,137,69174,6,0,P|354:129|411:118,1,95,2|2,0:0|0:0,0:0:0:0:
240,203,69648,2,0,P|259:208|293:218,1,47.5,2|0,0:0|0:0,0:0:0:0:
153,107,69963,1,2,0:0:0:0:
161,98,70121,2,0,P|180:93|216:85,1,47.5,2|0,0:0|0:0,0:0:0:0:
318,28,70437,5,2,0:0:0:0:
293,34,70595,1,0,0:0:0:0:
256,117,70753,1,2,0:0:0:0:
345,144,70911,1,0,0:0:0:0:
210,231,71069,2,0,P|207:277|207:299,1,47.5,2|0,0:0|0:0,0:0:0:0:
368,297,71384,2,0,P|371:328|375:365,1,47.5,2|0,0:0|0:0,0:0:0:0:
227,375,71700,5,2,0:0:0:0:
215,353,71858,2,0,P|189:330|117:340,1,95,2|2,0:0|0:0,0:0:0:0:
44,322,72332,2,0,P|49:354|52:380,1,47.5,2|0,0:0|0:0,0:0:0:0:
0,226,72648,5,2,0:0:0:0:
62,229,72805,2,0,P|40:222|4:213,1,47.5,2|0,0:0|0:0,0:0:0:0:
151,143,73121,5,2,0:0:0:0:
215,140,73279,2,0,P|184:146|163:150,1,47.5,2|0,0:0|0:0,0:0:0:0:
338,274,73595,1,2,0:0:0:0:
338,274,74227,5,6,3:2:0:0:
361,165,74384,1,2,0:0:0:0:
383,55,74542,1,8,0:0:0:0:
329,258,74700,5,2,0:0:0:0:
430,289,74858,1,2,3:2:0:0:
223,212,75016,5,2,3:2:0:0:
351,173,75174,1,10,0:0:0:0:
470,140,75332,1,2,0:0:0:0:
373,38,75490,5,2,3:2:0:0:
340,66,75648,1,2,3:2:0:0:
250,6,75805,1,10,0:0:0:0:
192,97,75963,1,2,0:0:0:0:
68,7,76121,2,0,P|94:94|105:193,1,170.999994781494,2|10,3:2|0:0,0:0:0:0:
104,173,76595,1,0,0:0:0:0:
9,353,76753,6,0,P|35:302|120:335,1,128.249996086121,6|2,3:2|0:0,0:0:0:0:
174,365,77069,2,0,P|200:355|266:337,1,85.4999973907472,10|0,0:0|0:0,0:0:0:0:
338,261,77305,1,2,0:0:0:0:
316,251,77384,1,2,3:2:0:0:
270,345,77542,1,0,3:0:0:0:
408,211,77700,1,10,0:0:0:0:
218,148,77858,1,0,0:0:0:0:
347,11,78016,5,10,3:2:0:0:
310,224,78174,1,2,0:0:0:0:
155,89,78332,1,10,3:2:0:0:
299,210,78490,1,2,0:0:0:0:
459,73,78648,2,0,P|409:53|284:18,1,170.999994781494,2|12,3:2|0:0,0:0:0:0:
224,154,79121,1,0,0:0:0:0:
400,354,79279,5,6,3:2:0:0:
412,265,79437,1,2,0:0:0:0:
256,380,79595,5,10,0:0:0:0:
301,193,79753,1,2,0:0:0:0:
512,340,79911,2,0,P|504:305|488:173,1,128.249996086121,2|0,3:2|0:0,0:0:0:0:
483,192,80227,1,10,0:0:0:0:
366,101,80384,1,0,0:0:0:0:
190,260,80542,5,2,3:2:0:0:
10,184,80700,1,2,3:2:0:0:
84,55,80858,1,14,0:0:0:0:
128,339,81016,1,2,0:0:0:0:
0,179,81174,5,2,3:2:0:0:
199,29,81332,1,2,3:2:0:0:
358,221,81490,5,10,0:0:0:0:
502,140,81648,1,2,0:0:0:0:
199,29,81805,5,10,3:2:0:0:
123,69,81963,1,2,0:0:0:0:
221,165,82121,1,2,0:0:0:0:
258,88,82279,1,2,0:0:0:0:
137,153,82437,1,2,0:0:0:0:
199,29,82753,5,2,0:0:0:0:
221,165,82911,1,2,0:0:0:0:
199,29,83069,5,2,0:0:0:0:
440,220,83384,1,10,3:2:0:0:
145,364,83700,1,10,3:2:0:0:
145,364,84016,6,0,B|185:366|203:335|203:335|186:346|167:347,1,99.7499969558717,0|0,0:0|0:0,0:0:0:0:
95,283,84332,6,0,P|105:204|119:98,1,185.249991519928,6|0,3:2|0:0,0:0:0:0:
210,118,84648,2,0,B|251:173|251:173|217:222,1,123.499994346619,10|0,0:0|0:0,0:0:0:0:
4,105,84963,2,0,P|38:98|148:70,1,123.499994346619,2|0,3:2|3:0,0:0:0:0:
249,325,85279,2,0,P|241:285|231:191,1,123.499994346619,10|0,0:0|0:0,0:0:0:0:
484,5,85595,6,0,P|471:85|466:139,1,123.499994346619,2|0,3:2|3:0,0:0:0:0:
249,325,85911,2,0,P|241:285|231:191,1,123.499994346619,10|0,0:0|0:0,0:0:0:0:
29,370,86227,2,0,P|118:334|191:396,1,185.249991519928,2|0,3:2|0:0,0:0:0:0:
315,384,86542,2,0,B|374:345|374:345|326:193,1,199.499993911743,10|0,0:0|0:0,0:0:0:0:
353,143,86858,6,0,P|281:144|246:213,1,123.499994346619,4|0,3:2|3:0,0:0:0:0:
437,211,87174,1,10,0:0:0:0:
201,272,87332,1,2,0:0:0:0:
208,82,87490,2,0,P|195:222|193:282,1,185.249991519928,2|0,3:2|0:0,0:0:0:0:
194,352,87805,1,10,0:0:0:0:
50,162,87963,1,2,0:0:0:0:
287,237,88121,6,0,B|383:217|336:150|454:154,1,185.249991519928,2|0,3:2|0:0,0:0:0:0:
512,196,88437,1,10,0:0:0:0:
283,148,88595,1,2,0:0:0:0:
473,8,88753,2,0,P|461:91|457:158,1,123.499994346619,2|0,3:2|3:0,0:0:0:0:
265,343,89069,2,0,P|254:287|244:220,1,123.499994346619,10|0,0:0|0:0,0:0:0:0:
21,7,89384,5,6,3:2:0:0:
29,160,89542,1,2,0:0:0:0:
283,148,89700,5,10,0:0:0:0:
164,94,89858,1,2,0:0:0:0:
0,258,90016,5,2,3:2:0:0:
126,196,90174,1,2,3:2:0:0:
307,366,90332,5,10,0:0:0:0:
138,287,90490,1,2,0:0:0:0:
370,94,90648,6,0,P|432:90|491:169,1,123.499994346619,2|0,3:2|3:0,0:0:0:0:
512,294,90963,1,10,0:0:0:0:
229,250,91121,1,2,0:0:0:0:
417,199,91279,2,0,P|340:208|228:237,1,185.249991519928,2|0,3:2|0:0,0:0:0:0:
155,298,91595,2,0,B|122:250|122:250|170:175,1,123.499994346619,10|0,0:0|0:0,0:0:0:0:
54,366,91911,5,6,3:2:0:0:
267,325,92069,1,2,0:0:0:0:
235,130,92227,1,8,0:0:0:0:
14,175,92384,1,0,0:0:0:0:
139,251,92542,5,2,3:2:0:0:
186,53,92700,1,0,3:0:0:0:
396,98,92858,1,10,0:0:0:0:
356,302,93016,1,2,0:0:0:0:
128,141,93174,6,0,P|129:88|185:35,1,123.499994346619,2|0,3:2|3:0,0:0:0:0:
165,340,93490,2,0,P|112:343|57:260,1,123.499994346619,14|0,0:0|0:0,0:0:0:0:
278,206,93805,2,0,P|217:220|158:235,1,123.499994346619,2|0,3:2|3:0,0:0:0:0:
512,153,94121,2,0,P|469:140|369:120,1,123.499994346619,10|0,0:0|0:0,0:0:0:0:
505,316,94437,5,14,0:0:0:0:
402,336,94595,1,0,0:0:0:0:
377,34,94753,5,10,0:0:0:0:
235,14,94911,1,0,0:0:0:0:
308,368,95069,5,10,0:0:0:0:
140,384,95227,1,0,0:0:0:0:
216,33,95384,5,10,0:0:0:0:
9,0,95542,1,2,0:0:0:0:
20,333,95700,6,0,P|23:300|21:201,1,113.999996520996,2|0,3:0|0:0,0:0:0:0:
259,131,96016,2,0,P|272:98|321:13,1,113.999996520996,10|0,0:0|0:0,0:0:0:0:
20,333,96332,6,0,P|23:300|21:201,1,113.999996520996,2|0,3:2|0:0,0:0:0:0:
340,198,96648,2,0,P|322:259|257:270,1,113.999996520996,10|0,0:0|0:0,0:0:0:0:
50,22,96963,5,14,0:0:0:0:
183,6,97121,1,0,0:0:0:0:
490,122,97279,5,10,0:0:0:0:
330,96,97437,1,0,0:0:0:0:
26,246,97595,5,10,0:0:0:0:
224,203,97753,1,0,0:0:0:0:
491,375,97911,5,10,0:0:0:0:
268,316,98069,1,2,0:0:0:0:
417,159,98227,6,0,P|439:117|420:41,1,113.999996520996,2|0,3:2|3:0,0:0:0:0:
206,185,98542,2,0,P|282:196|351:214,1,113.999996520996,14|0,0:0|0:0,0:0:0:0:
475,236,98858,1,2,3:2:0:0:
373,381,99016,1,8,0:0:0:0:
373,381,99095,1,8,0:0:0:0:
373,381,99174,1,10,0:0:0:0:
172,278,99332,1,10,0:0:0:0:
326,72,99490,6,0,P|309:212|300:314,1,227.999993041992,6|8,3:2|0:0,0:0:0:0:
400,183,99963,1,2,0:0:0:0:
181,288,100121,2,0,B|62:261|140:170|-27:186,1,227.999993041992,2|8,3:2|0:0,0:0:0:0:
71,337,100595,1,2,0:0:0:0:
243,164,100753,6,0,P|311:158|405:261,1,170.999994781494,2|0,3:2|0:0,0:0:0:0:
406,296,101069,1,10,0:0:0:0:
293,354,101227,1,2,0:0:0:0:
508,384,101384,2,0,P|504:342|495:256,1,113.999996520996,2|0,3:2|3:0,0:0:0:0:
473,42,101700,1,8,0:0:0:0:
290,242,101858,1,2,0:0:0:0:
432,172,102016,5,6,3:2:0:0:
264,74,102174,1,0,0:0:0:0:
264,74,102253,1,0,0:0:0:0:
264,74,102332,1,14,0:0:0:0:
169,217,102490,1,0,0:0:0:0:
94,83,102648,5,6,3:2:0:0:
325,148,102805,1,0,0:0:0:0:
267,364,102963,1,14,0:0:0:0:
37,309,103121,1,0,0:0:0:0:
204,51,103279,6,0,P|189:129|180:205,1,156.750004783631,2|0,3:2|0:0,0:0:0:0:
170,282,103595,1,10,0:0:0:0:
313,161,103753,1,2,0:0:0:0:
51,226,103911,2,0,P|42:174|31:124,1,104.500003189087,10|0,0:0|3:0,0:0:0:0:
34,369,104227,6,0,P|65:315|192:337,1,185.249991519928,14|0,0:0|0:0,0:0:0:0:
248,373,104542,5,6,3:2:0:0:
375,324,104700,1,2,0:0:0:0:
497,274,104858,1,8,0:0:0:0:
452,379,105016,5,2,0:0:0:0:
265,283,105174,2,0,P|260:239|254:147,1,104.500003189087,2|0,3:2|3:0,0:0:0:0:
397,32,105490,5,10,0:0:0:0:
503,119,105648,2,0,P|512:206|512:245,1,104.500003189087,2|0,0:0|3:0,0:0:0:0:
150,110,105963,5,2,3:2:0:0:
60,197,106121,2,0,P|51:263|49:310,1,104.500003189087,10|0,0:0|0:0,0:0:0:0:
499,323,106437,5,2,3:2:0:0:
364,384,106595,2,0,P|322:371|239:349,1,104.500003189087,2|8,3:2|0:0,0:0:0:0:
0,138,106911,5,2,0:0:0:0:
136,237,107069,2,0,P|169:227|259:206,1,104.500003189087,6|0,3:2|3:0,0:0:0:0:
510,98,107384,5,10,0:0:0:0:
448,217,107542,2,0,P|422:295|415:347,1,104.500003189087,2|0,0:0|3:0,0:0:0:0:
261,6,107858,5,2,0:0:0:0:
116,62,108016,2,0,P|57:94|3:137,1,104.500003189087,10|0,0:0|0:0,0:0:0:0:
359,235,108332,5,2,3:2:0:0:
144,318,108490,1,2,3:2:0:0:
217,170,108648,1,8,0:0:0:0:
317,374,108805,1,2,0:0:0:0:
375,222,108963,6,0,P|405:208|512:207,1,104.500003189087,2|0,3:2|3:0,0:0:0:0:
234,303,109279,6,0,P|230:252|249:62,1,185.249991519928,10|0,0:0|0:0,0:0:0:0:
270,43,109595,5,6,3:2:0:0:
408,121,109753,1,2,3:2:0:0:
365,279,109911,1,8,0:0:0:0:
317,170,110069,5,2,0:0:0:0:
497,72,110227,2,0,P|511:156|515:218,1,104.500003189087,2|0,3:2|3:0,0:0:0:0:
281,373,110542,5,10,0:0:0:0:
115,313,110700,2,0,P|63:294|-31:272,1,104.500003189087,2|0,0:0|3:0,0:0:0:0:
416,166,111016,5,2,3:2:0:0:
252,199,111174,2,0,P|190:212|122:229,1,104.500003189087,10|0,0:0|0:0,0:0:0:0:
345,80,111490,5,2,3:2:0:0:
162,29,111648,2,0,P|118:16|34:-7,1,104.500003189087,2|8,3:2|0:0,0:0:0:0:
260,188,111963,2,0,P|267:160|283:107,1,52.2500015945435,2|0,0:0|0:0,0:0:0:0:
106,104,112121,6,0,P|121:185|135:290,1,156.750004783631,6|0,3:2|0:0,0:0:0:0:
146,348,112437,1,10,0:0:0:0:
361,239,112595,1,2,0:0:0:0:
228,224,112753,1,0,3:0:0:0:
305,354,112911,1,2,3:2:0:0:
96,194,113069,1,10,0:0:0:0:
309,371,113227,1,0,0:0:0:0:
405,95,113384,6,0,P|386:194|378:267,1,156.750004783631,2|0,3:2|0:0,0:0:0:0:
483,369,113700,6,0,P|475:341|464:302,1,52.2500015945435,14|0,0:0|0:0,0:0:0:0:
217,237,113858,2,0,P|238:227|294:210,1,52.2500015945435,0|0,0:0|0:0,0:0:0:0:
486,164,114016,5,10,3:2:0:0:
376,268,114174,1,10,0:0:0:0:
204,54,114332,1,10,0:0:0:0:
23,218,114490,1,10,0:0:0:0:
368,174,114648,5,0,0:0:0:0:
368,174,114805,1,0,0:0:0:0:
97,33,114963,6,0,B|168:-15|168:-15|145:136,1,213.750008153916,14|0,0:0|0:0,0:0:0:0:
111,224,115279,2,0,P|123:273|128:306,1,52.2500015945435,0|0,3:0|0:0,0:0:0:0:
80,374,115437,2,0,P|129:307|241:340,1,209.000006378174,2|0,3:2|0:0,0:0:0:0:
463,130,115911,6,0,B|396:142|396:142|337:96|337:96|270:110,1,209.000006378174,2|8,3:2|0:0,0:0:0:0:
478,375,116384,1,2,0:0:0:0:
469,372,116463,1,2,0:0:0:0:
460,369,116542,2,0,P|453:328|441:249,1,104.500003189087,2|0,3:2|3:0,0:0:0:0:
419,56,116858,1,10,0:0:0:0:
198,138,117016,2,0,P|223:145|247:155,1,52.2500015945435,2|0,0:0|0:0,0:0:0:0:
360,225,117174,6,0,B|283:236|313:297|218:314,1,156.750004783631,6|0,3:2|0:0,0:0:0:0:
156,289,117490,1,10,0:0:0:0:
280,384,117648,1,0,0:0:0:0:
336,141,117805,5,2,3:2:0:0:
219,226,117963,1,2,3:2:0:0:
69,72,118121,1,10,0:0:0:0:
356,0,118279,6,0,P|335:98|325:190,1,156.750004783631,2|0,0:0|0:0,0:0:0:0:
322,236,118595,1,0,0:0:0:0:
450,210,118753,5,10,0:0:0:0:
200,153,118911,1,2,0:0:0:0:
351,140,119069,5,2,3:2:0:0:
273,383,119227,1,2,3:2:0:0:
35,298,119384,1,10,0:0:0:0:
118,70,119542,1,0,0:0:0:0:
146,384,119700,6,0,B|176:355|169:308|169:308|137:281|137:281|126:236|177:185,1,199.499993911743,6|0,3:2|0:0,0:0:0:0:
208,149,120016,1,8,0:0:0:0:
367,267,120174,2,0,B|305:255|305:255|302:249|302:249|227:235,1,132.999995941162,2|0,0:0|3:0,0:0:0:0:
356,53,120490,2,0,P|370:108|374:131,1,66.4999979705811,0|0,3:0|0:0,0:0:0:0:
502,103,120648,2,0,P|485:217|478:309,1,199.499993911743,10|0,0:0|0:0,0:0:0:0:
469,379,120963,5,0,3:0:0:0:
239,237,121121,2,0,B|189:283|189:283|215:344,1,132.999995941162,2|8,0:0|0:0,0:0:0:0:
335,223,121437,1,2,0:0:0:0:
352,172,121516,1,2,0:0:0:0:
316,132,121595,1,2,3:2:0:0:
74,218,121753,1,0,3:0:0:0:
206,67,121911,6,0,P|223:184|232:251,1,185.249991519928,8|0,0:0|0:0,0:0:0:0:
248,348,122227,6,0,P|199:356|137:304,1,123.499994346619,4|0,3:2|3:0,0:0:0:0:
440,272,122542,2,0,P|474:318|455:388,1,123.499994346619,14|0,0:1|0:0,0:0:0:0:
359,159,122858,2,0,P|390:149|488:136,1,123.499994346619,2|0,3:2|3:0,0:0:0:0:
147,212,123174,2,0,P|187:222|282:241,1,123.499994346619,14|0,0:1|0:0,0:0:0:0:
39,261,123490,6,0,P|30:199|83:160,1,123.499994346619,4|0,3:2|3:0,0:0:0:0:
349,144,123805,2,0,B|269:126|316:59|199:37,1,185.249991519928,14|0,0:1|0:0,0:0:0:0:
125,47,124121,5,10,0:0:0:0:
58,245,124279,5,10,0:0:0:0:
222,384,124437,5,10,0:0:0:0:
426,332,124595,5,10,0:0:0:0:
487,149,124753,6,0,P|443:138|347:119,1,123.499994346619,6|0,3:2|0:0,0:0:0:0:
176,269,125069,2,0,P|204:258|312:237,1,123.499994346619,10|0,0:0|0:0,0:0:0:0:
131,93,125384,1,2,3:2:0:0:
303,0,125542,1,0,0:0:0:0:
409,215,125700,2,0,P|398:314|397:343,1,123.499994346619,10|0,0:0|0:0,0:0:0:0:
195,175,126016,6,0,B|286:168|256:85|370:105,1,185.249991519928,2|0,3:2|0:0,0:0:0:0:
421,195,126332,2,0,B|468:164|468:164|440:82,1,123.499994346619,10|0,0:0|0:0,0:0:0:0:
125,13,126648,2,0,P|105:198|103:231,1,185.249991519928,2|0,3:2|0:0,0:0:0:0:
205,196,126963,2,0,P|218:272|224:335,1,123.499994346619,8|0,0:0|0:0,0:0:0:0:
0,292,127279,5,4,3:2:0:0:
147,368,127437,1,2,0:0:0:0:
320,239,127595,1,10,0:0:0:0:
486,336,127753,1,2,0:0:0:0:
75,209,127911,5,2,3:2:0:0:
313,222,128069,1,2,0:0:0:0:
365,384,128227,1,10,0:0:0:0:
197,91,128384,5,2,0:0:0:0:
387,300,128542,1,2,3:2:0:0:
387,300,128700,1,0,0:0:0:0:
488,172,128858,5,10,0:0:0:0:
203,280,129016,1,2,0:0:0:0:
489,379,129174,6,0,P|485:356|469:229,1,123.499994346619,2|0,3:2|0:0,0:0:0:0:
181,110,129490,2,0,B|265:108|242:17|353:31,1,185.249991519928,10|0,0:0|0:0,0:0:0:0:
432,62,129805,5,6,3:2:0:0:
343,109,129963,1,0,0:0:0:0:
373,332,130121,5,10,0:0:0:0:
274,270,130279,1,0,0:0:0:0:
512,189,130437,2,0,P|426:166|248:137,1,246.999988693238,2|8,3:2|0:0,0:0:0:0:
22,119,130911,1,2,0:0:0:0:
229,63,131069,5,2,3:2:0:0:
144,260,131227,1,2,0:0:0:0:
13,7,131384,2,0,P|30:100|31:135,1,123.499994346619,10|0,0:0|0:0,0:0:0:0:
0,284,131700,2,0,P|63:256|149:332,1,185.249991519928,2|0,3:2|0:0,0:0:0:0:
225,269,132016,2,0,P|241:343|218:390,1,123.499994346619,10|0,0:0|0:0,0:0:0:0:
50,167,132332,6,0,P|140:141|298:105,1,246.999988693238,6|8,3:2|0:0,0:0:0:0:
170,22,132805,1,2,0:0:0:0:
368,158,132963,2,0,P|354:249|352:290,1,123.499994346619,2|0,3:2|0:0,0:0:0:0:
469,159,133279,1,10,0:0:0:0:
232,260,133437,1,0,0:0:0:0:
425,379,133595,6,0,P|408:336|283:348,1,170.999994781494,2|0,3:2|0:0,0:0:0:0:
243,384,133911,1,14,0:0:0:0:
98,290,134069,1,2,0:0:0:0:
258,134,134227,6,0,P|249:202|246:247,1,113.999996520996,2|8,3:2|0:3,0:0:0:0:
61,112,134542,2,0,P|55:75|35:-44,1,113.999996520996,10|4,0:3|0:3,0:0:0:0:
0,243,134858,5,4,3:2:0:0:
151,150,135016,1,2,0:0:0:0:
204,257,135174,1,10,0:0:0:0:
224,102,135332,1,2,0:0:0:0:
82,295,135490,5,2,3:2:0:0:
252,379,135648,1,2,3:2:0:0:
371,215,135805,5,10,0:0:0:0:
512,274,135963,1,0,0:0:0:0:
275,381,136121,5,2,3:2:0:0:
361,230,136279,1,2,3:2:0:0:
260,100,136437,1,10,0:0:0:0:
448,332,136595,5,2,0:0:0:0:
241,261,136753,2,0,P|191:245|71:214,1,170.999994781494,2|0,3:2|0:0,0:0:0:0:
13,269,137069,2,0,P|-3:247|31:152,1,113.999996520996,8|0,0:0|0:0,0:0:0:0:
218,381,137384,5,4,3:2:0:0:
297,160,137542,1,2,3:2:0:0:
170,213,137700,1,10,0:0:0:0:
324,307,137858,1,2,0:0:0:0:
512,166,138016,2,0,P|490:270|486:308,1,113.999996520996,2|0,3:2|3:0,0:0:0:0:
297,160,138332,5,10,0:0:0:0:
486,54,138490,1,0,0:0:0:0:
306,140,138648,5,2,3:2:0:0:
70,51,138805,2,0,P|87:129|101:190,1,113.999996520996,2|8,3:2|0:0,0:0:0:0:
210,0,139121,5,2,0:0:0:0:
112,152,139279,2,0,P|88:304|86:344,1,170.999994781494,2|0,3:2|0:0,0:0:0:0:
210,84,139595,1,10,0:0:0:0:
0,198,139753,1,2,0:0:0:0:
192,378,139911,6,0,P|274:311|423:354,1,246.999988693238,6|8,3:2|0:0,0:0:0:0:
512,155,140384,1,2,0:0:0:0:
320,33,140542,2,0,P|309:118|306:172,1,123.499994346619,2|0,3:2|3:0,0:0:0:0:
430,205,140858,1,10,0:0:0:0:
314,21,141016,1,0,0:0:0:0:
120,140,141174,6,0,B|219:148|170:221|268:238,1,170.999994781494,6|0,3:2|0:0,0:0:0:0:
333,264,141490,1,8,0:0:0:0:
261,106,141648,1,2,0:0:0:0:
74,335,141805,2,0,P|78:309|105:208,1,113.999996520996,2|0,3:2|3:0,0:0:0:0:
368,170,142121,1,12,0:0:0:0:
235,245,142279,1,2,0:0:0:0:
49,113,142437,5,6,3:2:0:0:
240,50,142595,5,0,3:0:0:0:
359,171,142753,5,8,0:0:0:0:
313,282,142911,5,2,0:0:0:0:
231,318,143069,6,0,B|342:278|303:408|425:378,1,209.000006378174,2|8,3:2|0:0,0:0:0:0:
504,311,143542,1,2,0:0:0:0:
355,160,143700,6,0,P|402:107|434:184,1,170.999994781494,2|0,3:2|0:0,0:0:0:0:
363,246,144016,1,12,0:0:0:0:
201,155,144174,2,0,P|184:158|157:167,1,33.2499989852906,0|0,0:0|0:0,0:0:0:0:
0,164,144332,6,0,P|81:186|171:204,1,170.999994781494,10|12,0:0|0:0,0:0:0:0:
103,275,144805,1,2,0:0:0:0:
274,104,144963,1,6,3:2:0:0:
256,64,150016,6,0,P|252:152|252:177,1,95,2|0,0:0|0:0,0:0:0:0:
251,158,150648,1,2,0:0:0:0:
451,299,150963,1,2,0:0:0:0:
221,384,151279,6,0,P|225:359|244:321,2,47.5,2|0|0,0:0|0:0|0:0,0:0:0:0:
86,259,151911,2,0,P|101:242|131:220,2,47.5,0|0|0,0:0|0:0|0:0,0:0:0:0:
13,364,152542,6,0,P|47:356|119:341,1,95,2|0,0:0|0:0,0:0:0:0:
105,343,153174,1,2,0:0:0:0:
276,163,153490,1,2,0:0:0:0:
121,29,153805,6,0,P|118:59|126:97,2,47.5,2|0|0,0:0|0:0|0:0,0:0:0:0:
0,138,154437,2,0,P|19:155|56:173,2,47.5,0|0|0,0:0|0:0|0:0,0:0:0:0:
268,321,155069,6,0,P|270:283|277:244,1,76,2|0,3:2|0:0,0:0:0:0:
163,307,155384,2,0,P|165:269|172:230,1,76,0|0,3:0|0:0,0:0:0:0:
0,99,155700,2,0,P|7:136|13:173,1,76,2|0,3:2|0:0,0:0:0:0:
103,80,156016,2,0,P|110:117|116:154,1,76,2|0,3:2|0:0,0:0:0:0:
16,337,156332,5,2,3:2:0:0:
16,337,156490,1,0,0:0:0:0:
16,337,156648,2,0,P|56:345|91:383,1,76,0|0,3:0|0:0,0:0:0:0:
165,286,156963,5,0,3:0:0:0:
165,286,157121,1,0,0:0:0:0:
165,286,157279,2,0,P|196:278|243:237,1,76,0|0,3:0|0:0,0:0:0:0:
405,301,157595,6,0,P|415:337|420:375,1,76,2|0,3:2|0:0,0:0:0:0:
497,289,157911,2,0,P|507:325|512:363,1,76,0|0,3:0|0:0,0:0:0:0:
254,216,158227,2,0,P|243:252|238:290,1,76,2|0,3:2|0:0,0:0:0:0:
162,204,158543,2,0,P|151:240|146:278,1,76,2|0,3:2|0:0,0:0:0:0:
299,86,158858,6,0,P|304:57|338:20,1,76,2|0,3:2|0:0,0:0:0:0:
331,161,159174,2,0,P|302:130|300:76,1,76,2|0,3:2|0:0,0:0:0:0:
415,184,159490,2,0,P|382:189|339:174,1,76,2|0,3:2|0:0,0:0:0:0:
470,128,159805,2,0,P|457:165|424:189,1,76,2|0,3:2|0:0,0:0:0:0:
284,289,160121,6,0,P|272:285|252:281,1,28.5,0|0,3:0|0:0,0:0:0:0:
181,326,160437,6,0,P|123:331|67:351,1,113.999996520996,6|0,3:2|0:0,0:0:0:0:
17,172,160753,6,0,P|20:159|23:141,1,28.5,0|0,3:0|0:0,0:0:0:0:
121,111,161069,6,0,P|109:68|98:-7,1,113.999996520996,6|0,3:2|0:0,0:0:0:0:
283,122,161384,6,0,P|273:138|271:150,1,28.5,0|0,3:0|0:0,0:0:0:0:
148,220,161700,6,0,P|148:272|176:331,1,113.999996520996,6|0,3:2|0:0,0:0:0:0:
420,384,162016,6,0,P|430:369|433:355,1,28.5,0|0,3:0|0:0,0:0:0:0:
512,304,162332,6,0,P|520:277|506:189,1,113.999996520996,6|0,3:2|0:0,0:0:0:0:
198,116,162648,5,2,3:2:0:0:
232,192,162806,5,2,0:0:0:0:
321,210,162964,5,6,3:2:0:0:
389,156,163121,5,2,0:0:0:0:
256,56,163279,5,2,3:2:0:0:
112,141,163437,5,2,0:0:0:0:
130,312,163595,5,6,3:2:0:0:
298,360,163753,5,2,0:0:0:0:
424,272,163911,5,10,3:2:0:0:
112,141,164227,5,10,3:2:0:0:
444,63,164542,6,0,B|484:63|489:37|489:37|407:-14|350:84|350:84|399:101|421:144,1,285,2|0,0:0|0:0,0:0:0:0:
480,194,164858,6,0,P|483:184|492:170,6,23.75,2|0|0|0|2|0|0,0:0|0:0|0:0|0:0|0:0|0:0|0:0,0:0:0:0:
492,276,165174,6,0,P|465:256|350:217,1,123.499994346619,6|0,3:2|0:0,0:0:0:0:
83,185,165490,1,10,0:0:0:0:
208,364,165648,1,0,0:0:0:0:
390,234,165805,1,2,3:2:0:0:
273,58,165963,1,0,3:0:0:0:
238,206,166121,5,10,0:0:0:0:
72,175,166279,1,2,0:0:0:0:
446,103,166437,6,0,P|298:49|234:31,1,185.249991519928,2|0,3:2|0:0,0:0:0:0:
194,31,166753,1,10,0:0:0:0:
475,0,166911,1,2,0:0:0:0:
246,214,167069,2,0,P|191:243|135:266,1,123.499994346619,2|0,3:2|3:0,0:0:0:0:
14,10,167384,6,0,P|105:-10|191:69,1,199.499993911743,10|0,0:0|0:0,0:0:0:0:
280,15,167700,6,0,P|258:94|249:145,1,123.499994346619,4|0,3:2|3:0,0:0:0:0:
188,350,168016,1,10,0:0:0:0:
21,186,168174,1,2,0:0:0:0:
197,367,168332,2,0,B|291:352|249:260|371:285,1,185.249991519928,2|0,3:2|0:0,0:0:0:0:
421,314,168648,1,10,0:0:0:0:
512,154,168805,1,2,0:0:0:0:
218,206,168963,6,0,B|171:150|171:150|324:196,1,185.249991519928,2|0,3:2|0:0,0:0:0:0:
359,203,169279,1,10,0:0:0:0:
332,35,169437,1,2,0:0:0:0:
277,261,169595,2,0,P|260:353|257:385,1,123.499994346619,2|0,3:2|3:0,0:0:0:0:
512,120,169911,6,0,B|413:101|468:26|317:17,1,199.499993911743,10|0,0:0|0:0,0:0:0:0:
270,98,170227,6,0,P|203:118|133:151,1,132.999995941162,4|0,3:2|0:0,0:0:0:0:
371,384,170542,2,0,P|401:340|370:244,1,132.999995941162,8|0,0:0|0:0,0:0:0:0:
117,225,170858,1,0,3:0:0:0:
307,299,171016,1,2,3:2:0:0:
121,368,171174,2,0,P|115:327|95:208,1,132.999995941162,8|2,0:0|0:0,0:0:0:0:
410,164,171490,6,0,P|416:124|434:12,1,123.499994346619,0|0,3:0|3:0,0:0:0:0:
226,220,171805,2,0,P|167:246|86:202,1,123.499994346619,8|0,0:0|0:0,0:0:0:0:
136,14,172121,1,0,3:0:0:0:
329,89,172279,1,0,3:0:0:0:
120,209,172437,2,0,P|72:223|-8:237,1,123.499994346619,8|0,0:0|0:0,0:0:0:0:
423,158,172753,6,0,P|353:131|234:108,1,185.249991519928,4|0,3:2|0:0,0:0:0:0:
168,104,173069,1,8,0:0:0:0:
327,27,173227,5,2,0:0:0:0:
276,199,173384,1,2,3:2:0:0:
91,266,173542,5,2,3:2:0:0:
269,188,173700,1,10,0:0:0:0:
397,350,173858,1,2,0:0:0:0:
160,173,174016,6,0,P|223:151|366:122,1,185.249991519928,2|0,3:2|0:0,0:0:0:0:
432,115,174332,1,14,0:0:0:0:
350,263,174490,1,2,0:0:0:0:
54,153,174648,2,0,P|22:214|36:278,1,123.499994346619,2|0,3:2|3:0,0:0:0:0:
210,50,174963,2,0,P|190:24|64:18,1,123.499994346619,10|0,0:0|0:0,0:0:0:0:
421,378,175279,5,14,0:0:0:0:
449,197,175437,1,0,0:0:0:0:
100,80,175595,5,10,0:0:0:0:
121,263,175753,1,0,0:0:0:0:
512,141,175911,5,10,0:0:0:0:
332,90,176069,1,0,0:0:0:0:
40,355,176227,5,10,0:0:0:0:
220,323,176384,1,2,0:0:0:0:
31,5,176542,6,0,P|17:88|12:151,1,113.999996520996,2|0,3:0|0:0,0:0:0:0:
281,189,176858,2,0,P|294:248|306:316,1,113.999996520996,10|0,0:0|0:0,0:0:0:0:
35,17,177174,2,0,P|21:100|16:163,1,113.999996520996,2|0,3:2|0:0,0:0:0:0:
345,128,177490,2,0,P|301:84|220:96,1,113.999996520996,10|0,0:0|0:0,0:0:0:0:
39,383,177805,5,14,0:0:0:0:
0,237,177963,1,0,0:0:0:0:
426,88,178121,5,10,0:0:0:0:
397,261,178279,1,0,0:0:0:0:
39,112,178437,5,10,0:0:0:0:
212,64,178595,1,0,0:0:0:0:
473,348,178753,5,10,0:0:0:0:
281,299,178911,1,2,0:0:0:0:
512,65,179069,6,0,P|502:142|499:192,1,113.999996520996,2|0,3:2|3:0,0:0:0:0:
149,261,179384,2,0,P|164:351|168:389,1,113.999996520996,14|0,0:0|0:0,0:0:0:0:
416,244,179700,5,2,3:2:0:0:
211,175,179858,1,8,0:0:0:0:
211,175,179937,1,8,0:0:0:0:
211,175,180016,2,0,P|242:167|290:155,1,56.9999982604981,10|8,0:0|0:0,0:0:0:0:
414,84,180174,1,10,0:0:0:0:
414,84,180253,1,8,0:0:0:0:
414,84,180332,6,0,B|313:97|352:-4|212:28,1,199.499993911743,6|0,3:2|0:0,0:0:0:0:
155,57,180648,1,8,0:0:0:0:
339,219,180805,1,2,0:0:0:0:
446,0,180963,2,0,P|434:56|426:112,1,113.999996520996,2|0,3:2|3:0,0:0:0:0:
333,314,181279,1,8,0:0:0:0:
470,381,181437,1,2,0:0:0:0:
319,303,181595,6,0,P|242:318|142:321,1,170.999994781494,2|0,3:2|0:0,0:0:0:0:
72,311,181911,1,10,0:0:0:0:
216,209,182069,1,2,0:0:0:0:
29,384,182227,2,0,P|-5:345|14:254,1,113.999996520996,2|0,3:2|3:0,0:0:0:0:
62,90,182542,1,8,0:0:0:0:
207,223,182700,1,2,0:0:0:0:
496,83,182858,6,0,P|430:60|359:180,1,199.499993911743,6|0,3:2|0:0,0:0:0:0:
365,330,183174,6,0,B|356:299|346:270|346:270|386:213|386:213|376:179|367:116,1,199.499993911743,14|0,0:0|0:0,0:0:0:0:
192,117,183490,6,0,B|117:117|93:184|93:184|143:210|177:191,1,199.499993911743,6|0,3:2|0:0,0:0:0:0:
395,120,183805,6,0,B|430:38|368:-18|368:-18|342:9|336:51,1,199.499993911743,14|0,0:0|0:0,0:0:0:0:
327,218,184121,6,0,P|379:247|441:229,1,113.999996520996,2|0,3:2|0:0,0:0:0:0:
503,56,184437,1,10,0:0:0:0:
423,0,184595,1,2,0:0:0:0:
268,107,184753,6,0,P|204:111|121:122,1,142.5,10|0,0:0|0:0,0:0:0:0:
10,80,185069,6,0,P|65:90|120:97,1,85.4999973907472,14|0,0:0|0:0,0:0:0:0:
358,218,185384,6,0,B|426:207|387:163|470:145,1,130.625,2|0,0:0|0:0,0:0:0:0:
494,262,186332,6,0,P|503:221|482:257,1,118.75,8|0,3:2|0:0,0:0:0:0:
163,141,186648,5,6,3:2:0:0:
276,241,186805,1,2,0:0:0:0:
276,241,186884,1,2,0:0:0:0:
276,241,186963,1,10,0:0:0:0:
371,94,187121,1,2,0:0:0:0:
105,30,187279,2,0,P|70:89|96:150,1,113.999996520996,2|0,3:2|3:0,0:0:0:0:
309,281,187595,1,10,0:0:0:0:
201,140,187753,1,2,0:0:0:0:
45,263,187911,6,0,P|80:252|168:233,1,113.999996520996,2|0,3:2|3:0,0:0:0:0:
353,106,188227,2,0,P|408:125|472:158,1,113.999996520996,10|0,0:0|0:0,0:0:0:0:
29,256,188542,2,0,P|64:245|152:226,1,113.999996520996,2|0,3:2|3:0,0:0:0:0:
460,131,188858,2,0,P|468:87|410:11,1,113.999996520996,10|0,0:0|0:0,0:0:0:0:
215,133,189174,5,6,3:2:0:0:
400,237,189332,1,2,0:0:0:0:
400,237,189411,1,2,0:0:0:0:
400,237,189490,1,10,0:0:0:0:
184,334,189648,1,2,0:0:0:0:
334,100,189805,2,0,P|322:155|315:212,1,113.999996520996,2|0,3:2|3:0,0:0:0:0:
238,9,190121,1,10,0:0:0:0:
422,124,190279,1,2,0:0:0:0:
196,219,190437,6,0,P|251:230|307:244,1,113.999996520996,2|0,3:2|0:0,0:0:0:0:
24,172,190753,2,0,P|66:156|152:138,1,113.999996520996,10|0,0:0|0:0,0:0:0:0:
282,110,191069,1,2,3:2:0:0:
178,227,191227,1,0,3:0:0:0:
11,0,191384,6,0,P|27:101|41:242,1,199.499993911743,8|0,0:0|0:0,0:0:0:0:
42,276,191700,5,6,3:2:0:0:
184,137,191858,1,2,3:2:0:0:
184,137,191937,1,2,0:0:0:0:
184,137,192016,1,10,0:0:0:0:
351,301,192174,1,2,0:0:0:0:
136,384,192332,2,0,P|141:350|158:262,1,113.999996520996,2|0,3:2|3:0,0:0:0:0:
211,39,192648,1,10,0:0:0:0:
401,212,192805,1,2,0:0:0:0:
174,140,192963,6,0,P|210:127|298:107,1,113.999996520996,2|0,3:2|3:0,0:0:0:0:
108,372,193279,2,0,P|53:352|-12:335,1,113.999996520996,10|0,0:0|0:0,0:0:0:0:
164,130,193595,2,0,P|200:117|288:97,1,113.999996520996,2|0,3:2|3:0,0:0:0:0:
446,343,193911,2,0,P|407:329|305:306,1,113.999996520996,10|0,0:0|0:0,0:0:0:0:
419,103,194227,5,6,3:2:0:0:
512,247,194384,1,2,3:2:0:0:
512,247,194463,1,2,0:0:0:0:
512,247,194542,1,10,0:0:0:0:
265,370,194700,1,2,0:0:0:0:
353,175,194858,2,0,P|335:256|330:295,1,113.999996520996,2|0,3:2|3:0,0:0:0:0:
64,213,195174,1,10,0:0:0:0:
196,303,195332,1,2,0:0:0:0:
358,85,195490,5,2,3:2:0:0:
512,247,195648,1,2,3:2:0:0:
512,247,195727,1,2,0:0:0:0:
512,247,195805,1,6,0:0:0:0:
307,160,195963,1,2,0:0:0:0:
481,152,196121,5,2,3:2:0:0:
245,72,196279,1,2,3:2:0:0:
175,305,196437,1,10,0:0:0:0:
399,374,196595,1,2,0:0:0:0:
301,175,196753,5,6,3:2:0:0:
503,60,196911,1,2,0:0:0:0:
503,60,196990,1,2,0:0:0:0:
503,60,197069,1,10,0:0:0:0:
294,190,197227,1,2,0:0:0:0:
144,104,197384,2,0,P|161:187|172:251,1,113.999996520996,2|0,3:2|3:0,0:0:0:0:
24,106,197700,1,10,0:0:0:0:
232,12,197858,1,2,0:0:0:0:
112,320,198016,6,0,P|83:283|-15:289,1,113.999996520996,2|0,3:2|3:0,0:0:0:0:
244,24,198332,2,0,P|254:105|258:168,1,113.999996520996,10|0,0:0|0:0,0:0:0:0:
409,297,198648,2,0,P|432:257|522:225,1,113.999996520996,2|0,3:2|3:0,0:0:0:0:
257,33,198963,2,0,P|267:114|271:177,1,113.999996520996,10|0,0:0|0:0,0:0:0:0:
298,384,199279,5,6,3:2:0:0:
137,192,199437,1,2,0:0:0:0:
137,192,199516,1,2,0:0:0:0:
137,192,199595,1,10,0:0:0:0:
321,304,199753,1,2,0:0:0:0:
97,384,199911,2,0,P|78:346|124:271,1,113.999996520996,2|0,3:2|3:0,0:0:0:0:
326,157,200227,1,10,0:0:0:0:
220,273,200384,1,2,0:0:0:0:
380,379,200542,6,0,P|420:367|495:358,1,113.999996520996,2|0,3:2|0:0,0:0:0:0:
135,260,200858,2,0,P|91:247|-21:219,1,113.999996520996,10|0,0:0|0:0,0:0:0:0:
403,222,201174,2,0,P|454:204|529:192,1,113.999996520996,2|0,3:2|3:0,0:0:0:0:
231,0,201490,6,0,B|220:75|220:75|261:115|261:115|248:209,1,199.499993911743,8|0,0:0|0:0,0:0:0:0:
241,262,201805,5,6,3:2:0:0:
58,123,201963,1,2,3:2:0:0:
58,123,202042,1,2,0:0:0:0:
58,123,202121,1,10,0:0:0:0:
174,197,202279,1,2,0:0:0:0:
373,44,202437,2,0,P|351:126|347:159,1,113.999996520996,2|0,3:2|3:0,0:0:0:0:
319,382,202753,1,10,0:0:0:0:
468,232,202911,1,2,0:0:0:0:
222,320,203069,6,0,P|178:304|87:285,1,113.999996520996,2|0,3:2|3:0,0:0:0:0:
366,158,203384,2,0,P|390:150|484:126,1,113.999996520996,10|0,0:0|0:0,0:0:0:0:
210,305,203700,2,0,P|166:289|75:270,1,113.999996520996,2|0,3:2|3:0,0:0:0:0:
429,48,204016,2,0,P|463:84|456:155,1,113.999996520996,10|0,0:0|0:0,0:0:0:0:
305,331,204332,5,6,3:2:0:0:
119,189,204490,1,2,0:0:0:0:
119,189,204569,1,2,0:0:0:0:
119,189,204648,1,10,0:0:0:0:
351,129,204805,1,2,0:0:0:0:
128,322,204963,2,0,P|122:285|99:177,1,113.999996520996,2|0,3:2|3:0,0:0:0:0:
268,38,205279,1,10,0:0:0:0:
220,209,205437,1,2,0:0:0:0:
8,136,205595,5,2,3:2:0:0:
268,38,205753,1,2,3:2:0:0:
268,38,205832,1,2,0:0:0:0:
268,38,205911,1,6,0:0:0:0:
292,263,206069,1,2,0:0:0:0:
25,135,206227,5,2,3:2:0:0:
261,52,206384,1,2,3:2:0:0:
408,356,206542,5,10,0:0:0:0:
282,278,206700,1,2,0:0:0:0:
183,358,206858,6,0,P|131:365|77:378,1,104.5,0|0,0:0|0:0,0:0:0:0:
0,319,207805,6,0,B|-11:275|-11:275|28:229|28:229|15:166,1,152,8|0,0:0|0:0,0:0:0:0:
177,60,208121,6,0,P|193:63|211:67,1,28.5,2|0,0:0|0:0,0:0:0:0:
250,47,208437,6,0,P|264:59|275:70,1,28.5,2|0,0:0|0:0,0:0:0:0:
330,79,208753,6,0,P|334:96|336:113,1,28.5,2|0,0:0|0:0,0:0:0:0:
386,165,209069,6,0,P|381:182|377:198,1,28.5,2|0,0:0|0:0,0:0:0:0:
384,286,209384,6,0,P|370:289|350:296,1,28.5,2|0,0:0|0:0,0:0:0:0:
293,354,209700,6,0,P|260:348|224:343,1,57,2|0,0:0|0:0,0:0:0:0:
188,274,210016,6,0,P|140:281|100:289,1,85.4999973907472,2|0,0:0|0:0,0:0:0:0:
66,332,210332,6,0,B|23:274|82:228|94:248|162:213|170:108|58:18|-69:163|64:243|112:156|81:139,1,313.500009567261,14|0,0:0|0:0,0:0:0:0:
