osu file format v14

[General]
AudioFilename: audio.mp3
AudioLeadIn: 0
PreviewTime: 84174
Countdown: 0
SampleSet: Soft
StackLeniency: 0.7
Mode: 0
LetterboxInBreaks: 0
WidescreenStoryboard: 1

[Editor]
DistanceSpacing: 0.6
BeatDivisor: 4
GridSize: 16
TimelineZoom: 1.5

[Metadata]
Title:StaRt
TitleUnicode:StaRt
Artist:Mrs. GREEN APPLE
ArtistUnicode:Mrs. GREEN APPLE
Creator:dkblaze
Version:BaAR's Insane
Source:
Tags:Wanpachi Cycopton sanairrt BaAR_Vendel Reform Kujinn Japanese rock j-rock Variety
BeatmapID:2193339
BeatmapSetID:1039048

[Difficulty]
HPDrainRate:5
CircleSize:3.5
OverallDifficulty:7.5
ApproachRate:8.8
SliderMultiplier:1.6
SliderTickRate:1

[Events]
//Background and Video events
0,0,"BG.jpg",0,0
//Break Periods
2,64321,73552
2,145163,149341
//Storyboard Layer 0 (Background)
//Storyboard Layer 1 (Fail)
//Storyboard Layer 2 (Pass)
//Storyboard Layer 3 (Foreground)
//Storyboard Layer 4 (Overlay)
//Storyboard Sound Samples

[TimingPoints]
2227,315.789473684211,4,2,1,75,1,0
2227,-100,4,2,1,75,0,0
13595,-100,4,2,1,65,0,0
23700,-100,4,2,1,70,0,0
31279,-100,4,2,1,60,0,0
33174,-83.3333333333333,4,2,1,70,0,0
33490,-83.3333333333333,4,2,1,75,0,0
33805,-86.9565217391304,4,2,1,80,0,1
54016,-100,4,2,1,75,0,0
64121,-100,4,2,1,40,0,0
74227,-100,4,2,1,70,0,0
81805,-125,4,2,1,60,0,0
84332,-86.9565217391304,4,2,1,80,0,1
104542,-100,4,2,1,70,0,0
114490,-125,4,2,1,70,0,0
114648,-100,4,2,1,60,0,0
114963,-100,4,2,1,75,0,0
124753,-86.9565217391304,4,2,1,80,0,1
144963,-100,4,2,1,70,0,0
145042,-100,4,2,1,30,0,0
150016,-100,4,2,1,35,0,0
155069,-166.666666666667,4,2,1,40,0,0
160121,-125,4,2,1,60,0,0
162648,-111.111111111111,4,2,1,60,0,0
163279,-100,4,2,1,60,0,0
163911,-100,4,2,1,70,0,0
165174,-86.9565217391304,4,2,1,80,0,1
185384,-100,4,2,1,70,0,0
186648,-100,4,2,1,75,0,0
208121,-166.666666666667,4,2,1,70,0,0
209384,-100,4,2,1,70,0,0
210332,-100,4,2,1,80,0,0
210805,-100,4,2,1,5,0,0

[Colours]
Combo1 : 57,225,255
Combo2 : 13,116,255

[HitObjects]
214,217,3174,5,12,3:2:0:0:
255,333,3332,2,0,L|256:282,1,40,2|2,0:0|0:0,0:0:0:0:
373,195,3490,6,0,P|332:184|277:174,1,80,6|2,3:2|0:0,0:0:0:0:
295,176,3727,1,2,0:0:0:0:
295,176,3805,1,10,0:0:0:0:
404,92,3963,1,2,0:0:0:0:
487,206,4121,2,0,P|501:290|516:383,1,160,2|10,3:2|0:0,0:0:0:0:
405,310,4595,1,2,0:0:0:0:
331,382,4753,6,0,P|285:376|235:368,1,80,2|0,3:2|3:0,0:0:0:0:
131,300,5069,2,0,P|170:293|210:288,1,80,10|0,0:0|0:0,0:0:0:0:
326,163,5384,2,0,P|264:137|214:220,1,160,2|10,3:2|0:0,0:0:0:0:
287,248,5858,1,0,0:0:0:0:
417,193,6016,6,0,P|409:136|403:103,1,80,6|2,3:2|3:2,0:0:0:0:
405,113,6253,1,2,0:0:0:0:
405,113,6332,1,10,0:0:0:0:
360,12,6490,1,2,0:0:0:0:
220,58,6648,2,0,B|155:64|155:64|129:43|129:43|52:49,1,160,2|10,3:2|0:0,0:0:0:0:
0,136,7121,1,2,0:0:0:0:
151,226,7279,6,0,P|147:179|140:136,1,80,2|0,3:2|0:0,0:0:0:0:
40,305,7595,2,0,P|44:258|51:215,1,80,10|0,0:0|0:0,0:0:0:0:
166,355,7911,2,0,P|223:317|315:350,1,160,2|8,3:2|0:0,0:0:0:0:
425,365,8384,2,0,L|419:326,1,40,0|0,0:0|0:0,0:0:0:0:
357,262,8542,6,0,L|367:153,1,80,6|2,3:2|3:2,0:0:0:0:
364,182,8779,1,2,0:0:0:0:
364,182,8858,1,10,0:0:0:0:
420,62,9016,1,2,0:0:0:0:
420,62,9095,1,0,0:0:0:0:
420,62,9174,2,0,P|345:51|252:35,1,160,2|10,3:2|0:0,0:0:0:0:
147,57,9648,1,2,0:0:0:0:
186,160,9805,6,0,P|230:149|270:142,1,80,2|0,3:2|3:0,0:0:0:0:
357,262,10121,2,0,P|317:254|278:244,1,80,10|0,0:0|0:0,0:0:0:0:
196,247,10358,1,0,0:0:0:0:
196,247,10437,2,0,L|206:341,1,80,2|0,3:2|3:0,0:0:0:0:
100,384,10753,2,0,L|110:290,1,80,10|0,0:0|0:0,0:0:0:0:
89,148,11069,6,0,P|47:139|-4:155,1,80,6|2,3:2|0:0,0:0:0:0:
11,146,11305,1,2,0:0:0:0:
11,146,11384,1,10,0:0:0:0:
48,237,11542,1,2,0:0:0:0:
174,154,11700,2,0,B|193:47|193:47|166:-7,1,160,2|10,3:2|0:0,0:0:0:0:
97,62,12174,1,2,0:0:0:0:
227,38,12332,6,0,P|287:28|319:24,1,80,2|2,3:2|3:2,0:0:0:0:
436,105,12648,1,6,0:0:0:0:
404,1,12805,1,2,0:0:0:0:
404,1,12884,1,0,0:0:0:0:
404,1,12963,2,0,L|400:87,1,80,2|2,3:2|3:2,0:0:0:0:
332,198,13279,1,10,0:0:0:0:
293,121,13437,1,2,0:0:0:0:
273,262,13595,6,0,P|347:284|410:239,1,160,6|8,3:2|0:0,0:0:0:0:
409,239,14227,2,0,L|495:243,1,80,2|0,3:2|3:0,0:0:0:0:
510,336,14542,2,0,L|424:340,1,80,10|2,0:0|0:0,0:0:0:0:
339,373,14858,5,2,3:2:0:0:
339,373,15016,1,2,3:0:0:0:
255,329,15174,2,0,P|244:278|259:236,1,80,10|2,0:0|0:0,0:0:0:0:
327,120,15490,2,0,P|338:171|323:213,1,80,2|0,3:2|3:0,0:0:0:0:
221,167,15805,1,10,0:0:0:0:
157,239,15963,1,0,0:0:0:0:
68,200,16121,6,0,L|-13:197,1,80,2|0,3:2|3:0,0:0:0:0:
40,298,16437,1,10,0:0:0:0:
40,298,16595,1,2,0:0:0:0:
143,317,16753,2,0,P|152:271|157:228,1,80,2|0,3:2|3:0,0:0:0:0:
221,167,17069,2,0,P|212:121|207:78,1,80,10|0,0:0|0:0,0:0:0:0:
72,33,17384,5,2,3:2:0:0:
108,125,17542,1,2,3:2:0:0:
170,4,17700,1,10,0:0:0:0:
170,4,18016,1,2,3:2:0:0:
287,44,18174,1,10,0:0:0:0:
414,12,18332,2,0,P|457:20|493:26,1,80,8|2,0:0|0:0,0:0:0:0:
393,119,18648,6,0,P|353:125|314:132,1,80,6|0,3:2|3:0,0:0:0:0:
255,208,18963,1,10,0:0:0:0:
315,281,19121,2,0,P|321:321|327:361,1,80,2|0,0:0|3:0,0:0:0:0:
411,290,19437,2,0,P|417:250|423:210,2,80,2|8|2,3:2|0:0|0:0,0:0:0:0:
315,281,19911,6,0,L|230:292,1,80,2|0,3:2|3:0,0:0:0:0:
147,250,20227,1,10,0:0:0:0:
69,305,20384,1,2,0:0:0:0:
1,236,20542,2,0,P|-7:189|7:144,1,80,2|0,3:2|3:0,0:0:0:0:
90,48,20858,2,0,P|98:95|84:140,1,80,10|0,0:0|0:0,0:0:0:0:
209,177,21174,5,2,3:2:0:0:
209,177,21332,2,0,P|272:164|306:157,1,80,2|8,3:2|0:0,0:0:0:0:
386,88,21648,1,2,0:0:0:0:
386,88,21806,2,0,P|323:75|289:68,1,80,2|0,3:2|3:0,0:0:0:0:
204,5,22121,5,10,0:0:0:0:
204,5,22279,2,0,P|217:68|224:102,1,80,2|0,0:0|3:0,0:0:0:0:
118,195,22595,1,2,3:2:0:0:
118,195,22753,2,0,P|131:132|138:98,1,80,10|0,0:0|0:0,0:0:0:0:
217,270,23069,1,10,0:0:0:0:
217,270,23700,5,2,3:2:0:0:
107,291,23858,1,2,0:0:0:0:
221,352,24016,1,10,0:0:0:0:
277,210,24174,1,2,0:0:0:0:
118,195,24332,2,0,P|128:259|134:296,1,80,2|2,3:2|3:2,0:0:0:0:
5,327,24648,2,0,P|11:287|17:247,1,80,10|2,0:0|0:0,0:0:0:0:
97,110,24963,5,2,3:2:0:0:
0,147,25121,1,2,3:2:0:0:
118,195,25279,2,0,P|163:186|206:173,1,80,10|0,0:0|0:0,0:0:0:0:
301,92,25595,2,0,P|236:33|163:80,1,160,2|10,3:2|0:0,0:0:0:0:
195,176,26069,1,0,0:0:0:0:
296,246,26227,6,0,P|286:310|280:347,1,80,2|0,3:2|3:0,0:0:0:0:
421,371,26542,2,0,P|411:305|397:228,1,120,10|2,0:0|0:0,0:0:0:0:
427,211,26858,2,0,P|484:207|513:223,1,80,2|2,3:2|3:2,0:0:0:0:
498,377,27174,2,0,P|441:381|412:365,1,80,10|0,0:0|0:0,0:0:0:0:
283,325,27490,6,0,P|289:285|296:245,1,80,10|2,3:2|0:0,0:0:0:0:
290,110,27805,1,10,3:2:0:0:
195,176,27963,1,2,0:0:0:0:
107,97,28121,2,0,P|67:90|27:84,1,80,2|0,3:2|3:0,0:0:0:0:
115,188,28437,2,0,P|154:181|194:175,1,80,8|0,0:0|0:0,0:0:0:0:
309,84,28753,5,2,3:2:0:0:
199,83,28911,1,2,0:0:0:0:
351,177,29069,1,10,0:0:0:0:
260,248,29227,1,2,0:0:0:0:
423,230,29384,6,0,P|443:163|371:86,1,160,2|10,3:2|0:0,0:0:0:0:
351,177,29858,1,0,0:0:0:0:
332,301,30016,2,0,P|342:353|348:399,1,80,2|2,3:2|3:2,0:0:0:0:
235,235,30332,2,0,P|227:274|221:313,1,80,10|2,0:0|0:0,0:0:0:0:
92,376,30648,1,2,3:2:0:0:
221,313,30805,1,2,3:2:0:0:
85,263,30963,1,10,0:0:0:0:
176,383,31121,1,2,0:0:0:0:
8,369,31279,5,8,3:2:0:0:
36,37,33174,6,0,B|76:79|86:133|86:133|109:88,1,143.999995605469,14|0,3:2|0:0,0:0:0:0:
179,162,33490,2,0,B|139:204|129:258|129:258|106:213,1,143.999995605469,14|0,3:2|0:0,0:0:0:0:
21,237,33805,6,0,P|75:231|122:226,1,92.0000017547608,6|0,3:2|0:0,0:0:0:0:
146,348,34121,2,0,P|100:343|54:337,1,92.0000017547608,10|0,0:0|0:0,0:0:0:0:
246,267,34437,1,2,3:2:0:0:
227,384,34595,1,0,3:0:0:0:
359,340,34753,2,0,P|369:288|350:247,1,92.0000017547608,10|0,0:0|0:0,0:0:0:0:
264,142,35069,6,0,P|333:151|368:156,1,92.0000017547608,2|0,3:2|3:0,0:0:0:0:
445,240,35384,2,0,P|399:246|353:252,1,92.0000017547608,10|0,0:0|0:0,0:0:0:0:
284,113,35700,1,2,3:2:0:0:
375,125,35858,1,0,0:0:0:0:
201,205,36016,2,0,P|175:158|183:107,1,92.0000017547608,10|0,0:0|0:0,0:0:0:0:
272,21,36332,6,0,P|280:82|285:122,1,92.0000017547608,4|0,3:2|3:0,0:0:0:0:
318,238,36648,1,10,0:0:0:0:
201,205,36805,1,2,0:0:0:0:
142,340,36963,2,0,P|214:385|302:344,1,184.000003509522,2|10,3:2|0:0,0:0:0:0:
318,238,37437,1,2,0:0:0:0:
406,367,37595,6,0,P|467:359|507:354,1,92.0000017547608,2|0,3:2|3:0,0:0:0:0:
410,230,37911,1,10,0:0:0:0:
298,348,38069,1,2,0:0:0:0:
298,348,38148,1,0,0:0:0:0:
298,348,38227,2,0,P|237:340|197:335,1,92.0000017547608,2|0,3:2|3:0,0:0:0:0:
93,238,38542,2,0,P|85:323|83:357,1,92.0000017547608,10|0,0:0|0:0,0:0:0:0:
191,85,38858,5,6,3:2:0:0:
246,213,39016,1,2,0:0:0:0:
194,66,39174,1,10,0:0:0:0:
93,238,39332,1,2,0:0:0:0:
197,47,39490,2,0,P|206:112|210:142,1,92.0000017547608,2|2,3:2|3:2,0:0:0:0:
98,72,39805,1,10,0:0:0:0:
98,72,39963,1,2,0:0:0:0:
13,165,40121,6,0,P|4:110|-3:58,1,92.0000017547608,2|0,3:2|3:0,0:0:0:0:
93,238,40437,1,10,0:0:0:0:
0,320,40595,1,2,0:0:0:0:
126,375,40753,2,0,L|237:364,1,92.0000017547608,2|0,3:2|3:0,0:0:0:0:
333,294,41069,2,0,P|324:349|317:401,1,92.0000017547608,10|0,0:0|0:0,0:0:0:0:
239,271,41384,5,6,3:2:0:0:
239,271,41542,2,0,P|232:225|225:180,1,92.0000017547608,2|8,3:2|0:0,0:0:0:0:
298,94,41858,1,0,0:0:0:0:
395,223,42016,2,0,P|475:235|507:138,1,184.000003509522,2|10,3:2|0:0,0:0:0:0:
480,15,42490,1,2,0:0:0:0:
388,107,42648,6,0,P|342:99|297:93,1,92.0000017547608,2|0,3:2|3:0,0:0:0:0:
188,15,42963,2,0,P|142:22|97:28,1,92.0000017547608,14|0,0:0|0:0,0:0:0:0:
15,145,43279,1,2,3:2:0:0:
119,125,43437,1,0,3:0:0:0:
7,54,43595,2,0,L|17:161,1,92.0000017547608,10|0,0:0|0:0,0:0:0:0:
100,258,43911,6,0,P|54:250|9:244,1,92.0000017547608,14|0,0:0|0:0,0:0:0:0:
211,307,44227,2,0,P|256:299|301:293,1,92.0000017547608,10|0,0:0|0:0,0:0:0:0:
110,384,44542,2,0,P|64:376|19:370,1,92.0000017547608,10|0,0:0|0:0,0:0:0:0:
100,258,44858,1,10,0:0:0:0:
0,282,45016,1,2,0:0:0:0:
78,165,45174,6,0,P|137:169|184:209,1,92.0000017547608,2|0,3:0|0:0,0:0:0:0:
242,128,45490,2,0,P|276:175|276:237,1,92.0000017547608,10|0,0:0|0:0,0:0:0:0:
375,229,45805,2,0,P|360:286|313:325,2,92.0000017547608,2|0|10,3:2|0:0|0:0,0:0:0:0:
375,229,46437,6,0,L|367:122,1,92.0000017547608,14|0,0:0|0:0,0:0:0:0:
507,199,46753,2,0,L|501:291,1,92.0000017547608,10|0,0:0|0:0,0:0:0:0:
448,113,47069,2,0,P|490:96|536:100,1,92.0000017547608,10|0,0:0|0:0,0:0:0:0:
368,137,47384,1,10,0:0:0:0:
402,6,47542,1,2,0:0:0:0:
256,3,47700,6,0,P|263:53|270:111,1,92.0000017547608,2|0,3:2|3:0,0:0:0:0:
155,185,48016,2,0,P|160:139|167:93,1,92.0000017547608,14|0,0:0|0:0,0:0:0:0:
285,194,48332,1,2,3:2:0:0:
167,280,48490,1,8,0:0:0:0:
167,280,48569,1,8,0:0:0:0:
167,280,48648,2,0,P|139:276|115:273,3,46.0000008773804,10|8|10|8,0:0|0:0|0:0|0:0,0:0:0:0:
225,349,48963,6,0,P|294:329|290:207,1,184.000003509522,6|8,3:2|0:0,0:0:0:0:
253,115,49437,1,2,0:0:0:0:
156,182,49595,2,0,P|82:172|51:166,1,92.0000017547608,2|0,3:2|3:0,0:0:0:0:
18,63,49911,2,0,P|63:55|109:49,1,92.0000017547608,8|2,0:0|0:0,0:0:0:0:
240,27,50227,6,0,B|260:79|260:79|246:141,2,92.0000017547608,2|0|10,3:2|3:0|0:0,0:0:0:0:
109,49,50700,1,2,0:0:0:0:
156,182,50858,1,2,3:2:0:0:
169,103,51016,1,0,3:0:0:0:
44,140,51174,2,0,P|35:196|30:239,1,92.0000017547608,8|2,0:0|0:0,0:0:0:0:
0,349,51490,6,0,P|35:311|127:326,1,138.000002632141,6|0,3:2|0:0,0:0:0:0:
148,334,51805,2,0,P|213:345|263:301,1,138.000002632141,14|0,0:0|0:0,0:0:0:0:
303,229,52121,2,0,P|292:307|283:375,1,138.000002632141,6|0,3:2|0:0,0:0:0:0:
371,372,52437,2,0,L|466:359,1,92.0000017547608,14|0,0:0|0:0,0:0:0:0:
407,230,52753,5,2,3:2:0:0:
407,230,53069,1,10,0:0:0:0:
352,144,53227,1,2,0:0:0:0:
492,83,53384,2,0,P|485:132|480:182,1,92.0000017547608,10|0,0:0|3:0,0:0:0:0:
366,120,53700,2,0,P|361:74|354:28,1,92.0000017547608,14|0,0:0|0:0,0:0:0:0:
253,147,54016,6,0,P|202:159|153:140,1,80,6|2,3:2|0:0,0:0:0:0:
175,153,54253,1,2,0:0:0:0:
175,153,54332,1,10,0:0:0:0:
110,92,54490,1,2,0:0:0:0:
16,96,54648,2,0,P|86:132|65:213,1,160,2|10,3:2|0:0,0:0:0:0:
0,262,55121,1,2,0:0:0:0:
69,371,55279,6,0,L|168:360,1,80,2|0,3:2|3:0,0:0:0:0:
238,260,55595,2,0,L|139:249,1,80,10|0,0:0|0:0,0:0:0:0:
168,384,55911,2,0,L|342:364,1,160,2|10,3:2|0:0,0:0:0:0:
400,293,56384,1,0,0:0:0:0:
470,384,56542,6,0,P|479:338|484:290,1,80,6|2,3:2|0:0,0:0:0:0:
482,305,56779,1,2,0:0:0:0:
482,305,56858,1,10,0:0:0:0:
432,194,57016,1,2,0:0:0:0:
290,252,57174,2,0,L|191:241,2,80,2|0|10,3:2|3:0|0:0,0:0:0:0:
432,194,57648,1,2,0:0:0:0:
351,96,57805,6,0,P|344:147|340:190,1,80,2|0,3:2|0:0,0:0:0:0:
477,116,58121,2,0,P|473:76|467:37,1,80,10|0,0:0|0:0,0:0:0:0:
352,0,58437,1,2,3:2:0:0:
467,37,58595,1,0,3:0:0:0:
351,96,58753,2,0,P|305:87|262:78,1,80,8|0,0:0|0:0,0:0:0:0:
168,1,59069,6,0,P|122:10|79:19,1,80,6|2,3:2|0:0,0:0:0:0:
89,16,59305,1,2,0:0:0:0:
89,16,59384,1,10,0:0:0:0:
42,129,59542,1,2,0:0:0:0:
181,218,59700,2,0,P|209:129|149:82,1,160,2|10,3:2|0:0,0:0:0:0:
95,194,60174,1,2,0:0:0:0:
201,250,60332,6,0,P|251:242|300:238,1,80,2|0,3:2|3:0,0:0:0:0:
351,366,60648,2,0,P|311:361|271:355,1,80,10|0,0:0|0:0,0:0:0:0:
389,249,60963,1,2,3:2:0:0:
470,343,61121,1,0,3:0:0:0:
389,249,61279,2,0,L|380:152,1,80,10|0,0:0|0:0,0:0:0:0:
508,89,61595,6,0,L|499:186,1,80,6|2,3:2|0:0,0:0:0:0:
500,168,61832,1,2,0:0:0:0:
500,168,61911,1,10,0:0:0:0:
414,86,62069,1,2,0:0:0:0:
309,135,62227,2,0,B|241:133|241:133|214:157|214:157|137:153,1,160,2|10,3:2|0:0,0:0:0:0:
68,122,62700,1,2,0:0:0:0:
180,66,62858,5,2,3:2:0:0:
75,4,63016,1,2,3:2:0:0:
49,146,63174,2,0,P|57:194|67:250,1,80,6|2,0:0|0:0,0:0:0:0:
141,336,63490,1,2,3:2:0:0:
23,304,63648,1,2,3:2:0:0:
150,232,63805,2,0,P|201:238|248:248,1,80,10|2,0:0|0:0,0:0:0:0:
309,319,64121,5,6,3:2:0:0:
377,198,74227,5,6,3:2:0:0:
228,217,74384,1,2,0:0:0:0:
337,115,74542,1,8,0:0:0:0:
310,262,74700,1,2,0:0:0:0:
245,127,74858,2,0,P|248:95|254:48,1,80,2|2,3:2|3:2,0:0:0:0:
131,20,75174,2,0,P|136:59|140:99,1,80,10|2,0:0|0:0,0:0:0:0:
85,217,75490,5,2,3:2:0:0:
20,132,75648,1,2,3:2:0:0:
165,123,75805,2,0,L|271:128,1,80,10|2,0:0|0:0,0:0:0:0:
325,229,76121,6,0,B|350:125|350:125|332:68,1,160,2|10,3:2|0:0,0:0:0:0:
244,30,76595,1,0,0:0:0:0:
165,123,76753,6,0,L|271:128,1,80,6|0,3:2|0:0,0:0:0:0:
245,232,77069,2,0,L|325:229,1,80,10|0,0:0|0:0,0:0:0:0:
420,129,77384,1,2,3:2:0:0:
334,74,77542,1,0,3:0:0:0:
422,153,77700,1,10,0:0:0:0:
508,98,77858,1,0,0:0:0:0:
429,25,78016,6,0,P|420:83|417:115,1,80,10|2,3:2|0:0,0:0:0:0:
336,190,78332,2,0,P|331:150|324:110,1,80,10|2,3:2|0:0,0:0:0:0:
195,58,78648,1,2,3:2:0:0:
287,2,78805,1,0,3:0:0:0:
195,58,78963,2,0,L|100:52,1,80,12|0,0:0|0:0,0:0:0:0:
115,52,79200,1,0,0:0:0:0:
115,52,79279,5,6,3:2:0:0:
3,124,79437,1,2,0:0:0:0:
87,216,79595,2,0,P|95:174|84:132,1,80,10|2,0:0|0:0,0:0:0:0:
20,269,79911,2,0,P|69:302|160:261,1,160,2|10,3:2|0:0,0:0:0:0:
200,172,80384,1,0,0:0:0:0:
304,168,80542,6,0,P|240:157|202:154,1,80,2|2,3:2|3:2,0:0:0:0:
275,302,80858,2,0,P|314:297|353:289,1,80,14|2,0:0|0:0,0:0:0:0:
410,157,81174,1,2,3:2:0:0:
512,282,81332,1,2,3:2:0:0:
512,145,81490,1,10,0:0:0:0:
434,261,81648,1,2,0:0:0:0:
351,92,81805,6,0,P|346:55|348:24,2,64,10|2|2,3:2|0:0|0:0,0:0:0:0:
410,157,82279,1,2,0:0:0:0:
320,176,82437,1,2,0:0:0:0:
320,176,82753,2,0,L|247:169,1,64,2|2,0:0|0:0,0:0:0:0:
197,87,83069,2,0,L|260:80,1,64,2|0,0:0|0:0,0:0:0:0:
189,230,83384,5,10,3:2:0:0:
6,78,83700,1,10,3:2:0:0:
6,78,84332,6,0,P|31:26|159:33,1,184.000003509522,6|10,3:2|0:0,0:0:0:0:
200,145,84805,1,0,0:0:0:0:
93,90,84963,1,2,3:2:0:0:
242,7,85121,1,0,3:0:0:0:
323,128,85279,2,0,P|313:173|308:218,1,92.0000017547608,10|0,0:0|0:0,0:0:0:0:
231,328,85595,6,0,L|328:318,1,92.0000017547608,2|0,3:2|3:0,0:0:0:0:
179,246,85911,2,0,L|82:236,1,92.0000017547608,10|0,0:0|0:0,0:0:0:0:
241,359,86227,1,2,3:2:0:0:
332,349,86384,1,0,3:0:0:0:
179,246,86542,2,0,P|141:288|136:360,1,92.0000017547608,10|0,0:0|0:0,0:0:0:0:
276,237,86858,6,0,P|258:183|198:142,1,92.0000017547608,4|0,3:2|3:0,0:0:0:0:
65,131,87174,1,10,0:0:0:0:
187,70,87332,1,2,0:0:0:0:
187,70,87411,1,0,0:0:0:0:
187,70,87490,2,0,B|256:63|256:63|294:91|294:91|369:84,1,184.000003509522,2|10,3:2|0:0,0:0:0:0:
464,41,87963,1,2,0:0:0:0:
372,173,88121,6,0,P|356:122|366:70,1,92.0000017547608,2|0,3:2|3:0,0:0:0:0:
498,195,88437,1,10,0:0:0:0:
360,277,88595,1,2,0:0:0:0:
507,382,88753,2,0,L|497:277,1,92.0000017547608,2|0,3:2|3:0,0:0:0:0:
360,277,89069,2,0,L|351:368,1,92.0000017547608,10|0,0:0|0:0,0:0:0:0:
235,233,89384,5,6,3:2:0:0:
376,155,89542,1,2,0:0:0:0:
223,220,89700,1,10,0:0:0:0:
360,277,89858,1,2,0:0:0:0:
211,207,90016,2,0,P|221:270|227:308,1,92.0000017547608,2|2,3:2|3:2,0:0:0:0:
282,107,90332,1,10,0:0:0:0:
282,107,90490,1,2,0:0:0:0:
94,233,90648,6,0,P|101:190|112:136,1,92.0000017547608,2|0,3:2|3:0,0:0:0:0:
52,310,90963,1,10,0:0:0:0:
0,219,91121,1,2,0:0:0:0:
101,132,91279,2,0,P|146:139|191:148,1,92.0000017547608,2|0,3:2|3:0,0:0:0:0:
209,44,91595,2,0,P|254:36|299:27,1,92.0000017547608,10|0,0:0|0:0,0:0:0:0:
388,114,91911,5,6,3:2:0:0:
270,143,92069,1,2,0:0:0:0:
354,212,92227,2,0,P|365:152|371:115,1,92.0000017547608,8|0,0:0|0:0,0:0:0:0:
280,41,92542,2,0,P|332:-7|442:45,1,184.000003509522,2|10,3:2|0:0,0:0:0:0:
476,152,93016,1,2,0:0:0:0:
354,212,93174,5,2,3:2:0:0:
476,152,93332,1,0,3:0:0:0:
512,294,93490,2,0,L|400:279,1,92.0000017547608,14|0,0:0|0:0,0:0:0:0:
302,375,93805,2,0,L|414:360,1,92.0000017547608,2|0,3:2|3:0,0:0:0:0:
354,212,94121,1,10,0:0:0:0:
280,281,94279,1,0,0:0:0:0:
153,233,94437,6,0,P|160:187|169:142,1,92.0000017547608,14|0,0:0|0:0,0:0:0:0:
240,13,94753,2,0,P|196:29|153:44,1,92.0000017547608,10|0,0:0|0:0,0:0:0:0:
6,48,95069,2,0,P|41:77|76:107,1,92.0000017547608,10|0,0:0|0:0,0:0:0:0:
153,233,95384,1,10,0:0:0:0:
9,218,95542,1,2,0:0:0:0:
112,315,95700,6,0,P|177:322|207:308,1,92.0000017547608,2|0,3:0|0:0,0:0:0:0:
307,245,96016,2,0,P|294:318|288:360,1,92.0000017547608,10|0,0:0|0:0,0:0:0:0:
183,199,96332,2,0,P|196:272|202:314,2,92.0000017547608,2|0|10,3:2|0:0|0:0,0:0:0:0:
183,199,96963,6,0,L|196:81,1,92.0000017547608,14|0,0:0|0:0,0:0:0:0:
290,8,97279,2,0,L|303:126,1,92.0000017547608,10|0,0:0|0:0,0:0:0:0:
397,199,97595,2,0,L|410:81,1,92.0000017547608,10|0,0:0|0:0,0:0:0:0:
484,10,97911,1,10,0:0:0:0:
407,107,98069,1,2,0:0:0:0:
509,187,98227,6,0,P|525:243|512:282,1,92.0000017547608,2|0,3:2|3:0,0:0:0:0:
356,357,98542,2,0,P|340:301|353:262,1,92.0000017547608,14|0,0:0|0:0,0:0:0:0:
443,375,98858,1,2,3:2:0:0:
275,379,99016,1,8,0:0:0:0:
275,379,99095,1,8,0:0:0:0:
275,379,99174,2,0,P|245:372|209:353,3,46.0000008773804,10|8|10|8,0:0|0:0|0:0|0:0,0:0:0:0:
182,301,99490,6,0,B|217:235|172:164|172:164|154:204,1,184.000003509522,6|8,3:2|0:0,0:0:0:0:
84,301,99963,1,2,0:0:0:0:
0,186,100121,2,0,P|6:135|13:88,1,92.0000017547608,2|0,3:2|3:0,0:0:0:0:
92,15,100437,2,0,P|98:60|103:106,1,92.0000017547608,8|2,0:0|0:0,0:0:0:0:
242,108,100753,6,0,B|303:124|303:124|428:90,1,184.000003509522,2|10,3:2|0:0,0:0:0:0:
303,29,101227,1,2,0:0:0:0:
234,130,101384,2,0,P|227:175|222:221,1,92.0000017547608,2|0,3:2|3:0,0:0:0:0:
339,297,101700,2,0,P|333:251|327:205,1,92.0000017547608,8|2,0:0|0:0,0:0:0:0:
272,350,102016,6,0,P|323:383|414:344,1,138.000002632141,6|0,3:2|0:0,0:0:0:0:
433,337,102332,2,0,B|469:357|477:382|477:382|478:339|481:308,1,138.000002632141,14|0,0:0|0:0,0:0:0:0:
421,252,102648,2,0,L|436:108,1,138.000002632141,6|0,3:2|0:0,0:0:0:0:
497,58,102963,2,0,P|460:30|405:34,1,92.0000017547608,14|0,0:0|0:0,0:0:0:0:
316,127,103279,5,2,3:2:0:0:
316,127,103595,1,10,0:0:0:0:
435,114,103753,1,2,0:0:0:0:
339,212,103911,2,0,P|293:205|247:200,1,92.0000017547608,10|0,0:0|3:0,0:0:0:0:
170,312,104227,2,0,P|215:305|261:300,1,92.0000017547608,14|0,0:0|0:0,0:0:0:0:
421,252,104542,5,6,3:2:0:0:
421,252,104700,2,0,P|402:309|410:347,1,80,2|8,0:0|0:0,0:0:0:0:
512,270,105016,1,2,0:0:0:0:
512,270,105174,2,0,P|511:230|494:194,1,80,2|0,3:2|3:0,0:0:0:0:
435,114,105490,5,10,0:0:0:0:
435,114,105648,2,0,P|385:120|343:124,1,80,2|0,0:0|3:0,0:0:0:0:
270,174,105963,1,2,3:2:0:0:
270,174,106121,2,0,P|220:168|178:164,1,80,10|0,0:0|0:0,0:0:0:0:
90,98,106437,1,2,3:2:0:0:
90,98,106595,1,2,3:2:0:0:
183,0,106753,2,0,L|176:96,1,80,8|2,0:0|0:0,0:0:0:0:
102,188,107069,6,0,P|33:207|-26:146,1,160,6|10,3:2|0:0,0:0:0:0:
23,239,107542,2,0,P|32:292|37:333,1,80,2|0,0:0|3:0,0:0:0:0:
124,384,107858,1,2,0:0:0:0:
124,384,108016,2,0,P|129:344|136:304,1,80,10|0,0:0|0:0,0:0:0:0:
248,275,108332,5,2,3:2:0:0:
248,275,108490,2,0,L|335:268,1,80,2|8,3:2|0:0,0:0:0:0:
181,194,108805,1,2,0:0:0:0:
181,194,108963,2,0,L|94:187,1,80,2|0,3:2|3:0,0:0:0:0:
248,113,109279,2,0,L|335:106,1,80,10|0,0:0|0:0,0:0:0:0:
430,159,109595,5,6,3:2:0:0:
430,159,109753,2,0,P|442:110|422:63,1,80,2|8,3:2|0:0,0:0:0:0:
332,29,110069,1,2,0:0:0:0:
332,29,110227,2,0,P|320:78|340:125,1,80,2|0,3:2|3:0,0:0:0:0:
262,189,110542,5,10,0:0:0:0:
262,189,110700,2,0,P|222:173|174:158,1,80,2|0,0:0|3:0,0:0:0:0:
178,68,111016,1,2,3:2:0:0:
178,68,111174,2,0,P|137:81|90:100,1,80,10|0,0:0|0:0,0:0:0:0:
13,179,111490,1,2,3:2:0:0:
13,179,111648,1,2,3:2:0:0:
108,266,111805,2,0,P|104:217|98:165,1,80,8|2,0:0|0:0,0:0:0:0:
44,321,112121,6,0,P|98:354|182:309,1,160,6|10,3:2|0:0,0:0:0:0:
254,268,112595,2,0,P|258:219|264:167,1,80,2|0,0:0|3:0,0:0:0:0:
350,142,112911,1,2,3:2:0:0:
350,142,113069,2,0,P|354:181|357:221,1,80,10|0,0:0|0:0,0:0:0:0:
342,327,113384,5,2,3:2:0:0:
342,327,113542,1,0,3:0:0:0:
447,383,113700,2,0,P|450:343|454:303,1,80,14|0,0:0|0:0,0:0:0:0:
506,126,114016,5,10,3:2:0:0:
357,221,114174,1,10,0:0:0:0:
512,219,114332,1,10,0:0:0:0:
351,128,114490,2,0,P|314:123|280:121,2,64,10|0|0,0:0|0:0|0:0,0:0:0:0:
277,32,114963,6,0,P|237:35|197:39,1,80,14|0,0:0|0:0,0:0:0:0:
66,73,115279,1,0,3:0:0:0:
122,0,115437,1,2,3:2:0:0:
141,112,115595,2,0,L|145:205,1,80,8|0,0:0|0:0,0:0:0:0:
47,249,115911,6,0,L|51:156,1,80,2|0,3:2|0:0,0:0:0:0:
134,280,116227,1,8,0:0:0:0:
62,342,116384,1,2,0:0:0:0:
198,382,116542,2,0,P|240:383|275:369,1,80,2|0,3:2|3:0,0:0:0:0:
335,270,116858,2,0,P|293:269|258:283,1,80,10|2,0:0|0:0,0:0:0:0:
412,338,117174,6,0,B|436:287|436:287|412:179,1,160,6|10,3:2|0:0,0:0:0:0:
341,120,117648,1,0,0:0:0:0:
246,177,117805,1,2,3:2:0:0:
246,177,117963,2,0,P|238:129|235:98,1,80,2|10,3:2|0:0,0:0:0:0:
352,40,118279,6,0,P|347:79|340:119,2,80,2|0|0,0:0|3:0|0:0,0:0:0:0:
436,102,118753,2,0,L|526:92,1,80,10|2,0:0|0:0,0:0:0:0:
486,222,119069,1,2,3:2:0:0:
405,185,119227,1,2,3:2:0:0:
328,284,119384,2,0,L|238:274,1,80,10|0,0:0|0:0,0:0:0:0:
153,164,119700,6,0,P|116:231|177:304,1,160,6|8,3:2|0:0,0:0:0:0:
236,188,120174,2,0,P|240:142|243:101,2,80,2|0|0,0:0|3:0|3:0,0:0:0:0:
329,152,120648,1,10,0:0:0:0:
329,152,120805,1,2,0:0:0:0:
283,29,120963,6,0,P|239:21|201:14,1,80,0|2,3:0|0:0,0:0:0:0:
103,79,121279,2,0,P|59:87|21:94,1,80,8|2,0:0|0:0,0:0:0:0:
67,210,121595,1,2,3:2:0:0:
153,164,121753,1,0,3:0:0:0:
168,293,121911,2,0,P|162:350|158:390,1,80,8|0,0:0|0:0,0:0:0:0:
314,364,122227,5,4,3:2:0:0:
258,293,122384,1,0,3:0:0:0:
370,226,122542,2,0,P|377:276|381:317,1,80,14|0,0:1|0:0,0:0:0:0:
261,210,122858,2,0,P|265:170|271:130,1,80,2|0,3:2|3:0,0:0:0:0:
389,205,123174,2,0,P|396:255|400:296,1,80,14|0,0:1|0:0,0:0:0:0:
365,114,123490,5,4,3:2:0:0:
461,152,123648,1,0,3:0:0:0:
512,54,123805,2,0,P|468:46|430:39,1,80,14|0,0:1|0:0,0:0:0:0:
249,39,124121,5,10,0:0:0:0:
249,39,124279,5,10,0:0:0:0:
249,39,124437,5,10,0:0:0:0:
249,39,124595,5,10,0:0:0:0:
264,181,124753,5,6,3:2:0:0:
327,82,124911,1,0,0:0:0:0:
192,123,125069,2,0,P|134:116|70:109,1,92.0000017547608,10|0,0:0|0:0,0:0:0:0:
0,179,125384,1,2,3:2:0:0:
47,51,125542,1,0,0:0:0:0:
86,193,125700,2,0,P|76:259|72:305,1,92.0000017547608,10|0,0:0|0:0,0:0:0:0:
0,384,126016,6,0,P|39:368|94:380,1,92.0000017547608,2|0,3:2|0:0,0:0:0:0:
238,326,126332,2,0,P|193:334|150:318,1,92.0000017547608,10|0,0:0|0:0,0:0:0:0:
86,193,126648,2,0,B|160:188|160:188|199:218|199:218|288:211,1,184.000003509522,2|8,3:2|0:0,0:0:0:0:
397,150,127121,1,0,0:0:0:0:
230,126,127279,6,0,P|225:73|246:30,1,92.0000017547608,4|2,3:2|0:0,0:0:0:0:
393,24,127595,1,10,0:0:0:0:
311,89,127753,1,2,0:0:0:0:
421,128,127911,2,0,P|472:120|524:115,1,92.0000017547608,2|2,3:2|0:0,0:0:0:0:
512,241,128227,2,0,P|461:233|409:228,1,92.0000017547608,10|2,0:0|0:0,0:0:0:0:
314,322,128542,5,2,3:2:0:0:
289,195,128700,1,0,0:0:0:0:
336,344,128858,1,10,0:0:0:0:
395,250,129016,1,2,0:0:0:0:
252,267,129174,2,0,P|206:262|160:254,1,92.0000017547608,2|0,3:2|0:0,0:0:0:0:
75,359,129490,2,0,P|120:351|166:346,1,92.0000017547608,10|0,0:0|0:0,0:0:0:0:
170,163,129805,6,0,L|160:261,1,92.0000017547608,6|0,3:2|0:0,0:0:0:0:
30,277,130121,2,0,L|20:179,1,92.0000017547608,10|0,0:0|0:0,0:0:0:0:
105,79,130437,2,0,P|191:55|260:112,1,184.000003509522,2|8,3:2|0:0,0:0:0:0:
170,163,130911,1,2,0:0:0:0:
311,196,131069,5,2,3:2:0:0:
349,74,131227,1,2,0:0:0:0:
311,196,131384,2,0,P|304:255|300:300,1,92.0000017547608,10|0,0:0|0:0,0:0:0:0:
450,212,131700,2,0,P|445:166|440:120,1,92.0000017547608,2|0,3:2|0:0,0:0:0:0:
397,280,132016,2,0,P|439:299|495:290,1,92.0000017547608,10|0,0:0|0:0,0:0:0:0:
440,120,132332,6,0,B|316:97|316:97|227:122,1,184.000003509522,6|8,3:2|0:0,0:0:0:0:
190,195,132805,1,2,0:0:0:0:
116,87,132963,2,0,P|104:39|118:-4,1,92.0000017547608,2|0,3:2|0:0,0:0:0:0:
260,25,133279,2,0,P|272:73|258:116,1,92.0000017547608,10|0,0:0|0:0,0:0:0:0:
190,195,133595,5,2,3:2:0:0:
311,196,133753,1,0,3:0:0:0:
246,309,133911,2,0,P|200:301|154:296,1,92.0000017547608,14|2,0:0|0:0,0:0:0:0:
25,339,134227,2,0,L|30:385,3,46.0000008773804,2|0|8|0,3:2|0:0|0:3|0:0,0:0:0:0:
0,260,134542,1,10,0:3:0:0:
96,207,134700,1,4,0:3:0:0:
12,90,134858,6,0,L|21:183,1,92.0000017547608,4|2,3:2|0:0,0:0:0:0:
137,116,135174,1,10,0:0:0:0:
83,26,135332,1,2,0:0:0:0:
219,0,135490,2,0,P|285:7|339:18,1,92.0000017547608,2|2,3:2|3:2,0:0:0:0:
228,104,135805,2,0,P|182:111|136:115,1,92.0000017547608,10|0,0:0|0:0,0:0:0:0:
303,188,136121,5,2,3:2:0:0:
361,81,136279,1,2,3:2:0:0:
308,214,136437,1,10,0:0:0:0:
228,104,136595,1,2,0:0:0:0:
233,262,136753,2,0,P|312:306|388:251,1,184.000003509522,2|8,3:2|0:0,0:0:0:0:
397,160,137227,1,0,0:0:0:0:
510,245,137384,6,0,P|499:309|494:356,1,92.0000017547608,4|2,3:2|3:2,0:0:0:0:
378,379,137700,1,10,0:0:0:0:
383,260,137858,1,2,0:0:0:0:
495,367,138016,2,0,L|399:362,1,92.0000017547608,2|0,3:2|3:0,0:0:0:0:
291,264,138332,2,0,L|387:259,1,92.0000017547608,10|0,0:0|0:0,0:0:0:0:
254,355,138648,5,2,3:2:0:0:
200,259,138805,2,0,P|192:203|188:160,1,92.0000017547608,2|8,3:2|0:0,0:0:0:0:
250,68,139121,1,2,0:0:0:0:
361,164,139279,2,0,B|260:224|286:124|181:170,1,184.000003509522,2|10,3:2|0:0,0:0:0:0:
69,203,139753,1,2,0:0:0:0:
70,58,139911,6,0,P|88:149|101:252,1,184.000003509522,6|8,3:2|0:0,0:0:0:0:
102,356,140384,1,2,0:0:0:0:
0,344,140542,2,0,P|47:321|105:334,1,92.0000017547608,2|0,3:2|3:0,0:0:0:0:
201,380,140858,2,0,P|246:382|286:360,1,92.0000017547608,10|0,0:0|0:0,0:0:0:0:
396,261,141174,6,0,P|381:326|375:367,2,92.0000017547608,6|0|8,3:2|3:0|0:0,0:0:0:0:
338,195,141648,1,2,0:0:0:0:
206,212,141805,2,0,P|221:277|227:318,2,92.0000017547608,2|0|12,3:2|3:0|0:0,0:0:0:0:
264,146,142279,1,2,0:0:0:0:
428,180,142437,6,0,B|451:124|451:124|413:-3,1,184.000003509522,6|8,3:2|0:0,0:0:0:0:
309,0,142911,1,2,0:0:0:0:
214,72,143069,2,0,P|168:67|123:58,1,92.0000017547608,2|0,3:2|3:0,0:0:0:0:
43,168,143384,2,0,P|88:163|133:154,1,92.0000017547608,8|2,0:0|0:0,0:0:0:0:
266,147,143700,5,2,3:2:0:0:
266,147,143858,1,0,3:0:0:0:
224,301,144016,2,0,P|217:256|206:212,1,92.0000017547608,12|0,0:0|0:0,0:0:0:0:
43,168,144332,1,10,0:0:0:0:
123,268,144490,1,0,3:0:0:0:
0,372,144648,2,0,P|7:326|18:282,1,92.0000017547608,12|2,0:0|0:0,0:0:0:0:
142,369,144963,5,6,3:2:0:0:
422,39,150016,5,2,0:0:0:0:
422,39,150648,5,2,0:0:0:0:
430,69,150963,1,2,0:0:0:0:
409,187,151279,1,2,0:0:0:0:
409,187,152542,5,2,0:0:0:0:
409,187,153174,5,2,0:0:0:0:
380,172,153490,1,2,0:0:0:0:
280,257,153805,1,2,0:0:0:0:
273,259,155069,6,0,P|221:235|165:246,1,95.9999970703126,2|0,3:2|3:0,0:0:0:0:
111,301,155700,2,0,P|63:302|21:280,1,95.9999970703126,2|2,3:2|3:2,0:0:0:0:
8,184,156332,2,0,P|21:131|30:82,2,95.9999970703126,2|0|0,3:2|3:0|3:0,0:0:0:0:
8,184,157279,1,0,3:0:0:0:
131,140,157595,6,0,P|180:132|232:130,1,95.9999970703126,2|0,3:2|3:0,0:0:0:0:
317,98,158227,2,0,P|366:105|418:108,1,95.9999970703126,2|2,3:2|3:2,0:0:0:0:
479,39,158858,1,2,3:2:0:0:
506,130,159174,1,2,3:2:0:0:
432,191,159490,1,2,3:2:0:0:
459,282,159806,1,2,3:2:0:0:
429,377,160121,6,0,P|367:368|351:368,2,64,0|0|6,3:0|0:0|3:2,0:0:0:0:
306,283,160753,2,0,P|274:285|242:292,2,64,0|0|6,3:0|0:0|3:2,0:0:0:0:
432,191,161384,2,0,P|454:134|418:67,1,128,0|6,3:0|3:2,0:0:0:0:
279,37,162016,2,0,P|210:30|127:17,1,128,0|6,3:0|3:2,0:0:0:0:
183,143,162648,6,0,P|190:183|196:227,1,71.9999978027344,2|2,3:2|0:0,0:0:0:0:
94,305,162963,2,0,P|98:269|105:233,1,71.9999978027344,6|2,3:2|0:0,0:0:0:0:
287,194,163279,6,0,P|294:234|300:278,1,80,2|2,3:2|0:0,0:0:0:0:
172,384,163595,2,0,P|177:344|184:305,1,80,6|2,3:2|0:0,0:0:0:0:
349,371,163911,5,10,3:2:0:0:
94,305,164227,1,10,3:2:0:0:
287,194,164542,6,0,B|332:115|343:62|299:20|215:37|234:118,1,240,2|2,0:0|0:0,0:0:0:0:
143,206,165174,6,0,P|96:194|38:183,1,92.0000017547608,6|0,3:2|0:0,0:0:0:0:
146,77,165490,1,10,0:0:0:0:
218,233,165648,1,0,0:0:0:0:
64,272,165805,2,0,P|46:212|60:171,1,92.0000017547608,2|0,3:2|3:0,0:0:0:0:
176,308,166121,1,10,0:0:0:0:
46,365,166279,1,2,0:0:0:0:
237,370,166437,6,0,P|284:358|342:347,1,92.0000017547608,2|0,3:2|3:0,0:0:0:0:
383,211,166753,1,10,0:0:0:0:
300,258,166911,1,2,0:0:0:0:
457,342,167069,2,0,B|472:295|472:295|453:233,1,92.0000017547608,2|0,3:2|3:0,0:0:0:0:
380,123,167384,2,0,B|367:163|367:163|382:210,1,92.0000017547608,10|0,0:0|0:0,0:0:0:0:
475,98,167700,6,0,P|423:32|317:54,1,184.000003509522,4|10,3:2|0:0,0:0:0:0:
272,162,168174,1,2,0:0:0:0:
188,99,168332,2,0,L|200:1,2,92.0000017547608,2|0|10,3:2|3:0|0:0,0:0:0:0:
107,165,168805,1,2,0:0:0:0:
0,11,168963,6,0,P|62:16|114:23,1,92.0000017547608,2|0,3:2|3:0,0:0:0:0:
107,165,169279,2,0,P|61:170|15:173,1,92.0000017547608,10|2,0:0|0:0,0:0:0:0:
15,173,169516,1,0,0:0:0:0:
15,173,169595,1,2,3:2:0:0:
32,303,169753,1,0,3:0:0:0:
199,264,169911,2,0,P|211:202|215:167,1,92.0000017547608,10|0,0:0|0:0,0:0:0:0:
331,41,170227,6,0,B|409:41|409:41|445:69|445:69|533:69,2,184.000003509522,4|8|0,3:2|0:0|3:0,0:0:0:0:
241,94,171016,1,2,3:2:0:0:
361,215,171174,2,0,P|381:166|375:127,1,92.0000017547608,8|2,0:0|0:0,0:0:0:0:
214,173,171490,6,0,P|165:167|106:160,2,92.0000017547608,0|0|8,3:0|3:0|0:0,0:0:0:0:
270,272,171963,1,0,0:0:0:0:
197,358,172121,2,0,P|151:363|105:369,1,92.0000017547608,0|0,3:0|3:0,0:0:0:0:
1,239,172437,2,0,P|17:316|21:346,1,92.0000017547608,8|0,0:0|0:0,0:0:0:0:
113,240,172753,6,0,P|122:150|136:49,1,184.000003509522,4|8,3:2|0:0,0:0:0:0:
4,9,173227,1,2,0:0:0:0:
22,140,173384,1,2,3:2:0:0:
7,36,173542,1,2,3:2:0:0:
134,57,173700,2,0,P|179:62|225:68,1,92.0000017547608,10|2,0:0|0:0,0:0:0:0:
324,176,174016,6,0,P|278:181|232:187,1,92.0000017547608,2|0,3:2|3:0,0:0:0:0:
113,240,174332,1,14,0:0:0:0:
158,145,174490,1,2,0:0:0:0:
249,270,174648,1,2,3:2:0:0:
324,176,174805,1,0,3:0:0:0:
249,270,174963,2,0,P|265:347|269:377,1,92.0000017547608,10|0,0:0|0:0,0:0:0:0:
461,282,175279,6,0,P|415:276|369:270,1,92.0000017547608,14|0,0:0|0:0,0:0:0:0:
232,187,175595,2,0,P|278:181|324:176,1,92.0000017547608,10|0,0:0|0:0,0:0:0:0:
460,88,175911,2,0,P|414:82|368:76,1,92.0000017547608,10|0,0:0|0:0,0:0:0:0:
205,99,176227,1,10,0:0:0:0:
324,176,176384,1,2,0:0:0:0:
285,16,176542,6,0,P|246:41|207:66,1,92.0000017547608,2|0,3:0|0:0,0:0:0:0:
104,73,176858,2,0,P|90:116|77:161,1,92.0000017547608,10|0,0:0|0:0,0:0:0:0:
1,232,177174,2,0,P|18:274|37:316,2,92.0000017547608,2|0|10,3:2|0:0|0:0,0:0:0:0:
1,232,177805,6,0,P|51:211|110:231,1,92.0000017547608,14|0,0:0|0:0,0:0:0:0:
208,174,178121,2,0,P|200:228|153:269,1,92.0000017547608,10|0,0:0|0:0,0:0:0:0:
153,382,178437,2,0,P|109:348|97:287,1,92.0000017547608,10|0,0:0|0:0,0:0:0:0:
262,290,178753,1,10,0:0:0:0:
247,377,178911,1,2,0:0:0:0:
356,251,179069,6,0,P|351:195|340:133,1,92.0000017547608,2|0,3:2|3:0,0:0:0:0:
213,65,179384,2,0,P|206:110|202:156,1,92.0000017547608,14|0,0:0|0:0,0:0:0:0:
342,79,179700,1,2,3:2:0:0:
282,3,179858,1,8,0:0:0:0:
282,3,179937,1,8,0:0:0:0:
282,3,180016,2,0,L|233:-8,3,46.0000008773804,10|8|10|8,0:0|0:0|0:0|0:0,0:0:0:0:
154,10,180332,6,0,B|41:-20|76:61|-30:22,1,184.000003509522,6|8,3:2|0:0,0:0:0:0:
0,142,180805,1,2,0:0:0:0:
113,182,180963,2,0,P|125:138|113:94,1,92.0000017547608,2|0,3:2|3:0,0:0:0:0:
0,168,181279,2,0,P|-24:219|-9:260,1,92.0000017547608,8|2,0:0|0:0,0:0:0:0:
160,308,181595,6,0,P|214:299|261:293,2,92.0000017547608,2|0|10,3:2|3:0|0:0,0:0:0:0:
59,322,182069,1,2,0:0:0:0:
113,182,182227,1,2,3:2:0:0:
148,280,182384,1,0,3:0:0:0:
206,122,182542,2,0,P|202:76|194:30,1,92.0000017547608,8|2,0:0|0:0,0:0:0:0:
70,22,182858,6,0,P|159:49|214:6,1,138.000002632141,6|0,3:2|0:0,0:0:0:0:
231,19,183174,2,0,P|320:-8|375:35,1,138.000002632141,14|0,0:0|0:0,0:0:0:0:
428,69,183490,2,0,P|418:138|407:232,1,138.000002632141,6|0,3:2|0:0,0:0:0:0:
387,292,183805,2,0,B|406:311|420:342|420:342|431:318|449:296,1,92.0000017547608,14|0,0:0|0:0,0:0:0:0:
409,205,184121,6,0,P|340:217|298:226,1,92.0000017547608,2|0,3:2|0:0,0:0:0:0:
206,122,184437,2,0,P|275:134|317:143,1,92.0000017547608,10|2,0:0|0:0,0:0:0:0:
241,268,184753,2,0,P|172:280|130:289,1,92.0000017547608,10|0,0:0|3:0,0:0:0:0:
40,173,185069,2,0,P|105:133|82:218,1,184.000003509522,14|2,0:0|0:0,0:0:0:0:
256,192,185463,12,8,186332,3:2:0:0:
498,297,186648,6,0,P|495:253|490:203,1,80,6|2,3:2|0:0,0:0:0:0:
492,217,186884,1,2,0:0:0:0:
492,217,186963,1,10,0:0:0:0:
424,127,187121,1,2,0:0:0:0:
359,264,187279,2,0,P|296:292|217:221,1,160,2|10,3:2|0:0,0:0:0:0:
189,145,187753,1,2,0:0:0:0:
315,128,187911,6,0,P|302:193|296:231,1,80,2|0,3:2|3:0,0:0:0:0:
197,117,188227,2,0,P|189:77|181:38,1,80,10|0,0:0|0:0,0:0:0:0:
27,42,188542,2,0,B|126:58|126:58|181:37,1,160,2|10,3:2|0:0,0:0:0:0:
105,142,189016,1,0,0:0:0:0:
145,257,189174,6,0,L|235:245,1,80,6|2,3:2|0:0,0:0:0:0:
224,246,189411,1,2,0:0:0:0:
224,246,189490,1,10,0:0:0:0:
164,364,189648,1,2,0:0:0:0:
54,280,189805,2,0,P|60:206|134:165,1,160,2|10,3:2|0:0,0:0:0:0:
231,159,190279,1,2,0:0:0:0:
227,48,190437,6,0,P|218:105|210:162,1,80,2|0,3:2|0:0,0:0:0:0:
352,198,190753,2,0,P|346:158|340:119,1,80,10|0,0:0|0:0,0:0:0:0:
426,0,191069,2,0,P|495:-8|528:74,1,160,2|8,3:2|0:0,0:0:0:0:
448,124,191542,1,0,0:0:0:0:
498,237,191700,6,0,P|507:279|512:322,1,80,6|2,3:2|3:2,0:0:0:0:
512,316,191937,1,2,0:0:0:0:
512,316,192016,1,10,0:0:0:0:
414,384,192174,1,2,0:0:0:0:
286,320,192332,2,0,P|211:309|122:301,1,160,2|10,3:2|0:0,0:0:0:0:
27,362,192805,1,2,0:0:0:0:
127,301,192963,6,0,P|140:253|122:201,1,80,2|0,3:2|3:0,0:0:0:0:
25,162,193279,2,0,P|19:122|32:85,1,80,10|0,0:0|0:0,0:0:0:0:
115,72,193516,1,0,0:0:0:0:
115,72,193595,2,0,P|174:65|205:61,1,80,2|0,3:2|3:0,0:0:0:0:
281,164,193911,2,0,P|222:157|191:153,1,80,10|0,0:0|0:0,0:0:0:0:
305,55,194227,5,6,3:2:0:0:
389,128,194384,2,0,P|383:155|380:177,2,40,2|2|10,3:2|0:0|0:0,0:0:0:0:
413,12,194700,1,2,0:0:0:0:
497,85,194858,2,0,P|480:173|468:256,1,160,2|10,3:2|0:0,0:0:0:0:
461,343,195332,1,2,0:0:0:0:
354,314,195490,6,0,P|401:318|441:323,1,80,2|2,3:2|3:2,0:0:0:0:
242,232,195805,2,0,P|282:229|322:225,1,80,6|2,0:0|0:0,0:0:0:0:
381,335,196121,2,0,P|428:339|468:344,1,80,2|2,3:2|3:2,0:0:0:0:
269,253,196437,2,0,P|308:249|348:245,1,80,10|2,0:0|0:0,0:0:0:0:
245,355,196753,6,0,P|196:335|140:334,1,80,6|2,3:2|0:0,0:0:0:0:
169,331,196990,1,2,0:0:0:0:
169,331,197069,1,10,0:0:0:0:
69,380,197227,1,2,0:0:0:0:
0,266,197384,2,0,P|-11:184|50:133,1,160,2|10,3:2|0:0,0:0:0:0:
149,104,197858,1,2,0:0:0:0:
155,225,198016,6,0,P|116:221|76:217,1,80,2|0,3:2|3:0,0:0:0:0:
242,158,198332,2,0,P|281:154|321:150,1,80,10|0,0:0|0:0,0:0:0:0:
236,43,198648,1,2,3:2:0:0:
149,104,198805,1,0,3:0:0:0:
63,12,198963,2,0,P|102:0|149:8,1,80,10|0,0:0|0:0,0:0:0:0:
266,55,199279,6,0,P|305:59|343:47,1,80,6|2,3:2|0:0,0:0:0:0:
343,47,199516,1,2,0:0:0:0:
343,47,199595,1,10,0:0:0:0:
454,0,199753,1,2,0:0:0:0:
512,128,199911,2,0,P|497:210|485:287,1,160,2|10,3:2|0:0,0:0:0:0:
387,210,200384,1,2,0:0:0:0:
308,339,200542,5,2,3:2:0:0:
278,148,200858,5,10,0:0:0:0:
386,352,201174,6,0,P|339:343|290:336,1,80,2|0,3:2|3:0,0:0:0:0:
178,280,201490,2,0,P|225:271|274:264,1,80,8|0,0:0|0:0,0:0:0:0:
387,210,201805,6,0,P|401:156|381:107,1,80,6|2,3:2|3:2,0:0:0:0:
396,133,202042,1,2,0:0:0:0:
396,133,202121,1,10,0:0:0:0:
330,44,202279,1,2,0:0:0:0:
193,111,202437,2,0,B|128:117|128:117|102:96|102:96|25:102,1,160,2|10,3:2|0:0,0:0:0:0:
65,212,202911,1,2,0:0:0:0:
40,100,203069,6,0,L|34:4,1,80,2|0,3:2|3:0,0:0:0:0:
197,31,203384,2,0,L|191:127,1,80,10|0,0:0|0:0,0:0:0:0:
179,194,203621,1,0,0:0:0:0:
179,194,203700,2,0,P|224:189|259:165,1,80,2|0,3:2|3:0,0:0:0:0:
331,75,204016,2,0,P|376:80|411:104,1,80,10|0,0:0|0:0,0:0:0:0:
459,221,204332,5,6,3:2:0:0:
338,239,204490,1,2,0:0:0:0:
338,239,204569,1,2,0:0:0:0:
338,239,204648,2,0,L|342:159,1,80,10|2,0:0|0:0,0:0:0:0:
276,302,204963,2,0,P|355:332|416:276,1,160,2|10,3:2|0:0,0:0:0:0:
463,189,205437,1,2,0:0:0:0:
512,310,205595,5,2,3:2:0:0:
467,157,205753,1,2,3:2:0:0:
338,239,205911,2,0,P|300:218|245:219,1,80,6|2,0:0|0:0,0:0:0:0:
139,322,206227,1,2,3:2:0:0:
276,302,206384,1,2,3:2:0:0:
170,197,206542,1,10,0:0:0:0:
276,302,206700,2,0,L|265:392,1,80,2|0,0:0|0:0,0:0:0:0:
256,0,207805,5,8,0:0:0:0:
256,0,208121,6,0,P|257:45|244:85,1,71.9999978027344,2|0,0:0|0:0,0:0:0:0:
259,102,208437,6,0,P|220:125|179:134,1,71.9999978027344,2|0,0:0|0:0,0:0:0:0:
172,155,208753,6,0,P|132:133|104:102,1,71.9999978027344,2|0,0:0|0:0,0:0:0:0:
82,106,209069,6,0,P|81:61|94:21,1,71.9999978027344,2|0,0:0|0:0,0:0:0:0:
0,6,209384,6,0,L|83:23,1,80,2|0,0:0|0:0,0:0:0:0:
82,106,209700,6,0,L|-1:123,1,80,2|0,0:0|0:0,0:0:0:0:
0,206,210016,6,0,L|83:223,1,80,2|0,0:0|0:0,0:0:0:0:
189,261,210332,6,0,B|188:296|170:322|170:322|116:221|214:230|159:125,1,240,14|0,0:0|0:0,0:0:0:0:
