osu file format v14

[General]
AudioFilename: audio.mp3
AudioLeadIn: 0
PreviewTime: 30455
Countdown: 0
SampleSet: Soft
StackLeniency: 0.4
Mode: 0
LetterboxInBreaks: 0
WidescreenStoryboard: 1

[Editor]
Bookmarks: 95508,110350
DistanceSpacing: 1.2
BeatDivisor: 4
GridSize: 16
TimelineZoom: 1.9

[Metadata]
Title:StaRt
TitleUnicode:StaRt
Artist:Mrs. GREEN APPLE
ArtistUnicode:Mrs. GREEN APPLE
Creator:Aeril
Version:Hard
Source:
Tags:variety 2015 mrs jpop japanese toybot vikala rock jrock j-rock j-pop pop poprock pop-rock 5 five ミセスグリーンアップル motoki omori 大森元貴 hiroto wakai 若井滉斗 ayaka yamanaka 山中綾華 ryoka fujisawa 藤澤涼架 kiyokatsu kiyokazu takano 髙野清宗
BeatmapID:2389705
BeatmapSetID:1135798

[Difficulty]
HPDrainRate:4
CircleSize:3.5
OverallDifficulty:6
ApproachRate:8
SliderMultiplier:1.4
SliderTickRate:1

[Events]
//Background and Video events
0,0,"StaRt.jpg",0,0
//Break Periods
2,144330,148432
//Storyboard Layer 0 (Background)
//Storyboard Layer 1 (Fail)
//Storyboard Layer 2 (Pass)
//Storyboard Layer 3 (Foreground)
//Storyboard Layer 4 (Overlay)
//Storyboard Sound Samples

[TimingPoints]
130,315.789473684211,4,2,0,55,1,0
2498,-100,4,2,0,65,0,0
2656,-83.3333333333333,4,2,0,70,0,0
12761,-100,4,2,0,55,0,0
22866,-90.9090909090909,4,2,0,65,0,0
32340,-90.9090909090909,4,2,0,70,0,0
32972,-83.3333333333333,4,2,0,80,0,1
42761,-83.3333333333333,4,2,0,80,0,0
43077,-100,4,2,0,80,0,1
44024,-100,4,2,0,80,0,0
45603,-100,4,2,0,80,0,1
46551,-100,4,2,0,80,0,0
48130,-83.3333333333333,4,2,0,80,0,1
51919,-100,4,2,0,65,0,0
53182,-83.3333333333333,4,2,0,70,0,0
63287,-83.3333333333333,4,2,0,45,0,0
73393,-83.3333333333333,4,2,0,65,0,0
82551,-83.3333333333333,4,2,0,70,0,0
83498,-83.3333333333333,4,2,0,80,0,1
93287,-83.3333333333333,4,2,0,80,0,0
93603,-100,4,2,0,80,0,1
94551,-100,4,2,0,80,0,0
96130,-100,4,2,0,80,0,1
97077,-100,4,2,0,80,0,0
98656,-83.3333333333333,4,2,0,80,0,1
102445,-100,4,2,0,65,0,0
103708,-90.9090909090909,4,2,0,60,0,0
113814,-90.9090909090909,4,2,0,50,0,0
114130,-90.9090909090909,4,2,0,65,0,0
121393,-90.9090909090909,4,2,0,70,0,0
123287,-90.9090909090909,4,2,0,75,0,0
123919,-83.3333333333333,4,2,0,85,0,1
133708,-83.3333333333333,4,2,0,80,0,0
134024,-83.3333333333333,4,2,0,85,0,1
144130,-83.3333333333333,4,2,0,60,0,0
149182,-125,4,2,0,45,0,0
153919,-125,4,2,0,30,0,0
154235,-125,4,2,0,50,0,0
162919,-125,4,2,0,55,0,0
163077,-125,4,2,0,65,0,0
164340,-83.3333333333333,4,2,0,80,0,1
174130,-83.3333333333333,4,2,0,80,0,0
174445,-100,4,2,0,80,0,1
175393,-100,4,2,0,80,0,0
176972,-100,4,2,0,80,0,1
177919,-90.9090909090909,4,2,0,80,0,0
179498,-83.3333333333333,4,2,0,80,0,1
183287,-83.3333333333333,4,2,0,65,0,1
184551,-125,4,2,0,55,0,0
185814,-83.3333333333333,4,2,0,70,0,0
206972,-83.3333333333333,4,2,0,60,0,0
207287,-166.666666666667,4,2,0,50,0,0
209498,-100,4,2,0,75,0,0
209814,-100,4,2,0,5,0,0

[Colours]
Combo1 : 230,184,0
Combo2 : 226,138,255
Combo3 : 242,40,126
Combo4 : 107,245,215

[HitObjects]
401,300,2340,5,4,3:1:0:0:
475,361,2498,1,2,0:0:0:0:
475,361,2577,1,2,0:0:0:0:
475,361,2656,2,0,P|450:290|460:190,1,167.999994873047,4|0,3:2|1:0,0:0:0:0:
508,111,3130,1,2,0:0:0:0:
422,56,3287,2,0,B|391:21|391:21|357:82|396:149,1,167.999994873047,8|0,3:0|1:0,0:0:0:0:
389,137,3761,1,2,0:0:0:0:
291,139,3919,6,0,L|202:152,1,83.9999974365235,4|0,3:0|0:0,0:0:0:0:
165,59,4235,2,0,L|-15:34,2,167.999994873047,0|8|0,1:0|3:0|1:0,0:0:0:0:
165,59,5182,6,0,P|121:102|93:168,1,125.999996154785,4|2,3:2|0:0,0:0:0:0:
75,153,5498,2,0,P|75:201|91:243,1,83.9999974365235,0|2,1:0|0:0,0:0:0:0:
24,315,5814,2,0,B|113:300|104:349|209:320,1,167.999994873047,8|0,3:0|1:0,0:0:0:0:
271,384,6287,1,2,0:0:0:0:
338,309,6445,5,4,1:3:0:0:
338,309,6761,1,4,1:3:0:0:
338,309,7077,2,0,B|304:278|304:278|271:173,1,125.999996154785,4|0,1:3|0:0,0:0:0:0:
229,205,7393,2,0,L|239:111,1,83.9999974365235,2|0,1:2|0:0,0:0:0:0:
141,53,7708,6,0,P|184:32|270:30,1,125.999996154785,4|2,3:2|0:0,0:0:0:0:
279,11,8024,2,0,P|324:37|359:43,1,83.9999974365235,0|2,1:0|0:0,0:0:0:0:
449,4,8340,2,0,B|435:46|435:46|461:118|435:171,1,167.999994873047,8|0,3:0|1:0,0:0:0:0:
437,166,8814,1,2,0:0:0:0:
387,256,8972,6,0,L|395:356,1,83.9999974365235,4|0,3:0|0:0,0:0:0:0:
307,384,9287,2,0,P|256:341|192:335,1,125.999996154785,0|0,1:0|1:0,0:0:0:0:
182,347,9603,2,0,L|193:254,1,83.9999974365235,8|2,3:0|3:2,0:0:0:0:
204,167,9919,1,0,1:0:0:0:
204,167,10235,6,0,P|184:108|187:23,1,125.999996154785,4|2,3:2|0:0,0:0:0:0:
164,30,10551,2,0,P|105:53|77:54,1,83.9999974365235,0|2,1:0|0:0,0:0:0:0:
0,0,10866,2,0,L|23:180,1,167.999994873047,8|0,3:0|1:0,0:0:0:0:
21,166,11340,1,2,0:0:0:0:
73,251,11498,6,0,L|64:343,1,83.9999974365235,2|2,3:0|0:0,0:0:0:0:
180,384,11814,1,4,1:2:0:0:
180,384,12130,2,0,B|218:369|218:369|266:375,1,83.9999974365235,4|2,3:0|3:2,0:0:0:0:
336,321,12445,2,0,B|374:336|374:336|422:330,1,83.9999974365235,2|2,1:2|0:0,0:0:0:0:
483,382,12761,6,0,P|478:329|510:230,2,140,4|2|4,3:2|0:2|3:0,0:0:0:0:
373,254,13708,2,0,P|380:213|373:168,1,70,2|2,1:2|0:0,0:0:0:0:
439,127,14024,2,0,P|369:135|286:107,1,140,4|2,3:0|1:2,0:0:0:0:
302,116,14498,1,2,0:0:0:0:
237,63,14656,2,0,L|258:228,1,140,4|2,3:0|1:2,0:0:0:0:
89,170,15287,5,4,3:0:0:0:
216,279,15603,2,0,P|171:290|141:309,1,70,2|2,1:2|0:0,0:0:0:0:
108,365,15919,1,4,3:0:0:0:
275,343,16235,2,0,P|320:354|350:373,1,70,2|2,1:2|0:0,0:0:0:0:
365,285,16551,2,0,P|423:277|515:218,2,140,4|2|2,3:0|1:2|3:2,0:0:0:0:
315,196,17340,1,8,3:1:0:0:
315,196,17498,1,8,1:1:0:0:
387,0,17814,6,0,P|375:56|384:157,1,140,4|2,3:2|1:2,0:0:0:0:
315,196,18287,2,0,P|327:252|318:353,1,140,2|8,0:0|3:0,0:0:0:0:
238,322,18761,2,0,L|145:334,2,70,2|2|4,1:2|0:0|3:0,0:0:0:0:
90,240,19393,2,0,L|-3:228,1,70,2|2,1:2|0:0,0:0:0:0:
2,149,19708,1,4,3:0:0:0:
170,22,20024,5,2,1:2:0:0:
170,22,20340,1,4,3:0:0:0:
183,105,20498,2,0,L|201:274,1,140,2|2,3:2|0:0,0:0:0:0:
289,344,20972,2,0,L|307:175,1,140,4|0,3:0|1:2,0:0:0:0:
366,90,21445,2,0,L|444:75,1,70,2|4,0:0|3:0,0:0:0:0:
495,17,21761,1,4,3:0:0:0:
434,76,21919,5,2,1:2:0:0:
473,317,22235,1,4,1:3:0:0:
473,317,22866,6,0,B|454:350|454:350|383:325|389:236,1,154.000004699707,4|2,3:1|1:2,0:0:0:0:
464,208,23340,1,2,0:0:0:0:
450,116,23498,2,0,L|439:16,1,77.0000023498536,4|8,3:0|3:0,0:0:0:0:
354,7,23814,2,0,L|345:83,1,77.0000023498536,2|2,1:2|0:0,0:0:0:0:
281,151,24130,2,0,L|198:125,1,77.0000023498536,4|8,3:0|3:0,0:0:0:0:
143,60,24445,2,0,B|58:69|95:98|-7:108,2,154.000004699707,2|4|2,1:2|3:0|1:2,0:0:0:0:
44,217,25393,6,0,P|91:232|154:225,1,77.0000023498536,4|8,3:0|3:0,0:0:0:0:
150,319,25708,2,0,P|197:304|289:324,1,115.50000352478,2|2,1:2|0:3,0:0:0:0:
282,304,26024,2,0,L|297:389,2,77.0000023498536,4|8|2,3:0|3:0|1:2,0:0:0:0:
374,290,26498,1,2,0:0:0:0:
437,222,26656,6,0,L|512:235,1,77.0000023498536,8|2,1:3|0:0,0:0:0:0:
506,112,26972,2,0,L|431:125,1,77.0000023498536,4|2,1:3|0:0,0:0:0:0:
350,173,27287,2,0,B|280:182|280:182|272:189|272:189|192:201,1,154.000004699707,4|0,3:0|1:0,0:0:0:0:
54,89,27919,6,0,P|121:76|178:5,1,154.000004699707,4|2,3:2|1:2,0:0:0:0:
268,2,28393,1,2,0:0:0:0:
316,80,28551,2,0,B|393:83|364:124|477:120,1,154.000004699707,4|2,3:0|1:2,0:0:0:0:
467,336,29182,6,0,L|512:180,2,154.000004699707,4|4|4,3:0|1:2|3:0,0:0:0:0:
382,296,29972,1,8,3:0:0:0:
290,310,30130,2,0,L|211:325,1,77.0000023498536,2|2,1:2|0:0,0:0:0:0:
94,340,30445,5,4,1:3:0:0:
94,340,32340,2,0,B|108:262|108:262|68:179,1,154.000004699707,4|4,3:2|3:3,0:0:0:0:
28,92,32814,5,0,0:0:0:0:
28,92,32893,1,0,0:0:0:0:
28,92,32972,2,0,P|70:75|111:42,1,83.9999974365235,4|0,3:1|0:0,0:0:0:0:
197,23,33287,2,0,P|239:40|280:73,1,83.9999974365235,2|0,1:2|0:0,0:0:0:0:
262,164,33603,2,0,P|220:147|179:114,1,83.9999974365235,4|4,3:0|3:0,0:0:0:0:
106,183,33919,2,0,L|118:378,1,167.999994873047,2|4,1:2|3:0,0:0:0:0:
213,380,34393,1,4,3:0:0:0:
292,317,34551,2,0,B|378:312|367:354|465:343,2,167.999994873047,2|4|2,1:2|3:0|1:2,0:0:0:0:
482,249,35498,5,4,3:2:0:0:
339,106,35814,2,0,P|381:82|427:76,1,83.9999974365235,2|2,1:2|0:0,0:0:0:0:
501,21,36130,2,0,P|433:29|330:5,1,167.999994873047,4|2,3:0|1:2,0:0:0:0:
249,59,36603,1,2,0:0:0:0:
152,30,36761,2,0,B|87:40|31:4|31:4|46:49,1,167.999994873047,4|2,3:0|1:2,0:0:0:0:
109,163,37235,1,2,0:0:0:0:
109,163,37314,1,0,1:0:0:0:
109,163,37393,2,0,L|85:346,1,167.999994873047,4|2,3:0|1:2,0:0:0:0:
281,382,38024,6,0,P|271:340|288:288,1,83.9999974365235,4|2,3:2|0:0,0:0:0:0:
381,297,38340,2,0,P|391:339|374:391,1,83.9999974365235,2|2,1:2|0:0,0:0:0:0:
427,210,38656,2,0,L|523:199,1,83.9999974365235,4|4,3:0|3:0,0:0:0:0:
457,113,38972,2,0,L|361:124,1,83.9999974365235,2|2,1:2|0:2,0:0:0:0:
293,60,39287,6,0,P|220:100|115:100,1,167.999994873047,4|2,3:0|1:2,0:0:0:0:
46,144,39761,1,2,0:0:0:0:
46,144,39919,2,0,P|129:148|202:188,1,167.999994873047,4|2,3:0|1:2,0:0:0:0:
52,371,40551,5,4,3:2:0:0:
84,276,40708,2,0,L|63:95,1,167.999994873047,2|0,0:0|0:0,0:0:0:0:
9,24,41182,2,0,B|111:31|56:70|187:77,1,167.999994873047,4|2,3:0|1:2,0:0:0:0:
267,50,41656,1,2,0:0:0:0:
267,50,41814,2,0,B|369:43|314:4|445:-3,2,167.999994873047,4|4|4,3:0|1:2|3:0,0:0:0:0:
289,148,42603,1,4,3:0:0:0:
311,246,42761,1,0,1:0:0:0:
457,384,43077,5,6,1:2:0:0:
497,135,43393,1,2,1:2:0:0:
457,384,43708,1,2,1:2:0:0:
334,326,44024,6,0,P|291:345|253:353,1,70,0|2,1:0|0:0,0:0:0:0:
196,307,44340,2,0,P|139:292|45:289,1,140,2|2,3:2|3:0,0:0:0:0:
4,128,44972,2,0,P|73:125|141:108,1,140,0|0,3:0|3:3,0:0:0:0:
0,17,45603,5,6,1:2:0:0:
40,266,45919,1,2,1:2:0:0:
0,17,46234,1,2,1:2:0:0:
122,79,46551,6,0,P|160:66|201:65,1,70,0|2,1:0|0:0,0:0:0:0:
260,19,46866,1,2,3:2:0:0:
260,19,47024,1,0,3:0:0:0:
361,49,47182,2,0,L|371:213,1,140,4|0,3:2|1:0,0:0:0:0:
428,263,47656,1,0,3:0:0:0:
428,263,47735,1,0,3:0:0:0:
428,263,47814,2,0,L|414:317,3,35,0|0|0|0,1:0|1:0|1:0|3:0,0:0:0:0:
448,338,48130,6,0,P|368:339|278:386,1,167.999994873047,6|0,3:2|1:0,0:0:0:0:
228,302,48603,1,2,0:0:0:0:
228,302,48761,2,0,P|267:232|271:130,1,167.999994873047,4|0,3:0|1:2,0:0:0:0:
227,61,49235,1,2,0:0:0:0:
227,61,49393,2,0,L|23:29,2,167.999994873047,4|2|4,3:0|1:2|3:0,0:0:0:0:
326,76,50182,1,8,3:0:0:0:
418,36,50340,1,0,1:0:0:0:
482,227,50656,6,0,L|392:212,1,83.9999974365235,6|0,1:2|0:0,0:0:0:0:
351,302,50972,2,0,L|433:315,1,83.9999974365235,2|0,1:2|0:0,0:0:0:0:
281,368,51287,2,0,L|191:383,1,83.9999974365235,2|0,1:2|0:0,0:0:0:0:
161,266,51603,2,0,L|251:251,1,83.9999974365235,2|0,1:2|0:0,0:0:0:0:
324,143,51919,5,4,3:0:0:0:
324,143,52235,2,0,L|251:149,1,70,8|2,3:0|3:0,0:0:0:0:
194,89,52551,2,0,L|200:16,2,70,4|8|4,3:0|3:0|1:0,0:0:0:0:
194,89,53182,6,0,P|213:133|211:226,1,125.999996154785,4|2,3:0|0:0,0:0:0:0:
202,228,53498,2,0,P|141:219|99:230,1,83.9999974365235,0|2,1:0|0:0,0:0:0:0:
35,279,53814,2,0,B|15:298|15:298|55:364|170:344,1,167.999994873047,8|0,3:0|1:0,0:0:0:0:
138,347,54287,1,2,0:0:0:0:
234,377,54445,6,0,L|323:362,1,83.9999974365235,4|0,3:0|0:0,0:0:0:0:
346,266,54761,2,0,L|517:295,2,167.999994873047,0|8|0,1:0|3:0|1:0,0:0:0:0:
346,266,55708,6,0,L|361:118,1,125.999996154785,4|2,3:2|0:0,0:0:0:0:
344,124,56024,2,0,P|299:141|241:137,1,83.9999974365235,0|2,1:0|0:0,0:0:0:0:
283,42,56340,2,0,B|380:50|345:88|454:89,1,167.999994873047,8|0,3:0|1:0,0:0:0:0:
485,180,56814,1,2,0:0:0:0:
444,274,56972,5,4,1:3:0:0:
444,274,57287,1,4,1:3:0:0:
485,180,57603,2,0,B|441:214|441:214|345:208,1,125.999996154785,4|0,1:3|0:0,0:0:0:0:
327,181,57919,2,0,L|238:196,1,83.9999974365235,2|0,1:2|0:0,0:0:0:0:
211,291,58235,6,0,P|159:306|105:362,1,125.999996154785,4|2,3:2|0:0,0:0:0:0:
87,348,58551,2,0,P|69:306|64:260,1,83.9999974365235,0|2,1:0|0:0,0:0:0:0:
15,179,58866,2,0,B|19:88|55:116|56:2,1,167.999994873047,8|0,3:0|1:0,0:0:0:0:
55,17,59340,1,2,0:0:0:0:
148,56,59498,6,0,L|241:42,1,83.9999974365235,4|0,3:0|0:0,0:0:0:0:
325,7,59814,2,0,L|303:195,1,167.999994873047,0|8,1:0|3:0,0:0:0:0:
404,152,60287,2,0,L|418:28,1,83.9999974365235,2|0,3:2|1:0,0:0:0:0:
413,68,60761,6,0,P|438:128|437:202,1,125.999996154785,4|2,3:2|0:0,0:0:0:0:
457,201,61077,2,0,P|450:256|457:299,1,83.9999974365235,0|2,1:0|0:0,0:0:0:0:
391,357,61393,2,0,P|345:322|218:312,1,167.999994873047,8|0,3:0|1:0,0:0:0:0:
238,306,61866,1,2,0:0:0:0:
147,351,62024,6,0,L|54:338,1,83.9999974365235,2|2,3:0|0:0,0:0:0:0:
23,220,62340,1,4,1:2:0:0:
23,220,62656,2,0,B|32:177|32:177|18:123,1,83.9999974365235,4|2,3:0|3:2,0:0:0:0:
98,83,62972,2,0,B|89:40|89:40|103:-14,2,83.9999974365235,2|2|2,1:2|0:0|0:0,0:0:0:0:
98,83,63919,5,2,0:0:0:0:
113,319,64551,1,2,0:0:0:0:
113,319,65182,1,2,0:0:0:0:
239,119,65814,1,2,0:0:0:0:
239,119,66445,1,2,0:0:0:0:
19,206,67077,1,2,0:0:0:0:
19,206,67708,1,2,0:0:0:0:
134,235,68024,1,8,0:1:0:0:
248,264,68340,5,2,0:0:0:0:
248,264,68972,1,2,0:0:0:0:
434,119,69603,1,2,0:0:0:0:
434,119,70235,1,2,0:0:0:0:
466,352,70866,1,2,0:0:0:0:
466,352,71498,1,2,0:0:0:0:
388,248,72445,5,2,0:0:0:0:
388,248,72761,1,2,0:0:0:0:
509,5,73393,6,0,B|467:57|467:57|447:182,1,167.999994873047,4|2,3:1|1:2,0:0:0:0:
366,211,73866,1,2,0:0:0:0:
274,169,74024,2,0,L|177:180,1,83.9999974365235,4|8,3:0|3:0,0:0:0:0:
116,108,74340,2,0,L|19:97,1,83.9999974365235,2|2,1:2|0:0,0:0:0:0:
20,199,74656,2,0,B|58:217|58:217|82:255,1,83.9999974365235,4|8,3:0|3:0,0:0:0:0:
168,302,74972,2,0,L|148:396,2,83.9999974365235,2|2|4,1:2|0:0|3:0,0:0:0:0:
60,130,75603,6,0,B|46:95|46:95|50:39,1,83.9999974365235,2|2,1:2|0:0,0:0:0:0:
146,20,75919,2,0,L|159:220,2,167.999994873047,4|2|4,3:2|1:2|3:0,0:0:0:0:
238,61,76708,1,8,3:0:0:0:
331,21,76866,2,0,L|435:36,1,83.9999974365235,2|2,1:2|0:0,0:0:0:0:
474,114,77182,6,0,L|457:210,1,83.9999974365235,8|2,1:3|0:0,0:0:0:0:
338,239,77498,2,0,L|355:335,1,83.9999974365235,4|2,1:3|0:0,0:0:0:0:
436,379,77814,2,0,B|359:368|359:368|350:371|350:371|261:358,1,167.999994873047,4|0,3:0|1:0,0:0:0:0:
45,297,78445,6,0,P|59:243|42:122,1,167.999994873047,4|2,3:2|1:2,0:0:0:0:
124,67,78919,1,2,0:0:0:0:
151,164,79077,2,0,B|145:255|181:232|172:337,1,167.999994873047,4|2,3:0|1:2,0:0:0:0:
172,328,79551,1,2,0:0:0:0:
263,369,79708,2,0,L|333:319,1,83.9999974365235,4|8,3:0|3:0,0:0:0:0:
432,322,80024,2,0,L|500:370,2,83.9999974365235,4|2|4,1:2|0:0|3:0,0:0:0:0:
386,231,80498,1,8,3:0:0:0:
451,154,80656,2,0,L|461:62,1,83.9999974365235,6|2,1:2|0:0,0:0:0:0:
353,0,80972,5,4,1:3:0:0:
353,0,82551,1,4,1:3:0:0:
154,33,82866,1,4,1:3:0:0:
154,33,83498,6,0,P|192:60|234:68,1,83.9999974365235,4|0,3:1|0:0,0:0:0:0:
275,156,83814,2,0,P|232:175|204:208,1,83.9999974365235,2|0,1:2|0:0,0:0:0:0:
107,199,84130,2,0,P|111:152|97:111,1,83.9999974365235,4|4,3:0|3:0,0:0:0:0:
5,84,84445,2,0,L|26:266,1,167.999994873047,2|4,1:2|3:0,0:0:0:0:
118,288,84919,1,4,3:0:0:0:
211,326,85077,2,0,B|117:318|161:367|28:352,2,167.999994873047,2|4|2,1:2|3:0|1:2,0:0:0:0:
404,381,86024,5,4,3:2:0:0:
253,246,86340,2,0,P|236:195|235:149,1,83.9999974365235,2|2,1:2|0:0,0:0:0:0:
196,130,86577,1,0,0:0:0:0:
196,130,86656,2,0,P|249:120|342:58,1,167.999994873047,4|2,3:0|1:2,0:0:0:0:
430,107,87130,1,2,0:0:0:0:
495,30,87287,2,0,L|474:199,1,167.999994873047,4|2,3:0|1:2,0:0:0:0:
405,270,87761,1,2,0:0:0:0:
451,359,87919,1,4,3:0:0:0:
430,107,88235,1,2,1:2:0:0:
252,10,88551,6,0,P|261:63|245:111,1,83.9999974365235,4|2,3:2|0:0,0:0:0:0:
153,97,88866,2,0,P|144:44|160:-4,1,83.9999974365235,2|2,1:2|0:0,0:0:0:0:
99,173,89182,2,0,L|-3:158,1,83.9999974365235,4|4,3:0|3:0,0:0:0:0:
31,261,89498,2,0,L|46:363,1,83.9999974365235,2|2,1:2|0:2,0:0:0:0:
139,377,89814,6,0,P|178:348|316:325,1,167.999994873047,4|2,3:0|1:2,0:0:0:0:
384,279,90287,1,2,0:0:0:0:
384,279,90445,2,0,P|301:267|230:223,1,167.999994873047,4|2,3:0|1:2,0:0:0:0:
386,95,91077,6,0,P|396:49|396:1,1,83.9999974365235,4|2,3:2|0:0,0:0:0:0:
300,44,91393,2,0,P|294:108|327:237,1,167.999994873047,2|4,1:2|3:0,0:0:0:0:
371,291,91866,1,4,3:0:0:0:
371,291,92024,2,0,L|457:303,1,83.9999974365235,2|2,1:2|0:0,0:0:0:0:
392,383,92340,2,0,B|290:376|345:337|214:330,2,167.999994873047,4|4|4,3:0|1:2|3:0,0:0:0:0:
454,302,93130,1,4,3:0:0:0:
423,206,93287,1,0,1:0:0:0:
376,15,93603,5,6,1:2:0:0:
128,63,93919,1,2,1:2:0:0:
376,15,94235,1,2,1:2:0:0:
447,129,94551,6,0,P|429:178|425:227,1,70,0|2,1:0|0:0,0:0:0:0:
362,249,94866,2,0,P|383:307|388:395,1,140,2|2,3:2|3:0,0:0:0:0:
222,354,95498,2,0,P|226:284|248:218,1,140,0|0,3:0|3:3,0:0:0:0:
80,206,96130,5,6,1:2:0:0:
328,158,96446,1,2,1:2:0:0:
80,206,96762,1,2,1:2:0:0:
20,81,97077,6,0,P|56:64|90:38,1,70,0|2,1:0|0:0,0:0:0:0:
153,2,97393,1,2,3:2:0:0:
153,2,97551,1,0,3:0:0:0:
165,106,97708,2,0,L|176:262,1,140,4|0,3:2|1:0,0:0:0:0:
124,313,98182,1,0,3:0:0:0:
124,313,98261,1,0,3:0:0:0:
124,313,98340,2,0,L|84:304,3,35,0|0|0|0,1:0|1:0|1:0|3:0,0:0:0:0:
57,345,98656,6,0,B|153:329|130:379|238:355,1,167.999994873047,6|0,3:2|1:0,0:0:0:0:
296,289,99130,1,2,0:0:0:0:
296,289,99287,2,0,P|268:223|270:102,1,167.999994873047,4|0,3:0|1:2,0:0:0:0:
324,46,99761,1,2,0:0:0:0:
324,46,99919,2,0,L|495:25,2,167.999994873047,4|2|4,3:0|1:2|3:0,0:0:0:0:
224,59,100708,1,8,3:0:0:0:
132,16,100866,1,0,1:0:0:0:
36,193,101182,6,0,B|65:248|65:248|51:332,1,125.999996154785,6|0,1:2|0:0,0:0:0:0:
83,352,101498,2,0,L|169:337,1,83.9999974365235,0|2,1:2|0:0,0:0:0:0:
252,284,101814,2,0,L|338:299,1,83.9999974365235,0|2,1:2|0:0,0:0:0:0:
410,199,102130,2,0,L|324:184,1,83.9999974365235,2|0,1:2|0:0,0:0:0:0:
270,84,102445,5,4,3:0:0:0:
270,84,102761,2,0,L|278:10,1,70,8|2,3:0|3:0,0:0:0:0:
360,32,103077,2,0,L|367:101,2,70,4|8|4,3:0|3:0|1:0,0:0:0:0:
360,32,103708,5,4,3:1:0:0:
270,77,103866,2,0,P|234:65|101:54,1,154.000004699707,2|2,0:0|3:0,0:0:0:0:
58,133,104340,2,0,P|80:191|83:303,1,154.000004699707,4|0,3:0|1:0,0:0:0:0:
26,363,104814,2,0,B|61:341|61:341|118:337|174:363,1,154.000004699707,2|2,0:0|3:0,0:0:0:0:
263,323,105287,2,0,B|298:345|298:345|355:349|411:323,1,154.000004699707,0|8,1:0|3:0,0:0:0:0:
484,259,105761,6,0,P|465:224|458:174,1,77.0000023498536,2|0,3:0|0:0,0:0:0:0:
392,118,106077,1,2,0:0:0:0:
392,118,106235,2,0,P|362:153|322:263,1,154.000004699707,4|0,3:2|1:0,0:0:0:0:
252,181,106708,2,0,P|250:132|257:97,1,77.0000023498536,2|4,0:0|3:0,0:0:0:0:
235,5,107024,1,2,0:3:0:0:
160,68,107182,2,0,B|142:149|195:140|149:253,1,154.000004699707,2|8,1:2|3:0,0:0:0:0:
93,294,107656,6,0,P|156:310|232:363,1,154.000004699707,2|2,3:2|0:3,0:0:0:0:
128,365,108130,2,0,P|86:372|49:386,1,77.0000023498536,4|4,3:0|3:0,0:0:0:0:
2,297,108445,2,0,P|6:253|26:203,1,77.0000023498536,2|0,1:2|0:0,0:0:0:0:
70,110,108761,5,4,3:1:0:0:
23,21,108919,2,0,L|181:46,1,154.000004699707,2|2,0:0|3:0,0:0:0:0:
263,93,109393,2,0,L|415:68,1,154.000004699707,4|0,3:0|1:0,0:0:0:0:
471,151,109866,2,0,P|449:192|437:250,1,77.0000023498536,2|4,0:0|3:0,0:0:0:0:
380,302,110182,1,2,3:0:0:0:
310,229,110340,2,0,B|319:203|319:203|238:190|192:245,1,154.000004699707,0|8,0:0|3:0,0:0:0:0:
126,302,110814,2,0,L|116:394,2,77.0000023498536,2|0|2,3:0|1:0|0:0,0:0:0:0:
32,222,111287,5,4,3:2:0:0:
84,136,111445,2,0,L|70:54,1,77.0000023498536,2|0,3:2|1:0,0:0:0:0:
158,9,111761,2,0,B|232:24|232:24|241:31|241:31|336:49,1,154.000004699707,2|2,0:0|0:3,0:0:0:0:
400,6,112235,2,0,B|367:57|367:57|381:151,1,154.000004699707,2|4,1:2|3:0,0:0:0:0:
403,348,112866,1,2,1:2:0:0:
212,286,113182,5,4,1:3:0:0:
120,326,113340,1,4,1:3:0:0:
24,294,113498,2,0,L|10:208,1,77.0000023498536,4|4,1:3|1:3,0:0:0:0:
11,218,114130,5,4,1:2:0:0:
195,142,114445,1,2,1:2:0:0:
45,8,114761,2,0,L|132:21,1,77.0000023498536,0|0,1:2|0:0,0:0:0:0:
79,111,115077,2,0,B|84:171|84:171|91:181|91:181|97:275,1,154.000004699707,2|2,1:2|1:2,0:0:0:0:
133,356,115551,2,0,P|140:314|131:263,1,77.0000023498536,2|2,0:0|1:2,0:0:0:0:
324,347,116024,2,0,L|408:360,1,77.0000023498536,0|0,1:0|0:0,0:0:0:0:
480,297,116340,6,0,B|493:261|493:261|425:239|372:281,1,154.000004699707,4|0,1:2|1:2,0:0:0:0:
313,208,116814,1,2,3:2:0:0:
313,208,116972,2,0,P|327:162|345:140,1,77.0000023498536,2|0,1:2|3:2,0:0:0:0:
378,45,117287,2,0,P|418:39|461:47,2,77.0000023498536,2|2|0,1:2|0:0|1:2,0:0:0:0:
184,98,117919,2,0,L|100:79,1,77.0000023498536,2|2,1:2|0:0,0:0:0:0:
23,28,118235,1,0,1:0:0:0:
142,188,118551,1,2,1:0:0:0:
23,28,118866,6,0,B|4:119|51:84|28:193,1,154.000004699707,6|2,1:0|1:2,0:0:0:0:
71,271,119340,2,0,P|49:312|17:343,1,77.0000023498536,2|0,0:1|0:0,0:0:0:0:
228,317,119814,2,0,B|224:256|264:211|264:211|208:229,1,154.000004699707,2|2,1:0|1:2,0:0:0:0:
192,128,120287,2,0,B|277:130|245:171|358:175,1,154.000004699707,2|2,0:1|0:0,0:0:0:0:
410,105,120761,2,0,L|426:17,1,77.0000023498536,0|2,1:2|0:0,0:0:0:0:
436,129,121077,2,0,L|452:41,1,77.0000023498536,0|0,1:2|0:0,0:0:0:0:
468,228,121393,6,0,L|478:313,1,77.0000023498536,4|8,3:2|3:0,0:0:0:0:
410,379,121708,1,2,1:2:0:0:
218,321,122024,2,0,P|174:331|144:354,1,77.0000023498536,2|2,3:3|3:2,0:0:0:0:
48,337,122340,2,0,P|26:290|21:187,1,154.000004699707,0|4,1:0|3:2,0:0:0:0:
80,109,122814,1,8,3:0:0:0:
45,14,122972,1,2,1:2:0:0:
299,62,123287,5,2,1:2:0:0:
299,62,123445,1,2,1:2:0:0:
299,62,123603,1,2,1:2:0:0:
299,62,123761,1,2,1:2:0:0:
373,142,123919,6,0,L|455:155,1,83.9999974365235,4|0,3:1|0:0,0:0:0:0:
278,190,124235,2,0,L|196:177,1,83.9999974365235,2|0,1:2|0:0,0:0:0:0:
108,244,124551,2,0,L|26:257,1,83.9999974365235,4|0,3:0|0:0,0:0:0:0:
180,322,124866,2,0,L|262:309,1,83.9999974365235,2|0,1:2|0:0,0:0:0:0:
361,260,125182,2,0,B|461:277|414:314|536:331,2,167.999994873047,8|2|4,3:0|1:2|3:0,0:0:0:0:
469,69,126130,1,0,1:0:0:0:
257,15,126445,6,0,L|278:201,1,167.999994873047,4|2,3:1|1:2,0:0:0:0:
208,245,126919,1,2,0:0:0:0:
208,245,127077,2,0,P|144:236|112:243,1,83.9999974365235,4|2,3:0|0:0,0:0:0:0:
118,333,127393,2,0,P|182:342|214:335,1,83.9999974365235,2|2,1:2|0:0,0:0:0:0:
208,222,127708,2,0,P|121:218|30:266,1,167.999994873047,8|2,3:0|1:2,0:0:0:0:
0,171,128182,1,2,0:0:0:0:
0,171,128340,2,0,B|23:109|23:109|1:0,1,167.999994873047,4|2,3:0|1:2,0:0:0:0:
217,54,128972,6,0,B|324:65|286:12|407:30,2,167.999994873047,4|2|4,3:2|1:2|3:0,0:0:0:0:
89,231,129919,2,0,P|93:279|87:320,1,83.9999974365235,0|2,1:0|0:0,0:0:0:0:
179,376,130235,2,0,P|218:348|257:333,1,83.9999974365235,4|2,3:0|0:0,0:0:0:0:
325,253,130551,2,0,P|387:276|494:289,2,167.999994873047,2|8|2,1:2|3:0|1:2,0:0:0:0:
73,345,131498,6,0,B|40:359|40:359|39:280|134:241,1,167.999994873047,4|0,3:2|1:0,0:0:0:0:
41,172,131972,1,2,0:0:0:0:
41,172,132130,2,0,P|14:116|-1:13,1,167.999994873047,4|2,3:0|1:2,0:0:0:0:
206,81,132761,2,0,L|293:92,1,83.9999974365235,4|8,3:0|3:0,0:0:0:0:
319,197,133077,2,0,L|142:208,1,167.999994873047,6|4,1:2|3:0,0:0:0:0:
92,279,133551,1,8,3:0:0:0:
130,368,133708,1,0,1:0:0:0:
130,368,133866,1,0,1:0:0:0:
130,368,134024,6,0,P|175:354|214:354,1,83.9999974365235,4|2,3:1|0:0,0:0:0:0:
307,300,134340,2,0,P|359:316|401:345,1,83.9999974365235,2|2,1:2|0:0,0:0:0:0:
260,204,134656,2,0,P|215:190|176:190,1,83.9999974365235,4|2,3:0|0:0,0:0:0:0:
83,136,134972,2,0,P|31:152|-11:181,1,83.9999974365235,2|2,1:2|0:0,0:0:0:0:
160,59,135287,2,0,P|227:62|340:15,1,167.999994873047,4|2,3:0|1:2,0:0:0:0:
432,10,135761,1,2,0:2:0:0:
432,10,135919,2,0,B|436:109|394:75|400:180,1,167.999994873047,8|0,3:0|1:0,0:0:0:0:
318,375,136551,6,0,L|226:350,1,83.9999974365235,4|2,3:1|0:0,0:0:0:0:
167,292,136866,2,0,P|131:316|82:329,1,83.9999974365235,0|2,1:0|0:0,0:0:0:0:
18,384,137182,2,0,P|39:319|33:210,1,167.999994873047,4|0,3:0|1:0,0:0:0:0:
128,21,137814,2,0,P|108:57|101:99,1,83.9999974365235,8|2,3:0|0:0,0:0:0:0:
187,167,138130,2,0,L|279:154,1,83.9999974365235,0|2,1:0|0:0,0:0:0:0:
361,215,138445,2,0,B|423:213|471:259|471:259|480:217|453:187,1,167.999994873047,4|0,3:0|1:0,0:0:0:0:
423,141,138919,1,2,0:0:0:0:
421,31,139077,6,0,B|326:31|367:75|248:74,1,167.999994873047,4|0,3:2|1:0,0:0:0:0:
157,57,139551,1,2,0:0:0:0:
157,57,139708,2,0,P|168:127|148:247,1,167.999994873047,4|2,3:0|1:2,0:0:0:0:
4,380,140340,2,0,B|-9:332|-9:332|60:315|123:376,1,167.999994873047,4|0,3:2|1:0,0:0:0:0:
207,326,140814,1,2,0:0:0:0:
207,326,140972,2,0,P|259:347|293:352,2,83.9999974365235,4|0|2,3:0|0:0|1:2,0:0:0:0:
15,221,141603,6,0,P|73:184|89:158,1,83.9999974365235,4|2,3:2|0:0,0:0:0:0:
168,106,141919,2,0,P|164:53|142:6,1,83.9999974365235,0|2,1:0|0:0,0:0:0:0:
263,156,142235,2,0,B|349:168|315:210|429:221,1,167.999994873047,4|0,3:0|1:0,0:0:0:0:
483,283,142708,5,2,0:0:0:0:
483,283,142866,2,0,L|472:99,1,167.999994873047,8|2,3:0|1:2,0:0:0:0:
254,94,143498,2,0,L|263:-16,1,83.9999974365235,4|8,3:0|3:0,0:0:0:0:
176,155,143814,1,4,1:2:0:0:
254,94,144130,5,0,3:0:0:0:
64,184,149182,5,2,0:0:0:0:
190,275,149814,1,2,0:0:0:0:
112,332,150129,1,2,0:0:0:0:
34,276,150445,1,2,0:0:0:0:
160,185,151708,5,2,0:0:0:0:
286,94,152340,1,2,0:0:0:0:
208,37,152655,1,2,0:0:0:0:
130,93,152971,1,2,0:0:0:0:
256,186,153919,6,0,P|300:193|339:217,1,84,2|0,0:3|0:0,0:0:0:0:
347,223,154235,2,0,L|336:108,1,112,2|0,3:2|3:0,0:0:0:0:
469,130,154866,2,0,L|480:15,2,112,2|2|2,3:2|3:2|3:2,0:0:0:0:
457,271,155814,1,0,3:0:0:0:
457,271,156130,1,0,3:0:0:0:
457,271,156445,1,0,3:0:0:0:
322,279,156761,6,0,L|200:256,1,112,2|0,3:2|3:0,0:0:0:0:
115,352,157393,2,0,L|-7:375,2,112,2|2|2,3:2|3:2|3:2,0:0:0:0:
41,239,158340,1,0,3:0:0:0:
88,113,158656,1,0,3:0:0:0:
88,113,158972,1,2,3:0:0:0:
88,113,159287,6,0,L|149:13,1,112,2|2,3:2|3:0,0:0:0:0:
220,130,159919,2,0,L|276:232,1,112,2|2,3:2|3:0,0:0:0:0:
139,236,160551,2,0,L|21:233,1,112,2|2,3:2|3:0,0:0:0:0:
91,351,161182,2,0,L|208:348,1,112,2|2,3:2|3:0,0:0:0:0:
339,330,161814,5,2,3:0:0:0:
339,330,161972,2,0,L|394:340,2,56,2|2|2,0:0|3:2|0:0,0:0:0:0:
380,253,162445,2,0,L|435:248,1,56,2|2,3:0|0:0,0:0:0:0:
399,168,162761,2,0,L|440:153,3,28,2|0|2|2,3:2|0:0|0:0|0:0,0:0:0:0:
444,77,163077,5,4,1:3:0:0:
209,32,163393,1,4,1:3:0:0:
408,335,164340,6,0,P|395:286|403:229,1,83.9999974365235,4|2,3:1|0:0,0:0:0:0:
299,282,164656,2,0,P|299:323|287:363,1,83.9999974365235,2|2,1:2|0:0,0:0:0:0:
189,335,164972,2,0,B|97:329|134:376|-3:361,1,167.999994873047,4|2,3:0|1:2,0:0:0:0:
63,269,165445,1,2,3:0:0:0:
17,178,165603,2,0,P|18:108|59:-11,1,167.999994873047,4|2,3:0|1:2,0:0:0:0:
132,66,166077,1,0,0:0:0:0:
225,28,166235,2,0,L|396:16,2,167.999994873047,4|2|4,3:0|1:2|3:2,0:0:0:0:
260,226,167182,6,0,P|306:244|337:268,1,83.9999974365235,2|2,1:2|0:0,0:0:0:0:
395,345,167498,2,0,B|462:367|515:328|515:328|474:272,1,167.999994873047,4|2,3:0|1:2,0:0:0:0:
440,205,167972,1,2,0:0:0:0:
440,205,168130,2,0,P|436:145|463:26,1,167.999994873047,4|2,3:0|1:2,0:0:0:0:
357,23,168603,1,2,0:0:0:0:
357,23,168682,1,0,1:0:0:0:
357,23,168761,2,0,L|256:40,1,83.9999974365235,4|8,3:0|3:0,0:0:0:0:
180,77,169077,6,0,B|114:60|135:102|32:72,1,125.999996154785,2|0,1:2|0:0,0:0:0:0:
79,32,169393,2,0,L|98:217,2,167.999994873047,4|2|4,3:2|1:2|3:0,0:0:0:0:
178,18,170182,1,4,3:0:0:0:
178,18,170340,2,0,P|215:44|253:56,1,83.9999974365235,2|2,1:2|0:0,0:0:0:0:
337,110,170656,2,0,P|392:80|501:56,2,167.999994873047,4|2|4,3:0|1:2|3:0,0:0:0:0:
337,110,171445,1,0,0:0:0:0:
310,207,171603,1,2,1:2:0:0:
173,355,171919,6,0,B|88:341|88:341|81:344|81:344|5:331,2,167.999994873047,4|0|4,3:2|1:0|3:0,0:0:0:0:
261,307,172708,1,4,3:0:0:0:
356,340,172866,2,0,L|457:331,1,83.9999974365235,2|2,1:2|0:0,0:0:0:0:
508,257,173182,2,0,B|458:284|458:284|382:266|360:206,1,167.999994873047,4|4,3:0|1:2,0:0:0:0:
242,65,173814,1,4,3:0:0:0:
144,91,173972,1,4,3:0:0:0:
46,117,174130,1,0,1:0:0:0:
121,298,174445,5,6,1:2:0:0:
78,34,174761,1,2,1:2:0:0:
121,298,175077,1,2,1:2:0:0:
242,361,175393,6,0,P|285:343|316:341,1,70,0|2,1:0|0:0,0:0:0:0:
372,285,175708,2,0,L|531:313,2,140,2|2|0,3:2|3:0|3:0,0:0:0:0:
327,182,176656,1,0,3:3:0:0:
503,119,176972,5,6,1:2:0:0:
460,383,177288,1,2,1:2:0:0:
503,119,177604,1,2,1:2:0:0:
345,20,177919,6,0,P|297:39|253:45,1,77.0000023498536,0|2,1:0|0:0,0:0:0:0:
194,95,178235,2,0,P|146:76|102:70,1,77.0000023498536,2|0,3:2|3:0,0:0:0:0:
29,160,178551,2,0,L|42:323,1,154.000004699707,4|0,3:2|1:0,0:0:0:0:
133,359,179024,1,0,3:0:0:0:
133,359,179103,1,0,3:0:0:0:
133,359,179182,2,0,L|191:343,3,38.5000011749268,0|0|0|0,1:0|1:0|1:0|3:0,0:0:0:0:
207,313,179498,6,0,B|304:321|269:367|388:364,1,167.999994873047,6|0,3:2|1:0,0:0:0:0:
435,292,179972,1,2,0:0:0:0:
435,292,180130,2,0,B|393:203|450:211|388:109,1,167.999994873047,4|0,3:0|1:2,0:0:0:0:
336,59,180603,1,2,0:0:0:0:
336,59,180761,2,0,P|399:50|494:-6,2,167.999994873047,4|2|4,3:0|1:2|3:0,0:0:0:0:
238,29,181551,1,8,3:0:0:0:
138,43,181708,2,0,L|54:32,1,83.9999974365235,0|2,1:0|0:0,0:0:0:0:
5,120,182024,6,0,L|25:228,1,83.9999974365235,6|0,1:2|0:0,0:0:0:0:
101,264,182340,2,0,L|116:346,1,83.9999974365235,2|0,1:2|0:0,0:0:0:0:
195,226,182656,2,0,L|215:118,1,83.9999974365235,2|0,1:2|0:0,0:0:0:0:
339,118,182972,2,0,L|323:200,1,83.9999974365235,2|0,1:2|0:0,0:0:0:0:
414,284,183287,5,4,3:0:0:0:
450,85,183603,1,4,3:0:0:0:
251,49,183919,1,8,3:0:0:0:
215,248,184235,1,4,1:1:0:0:
72,309,184551,6,0,B|48:343|48:372|48:372|13:333|18:273|74:258|95:198|49:125,1,308,2|0,0:0|0:0,0:0:0:0:
16,83,185498,1,0,1:0:0:0:
16,83,185814,6,0,P|71:68|134:32,1,125.999996154785,4|2,3:1|0:0,0:0:0:0:
149,48,186130,2,0,P|201:51|254:73,1,83.9999974365235,0|2,1:0|0:0,0:0:0:0:
328,34,186445,2,0,B|388:51|457:26|457:26|420:72,1,167.999994873047,8|0,3:0|1:0,0:0:0:0:
370,133,186919,1,2,0:0:0:0:
428,215,187077,6,0,L|435:307,1,83.9999974365235,4|0,3:0|0:0,0:0:0:0:
357,364,187393,2,0,L|186:338,2,167.999994873047,0|8|0,1:0|3:0|1:0,0:0:0:0:
357,364,188340,6,0,P|339:321|278:273,1,125.999996154785,4|2,3:2|0:0,0:0:0:0:
268,251,188656,2,0,P|217:246|171:256,1,83.9999974365235,0|2,1:0|0:0,0:0:0:0:
97,303,188972,2,0,B|64:338|64:338|19:276|61:206,1,167.999994873047,8|0,3:0|1:0,0:0:0:0:
89,131,189445,1,2,0:0:0:0:
39,42,189603,5,4,1:3:0:0:
39,42,189919,1,4,1:3:0:0:
39,42,190235,2,0,B|90:24|90:24|192:47,1,125.999996154785,4|0,1:3|0:0,0:0:0:0:
210,53,190551,2,0,L|298:40,1,83.9999974365235,2|0,1:2|0:0,0:0:0:0:
411,23,190866,6,0,P|400:73|425:156,1,125.999996154785,4|2,3:2|0:0,0:0:0:0:
409,164,191182,2,0,P|349:183|319:210,1,83.9999974365235,0|2,1:0|0:0,0:0:0:0:
238,232,191498,2,0,B|172:240|122:204|122:204|101:138,1,167.999994873047,8|0,3:0|1:0,0:0:0:0:
53,74,191972,1,2,0:0:0:0:
5,163,192130,6,0,L|23:363,1,167.999994873047,4|0,3:0|1:0,0:0:0:0:
170,371,192682,1,0,1:0:0:0:
170,371,192761,2,0,L|179:280,1,83.9999974365235,8|2,3:0|3:2,0:0:0:0:
246,211,193077,1,0,1:0:0:0:
246,211,193393,6,0,P|304:243|375:248,1,125.999996154785,4|2,3:2|0:0,0:0:0:0:
382,262,193708,2,0,P|391:225|433:183,1,83.9999974365235,0|2,1:0|0:0,0:0:0:0:
451,94,194024,2,0,B|259:66,1,167.999994873047,8|0,3:0|1:0,0:0:0:0:
194,23,194498,1,2,0:0:0:0:
104,68,194656,6,0,L|17:50,1,83.9999974365235,2|2,3:0|0:0,0:0:0:0:
40,179,194972,1,4,1:2:0:0:
40,179,195287,2,0,B|56:218|56:218|48:290,1,83.9999974365235,4|2,3:0|3:2,0:0:0:0:
132,304,195603,2,0,B|116:343|116:343|124:415,1,83.9999974365235,2|2,1:2|0:0,0:0:0:0:
218,358,195919,6,0,L|211:224,1,125.999996154785,4|2,3:1|0:0,0:0:0:0:
195,217,196235,2,0,P|239:202|265:177,1,83.9999974365235,0|2,1:0|0:0,0:0:0:0:
243,77,196551,2,0,L|157:60,1,83.9999974365235,8|0,3:0|0:0,0:0:0:0:
320,13,196866,2,0,B|414:4|396:52|484:36,1,167.999994873047,0|4,1:0|3:0,0:0:0:0:
434,125,197340,1,0,0:0:0:0:
480,214,197498,2,0,L|498:392,2,167.999994873047,0|8|0,1:0|3:0|1:0,0:0:0:0:
480,214,198445,6,0,L|344:185,1,125.999996154785,4|2,3:2|0:0,0:0:0:0:
365,209,198761,2,0,P|317:231|291:258,1,83.9999974365235,0|2,1:0|0:0,0:0:0:0:
205,300,199077,2,0,L|214:390,1,83.9999974365235,8|0,3:0|0:0,0:0:0:0:
111,251,199393,2,0,P|126:202|131:136,1,83.9999974365235,0|2,1:0|0:0,0:0:0:0:
71,87,199708,5,4,1:3:0:0:
258,13,200024,1,4,1:3:0:0:
217,210,200340,2,0,L|233:308,1,83.9999974365235,4|2,1:3|0:0,0:0:0:0:
327,322,200656,2,0,B|382:312|382:312|392:316|392:316|465:304,1,125.999996154785,2|0,1:2|0:0,0:0:0:0:
430,353,200972,6,0,L|448:222,1,125.999996154785,4|2,3:2|0:0,0:0:0:0:
428,212,201287,2,0,P|466:188|488:152,1,83.9999974365235,0|2,1:0|0:0,0:0:0:0:
457,58,201603,2,0,L|358:37,1,83.9999974365235,8|0,3:0|0:0,0:0:0:0:
278,7,201919,2,0,P|294:61|294:187,1,167.999994873047,0|4,1:0|3:0,0:0:0:0:
220,238,202393,1,0,3:0:0:0:
139,177,202551,2,0,P|64:168|14:137,1,125.999996154785,0|0,1:0|1:0,0:0:0:0:
54,105,202866,2,0,B|69:210|33:177|49:292,1,167.999994873047,8|0,3:0|1:0,0:0:0:0:
46,271,203498,6,0,L|183:303,1,125.999996154785,4|2,3:2|0:0,0:0:0:0:
182,314,203814,2,0,P|204:268|201:228,1,83.9999974365235,0|2,1:0|0:0,0:0:0:0:
149,149,204130,2,0,L|138:55,1,83.9999974365235,8|0,3:0|0:0,0:0:0:0:
228,18,204445,2,0,P|271:37|321:42,1,83.9999974365235,0|2,1:0|0:0,0:0:0:0:
405,67,204761,6,0,L|239:118,1,167.999994873047,2|4,3:0|1:2,0:0:0:0:
30,252,205393,1,4,3:0:0:0:
111,311,205551,1,2,3:2:0:0:
208,289,205708,2,0,L|324:312,1,83.9999974365235,2|2,1:2|0:0,0:0:0:0:
256,192,206024,12,4,206972,1:3:0:0:
414,319,207287,6,0,P|433:274|465:232,1,83.9999974365235,2|2,0:0|0:0,0:0:0:0:
319,284,207919,2,0,P|312:235|319:183,1,83.9999974365235,2|2,0:0|0:0,0:0:0:0:
219,301,208551,2,0,P|189:262|169:213,2,83.9999974365235,2|2|2,0:0|0:0|0:0,0:0:0:0:
68,345,209498,6,0,B|36:375|36:375|17:310|71:292|38:201,1,210,6|0,3:1|0:0,0:0:0:0:
