osu file format v14

[General]
AudioFilename: audio.mp3
AudioLeadIn: 0
PreviewTime: 35936
Countdown: 1
SampleSet: Soft
StackLeniency: 0.6
Mode: 0
LetterboxInBreaks: 0
WidescreenStoryboard: 1
SamplesMatchPlaybackRate: 1

[Editor]
DistanceSpacing: 1.9
BeatDivisor: 16
GridSize: 4
TimelineZoom: 7.000001

[Metadata]
Title:Speaking
TitleUnicode:Speaking
Artist:Mrs. GREEN APPLE
ArtistUnicode:Mrs. GREEN APPLE
Creator:Mykaterasu
Version:Talking
Source:遊☆戯☆王 ARC-V
Tags:[Kergio] Ending ED Four 4 Yu-Gi-Oh! スピーキング ミセスグリーンアップル yugioh Motoki Oomori 大森元貴
BeatmapID:1439592
BeatmapSetID:633499

[Difficulty]
HPDrainRate:6
CircleSize:4.5
OverallDifficulty:8.4
ApproachRate:9.2
SliderMultiplier:1.7
SliderTickRate:1

[Events]
//Background and Video events
0,0,"prt.png",0,0
Video,-2,"spkn.mp4"
//Break Periods
//Storyboard Layer 0 (Background)
//Storyboard Layer 1 (Fail)
//Storyboard Layer 2 (Pass)
//Storyboard Layer 3 (Foreground)
//Storyboard Sound Samples
Sample,21564,0,"kick1.mp3",70

[TimingPoints]
578,346.820809248555,4,2,0,55,1,0
578,-62.5,4,3,0,55,0,0
751,-62.5,4,2,0,55,0,0
924,-100,4,2,0,55,0,0
6127,-200,4,2,0,55,0,0
6473,-100,4,2,0,55,0,0
11676,-50,4,3,0,70,0,0
12023,-90.9090909090909,4,3,0,70,0,0
13063,-83.3333333333333,4,3,0,70,0,0
14450,-76.9230769230769,4,3,0,70,0,0
14710,-76.9230769230769,4,3,0,5,0,0
14797,-76.9230769230769,4,3,0,70,0,0
15057,-76.9230769230769,4,3,0,5,0,0
15144,-76.9230769230769,4,3,0,70,0,0
15838,-71.4285714285714,4,3,0,70,0,0
17225,-83.3333333333333,4,1,0,90,0,0
19306,-111.111111111111,4,1,0,90,0,0
19653,-71.4285714285714,4,1,0,90,0,0
22080,-100,4,1,0,90,0,0
22427,-100,4,1,0,90,0,0
22774,-100,4,1,0,90,0,0
23381,-100,4,1,0,5,0,0
23468,-100,4,1,0,90,0,0
24768,-100,4,1,0,5,0,0
24855,-100,4,1,0,90,0,0
28236,-100,4,1,0,5,0,0
28323,-100,4,1,0,90,0,0
28930,-100,4,1,0,5,0,0
29017,-100,4,1,0,90,0,0
31098,-83.3333333333333,4,3,0,60,0,0
32485,-76.9230769230769,4,3,0,70,0,0
33872,-71.4285714285714,4,3,0,80,0,0
34566,-66.6666666666667,4,3,0,90,0,0
35433,-100,4,1,0,50,0,0
36300,-50,4,1,0,100,0,0
36473,-50,4,1,0,5,0,0
36647,-71.4285714285714,4,1,1,75,0,1
61618,-62.5,4,3,0,60,0,0
65606,-66.6666666666667,4,3,0,60,0,0
65780,-66.6666666666667,4,3,0,60,0,0
66473,-83.3333333333333,4,3,0,80,0,0
66820,-62.5,4,3,0,80,0,0
67167,-83.3333333333333,4,2,0,50,0,0
71329,-83.3333333333333,4,3,0,70,0,0
72716,-71.4285714285714,4,1,1,75,0,1
85895,-100,4,1,1,75,0,1
86242,-83.3333333333333,4,1,1,75,0,1
86589,-55.5555555555556,4,3,0,55,0,0
88497,-200,4,3,0,55,0,0

[Colours]
Combo1 : 128,255,255
Combo2 : 128,0,255
Combo3 : 212,212,212
Combo4 : 74,74,74

[HitObjects]
220,320,578,6,0,B|211:280|211:280|338:290,1,136,0|0,3:3|0:0,0:0:0:0:
304,47,924,6,0,P|288:94|315:170,1,127.5
356,231,1271,2,0,P|309:215|256:229,1,85
266,221,1618,1,0,0:0:0:0:
241,337,1791,1,0,0:0:0:0:
305,287,1965,2,0,B|419:278,1,85
206,271,2312,2,0,P|190:223|205:170,1,85
264,64,2658,2,0,B|255:178,1,85
431,219,3005,5,0,0:0:0:0:
446,141,3179,1,0,0:0:0:0:
347,227,3352,2,0,P|300:243|224:216,1,127.5
189,121,3699,2,0,B|75:112,1,85
96,114,4046,2,0,P|118:158|111:213,1,85
109,337,4393,5,0,0:0:0:0:
44,281,4566,1,0,0:0:0:0:
187,293,4739,2,0,B|301:284,1,85
411,158,5086,2,0,P|364:142|288:169,1,127.5
326,233,5433,2,0,P|345:270|346:312,1,85
131,348,5780,2,0,P|111:310|111:268,1,85
113,260,6040,1,0,0:0:0:0:
115,251,6127,6,2,L|101:194,1,42.5,0|0,0:0|0:0,0:0:0:0:
49,140,6473,6,0,P|96:123|172:151,1,127.5
221,216,6820,2,0,B|335:207,1,85
314,209,7167,1,0,0:0:0:0:
267,133,7341,5,0,0:0:0:0:
188,294,7514,1,0,0:0:0:0:
150,184,7687,1,0,0:0:0:0:
271,287,7861,2,0,P|308:306|350:307,1,85
484,243,8208,2,0,B|370:252,1,85
267,133,8554,5,0,0:0:0:0:
345,148,8728,1,0,0:0:0:0:
214,195,8901,2,0,P|215:237|235:274,1,85
363,359,9248,6,0,P|346:312|374:235,1,127.5
512,193,9595,2,0,B|398:184,1,85
419,186,9942,2,0,P|441:230|434:285,1,85
236,197,10288,6,0,P|277:201|317:186,1,85
445,59,10635,2,0,P|398:43|321:70,1,127.5
396,193,10982,1,2,0:0:0:0:
393,158,11069,1,0,0:0:0:0:
390,124,11156,1,0,0:0:0:0:
190,193,11329,2,0,B|184:109,1,85
41,307,11676,6,0,B|32:347|32:347|238:329,1,170,12|0,0:0|0:0,0:0:0:0:
239,76,12023,6,0,P|191:84|147:103,1,93.5000028533936,2|0,0:0|0:0,0:0:0:0:
316,172,12369,2,0,P|267:171|220:182,1,93.5000028533936,2|0,0:0|0:0,0:0:0:0:
375,279,12716,1,2,0:0:0:0:
282,272,12890,1,0,0:0:0:0:
439,82,13063,6,0,P|437:152|406:219,1,101.999996887207,2|0,0:0|0:0,0:0:0:0:
310,71,13410,2,0,P|320:140|301:211,1,101.999996887207,2|0,0:0|0:0,0:0:0:0:
181,82,13757,2,0,P|203:148|196:222,1,101.999996887207,2|0,0:0|0:0,0:0:0:0:
55,115,14104,1,2,0:0:0:0:
94,207,14277,1,0,0:0:0:0:
261,137,14450,6,0,P|345:114|431:137,1,165.749992412568,2|0,0:0|0:0,0:0:0:0:
427,236,14797,2,0,P|342:258|257:236,1,165.749992412568,2|0,0:0|0:0,0:0:0:0:
260,136,15144,1,2,0:0:0:0:
199,338,15317,1,0,0:0:0:0:
358,43,15491,2,2,B|338:39|338:39|322:47|322:47|304:46|304:46|280:56|280:56|231:49|202:78,1,165.749992412568,2|0,0:0|0:0,0:0:0:0:
189,90,15838,6,0,P|173:148|172:208,1,118.999996368408,2|0,0:0|0:0,0:0:0:0:
388,301,16184,2,0,B|411:241|405:183|405:183|432:246,1,178.499994552612,2|0,0:0|0:0,0:0:0:0:
316,321,16531,2,0,P|257:337|197:338,1,118.999996368408,2|0,0:0|0:0,0:0:0:0:
37,325,16878,5,10,0:0:0:0:
119,217,17225,6,0,B|107:261|107:261|122:350,1,101.999996887207,12|0,0:0|0:0,0:0:0:0:
126,196,17572,1,0,0:0:0:0:
316,232,17745,1,8,0:0:0:0:
187,264,17919,1,0,0:0:0:0:
316,232,18092,1,0,0:0:0:0:
233,63,18265,6,0,B|245:107|245:107|229:196,1,101.999996887207,12|0,0:0|0:0,0:0:0:0:
226,42,18612,1,0,0:0:0:0:
12,124,18786,1,8,0:0:0:0:
165,109,18959,1,0,0:0:0:0:
12,124,19133,1,0,0:0:0:0:
179,341,19306,6,0,P|145:330|115:300,1,76.4999976654053,8|0,0:0|0:0,0:0:0:0:
269,111,19653,6,0,B|247:192|247:192|154:305,1,178.499994552612,12|0,0:0|0:0,0:0:0:0:
273,315,19999,6,0,B|323:328|323:328|425:310,1,118.999996368408,12|0,0:0|0:0,0:0:0:0:
252,308,20346,1,0,0:0:0:0:
269,111,20520,1,8,0:0:0:0:
324,249,20693,1,0,0:0:0:0:
269,111,20867,1,0,0:0:0:0:
165,270,21040,6,0,B|115:283|115:283|14:265,1,118.999996368408,12|0,0:0|0:0,0:0:0:0:
186,263,21387,1,0,0:0:0:0:
120,49,21560,1,8,0:0:0:0:
112,206,21734,1,8,0:0:0:0:
269,111,21907,1,0,0:0:0:0:
309,372,22080,6,0,L|323:307,1,42.5
414,180,22254,2,0,L|428:245,1,42.5
369,273,22427,1,0,0:0:0:0:
369,273,22601,1,0,0:0:0:0:
250,306,22774,5,8,0:0:0:0:
211,143,22947,1,8,0:0:0:0:
423,222,23121,2,0,P|441:284|378:345,1,127.5,2|0,0:0|0:0,0:0:0:0:
320,344,23468,5,8,0:0:0:0:
281,181,23641,1,10,0:0:0:0:
205,197,23814,1,2,0:0:0:0:
130,213,23988,1,2,0:0:0:0:
182,269,24161,5,10,0:0:0:0:
149,112,24334,1,8,0:0:0:0:
344,79,24508,2,0,B|362:63|362:63|382:101|373:161|330:176,1,127.5,2|0,0:0|0:0,0:0:0:0:
335,235,24855,5,2,0:0:0:0:
281,37,25028,1,10,0:0:0:0:
257,250,25202,5,2,0:0:0:0:
344,79,25375,1,10,0:0:0:0:
149,112,25549,5,8,0:0:0:0:
344,79,25722,1,10,0:0:0:0:
281,37,25895,1,2,0:0:0:0:
281,37,26069,1,2,0:0:0:0:
204,180,26242,5,8,0:0:0:0:
396,144,26416,1,10,0:0:0:0:
412,220,26589,1,2,0:0:0:0:
428,295,26763,1,2,0:0:0:0:
352,275,26936,5,10,0:0:0:0:
352,78,27109,5,2,0:0:0:0:
269,245,27282,1,2,0:0:0:0:
263,83,27456,5,2,0:0:0:0:
180,250,27629,1,2,0:0:0:0:
174,88,27803,5,2,0:0:0:0:
90,254,27976,2,0,B|75:266|62:314|82:352|82:352|100:336,1,127.5,2|0,0:0|0:0,0:0:0:0:
173,328,28323,5,8,0:0:0:0:
369,345,28497,1,8,0:0:0:0:
225,245,28670,2,0,P|207:183|270:122,1,127.5,2|0,0:0|0:0,0:0:0:0:
280,195,29017,5,8,0:0:0:0:
476,212,29191,1,10,0:0:0:0:
460,136,29364,1,2,0:0:0:0:
444,61,29538,1,2,0:0:0:0:
384,108,29710,5,10,0:0:0:0:
188,91,29884,1,8,0:0:0:0:
344,256,30057,2,0,B|362:272|362:272|382:234|373:174|330:159,1,127.5,2|0,0:0|0:0,0:0:0:0:
309,116,30404,5,2,0:0:0:0:
307,319,30578,1,10,0:0:0:0:
208,56,30751,5,2,0:0:0:0:
228,266,30925,1,10,0:0:0:0:
126,137,31098,5,2,0:0:0:0:
162,213,31271,1,2,0:0:0:0:
44,119,31445,2,0,P|53:179|94:215,1,101.999996887207,8|0,0:0|0:0,0:0:0:0:
209,144,31791,5,2,0:0:0:0:
217,279,31965,1,2,0:0:0:0:
287,162,32138,2,0,P|276:102|235:66,1,101.999996887207,8|0,0:0|0:0,0:0:0:0:
80,207,32485,5,2,0:0:0:0:
293,241,32658,1,2,0:0:0:0:
293,241,32745,1,2,0:0:0:0:
293,241,32832,1,8,0:0:0:0:
172,71,33005,1,0,0:0:0:0:
79,298,33179,5,2,0:0:0:0:
122,302,33265,1,0,0:0:0:0:
165,305,33352,1,0,0:0:0:0:
209,309,33439,1,0,0:0:0:0:
253,314,33525,2,0,L|322:320,1,55.2499974708558,8|0,0:0|0:0,0:0:0:0:
419,266,33699,2,0,L|349:272,1,55.2499974708558
203,203,33872,5,2,0:0:0:0:
203,203,33959,1,0,0:0:0:0:
203,203,34046,2,0,L|209:131,1,59.4999981842042,2|0,0:0|0:0,0:0:0:0:
262,30,34219,2,0,L|268:101,1,59.4999981842042,2|0,0:0|0:0,0:0:0:0:
298,277,34393,5,2,0:0:0:0:
298,277,34480,1,0,0:0:0:0:
298,277,34567,2,0,L|226:270,1,63.7500024318696,2|0,0:0|0:0,0:0:0:0:
35,217,34740,2,0,L|106:210,1,63.7500024318696,2|0,0:0|0:0,0:0:0:0:
190,72,34913,2,0,L|184:143,1,63.7500024318696,2|0,0:0|0:0,0:0:0:0:
167,341,35086,1,2,0:0:0:0:
337,358,35433,5,0,0:0:0:0:
405,306,35606,2,0,L|402:331,3,14.1666666666667
332,346,35780,1,0,0:0:0:0:
406,156,35953,5,2,0:0:0:0:
464,367,36127,1,2,0:0:0:0:
296,224,36300,6,0,B|256:231|256:231|279:273|335:269|335:269|373:223|373:223|415:241|452:214,1,255,10|0,0:0|0:0,0:0:0:0:
478,212,36647,6,0,L|489:49,1,118.999996368408,6|0,0:0|0:0,0:0:0:0:
248,112,36994,2,0,L|259:275,1,118.999996368408,10|0,0:0|0:0,0:0:0:0:
456,78,37341,2,0,P|391:70|273:91,1,178.499994552612,2|0,0:0|0:0,0:0:0:0:
172,138,37687,1,10,0:0:0:0:
373,151,37861,1,2,0:1:0:0:
80,220,38034,6,0,P|145:212|263:233,1,178.499994552612,2|0,0:0|0:0,0:0:0:0:
364,280,38381,1,10,0:0:0:0:
166,294,38554,1,2,0:0:0:0:
389,352,38728,1,2,0:0:0:0:
267,335,38901,1,2,0:0:0:0:
439,295,39075,1,10,0:0:0:0:
453,262,39161,1,0,0:0:0:0:
461,227,39248,1,0,0:0:0:0:
462,192,39335,1,0,0:0:0:0:
456,157,39421,6,0,L|293:146,1,118.999996368408,4|0,0:0|0:0,0:0:0:0:
50,349,39768,2,0,P|42:284|63:166,1,178.499994552612,10|0,0:0|0:0,0:0:0:0:
110,65,40115,2,0,L|273:54,1,118.999996368408,2|0,0:0|0:0,0:0:0:0:
441,80,40462,1,10,0:0:0:0:
218,138,40635,1,2,0:0:0:0:
433,198,40809,6,0,P|368:190|250:211,1,178.499994552612,6|0,0:0|0:0,0:0:0:0:
149,258,41155,1,10,0:0:0:0:
345,271,41329,1,2,0:0:0:0:
124,330,41503,1,2,0:0:0:0:
246,298,41676,1,2,0:0:0:0:
74,273,41849,2,0,L|63:110,1,118.999996368408,10|0,0:0|0:0,0:0:0:0:
427,93,42196,6,0,B|425:116|425:116|428:125|428:125|427:149|427:149|422:156|422:156|420:184|420:184|424:193|424:193|423:205|423:205|418:212|418:212|416:248|416:248|419:256|419:256|416:300|416:300|411:308|411:308|408:356,1,237.999992736817,6|8,0:0|0:0,0:0:0:0:
409,324,42716,1,0,0:0:0:0:
203,318,42890,2,0,P|195:253|216:135,1,178.499994552612,2|0,0:0|0:0,0:0:0:0:
263,34,43236,1,10,0:0:0:0:
274,237,43410,1,2,0:0:0:0:
187,63,43583,5,2,0:0:0:0:
427,93,43757,1,2,0:0:0:0:
213,142,43930,2,0,L|50:153,1,118.999996368408,10|0,0:0|0:0,0:0:0:0:
280,194,44277,1,2,0:0:0:0:
118,223,44451,1,2,0:0:0:0:
252,268,44624,1,10,0:0:0:0:
286,277,44710,1,0,0:0:0:0:
322,280,44797,1,0,0:0:0:0:
357,276,44884,1,0,0:0:0:0:
391,265,44970,6,0,L|379:102,1,118.999996368408,4|0,0:0|0:0,0:0:0:0:
101,62,45317,1,10,0:0:0:0:
165,245,45491,1,2,0:0:0:0:
300,102,45664,1,2,0:0:0:0:
51,139,45838,1,2,0:0:0:0:
301,199,46011,1,10,0:0:0:0:
301,199,46098,1,2,0:0:0:0:
301,199,46184,1,2,0:0:0:0:
77,318,46358,5,14,0:0:0:0:
218,142,46531,1,0,0:0:0:0:
185,339,46705,5,10,0:0:0:0:
281,83,46878,1,0,0:0:0:0:
304,351,47051,5,10,0:0:0:0:
340,28,47224,1,0,0:0:0:0:
431,340,47398,5,10,0:0:0:0:
409,67,47571,1,0,0:0:0:0:
191,245,47745,6,0,P|108:235|120:107,1,237.999992736817,6|8,0:0|0:0,0:0:0:0:
120,107,48265,1,0,0:0:0:0:
419,340,48439,2,0,P|427:275|406:157,1,178.499994552612,2|0,0:0|0:0,0:0:0:0:
359,56,48785,1,10,0:0:0:0:
342,261,48959,1,2,0:0:0:0:
268,58,49132,6,0,P|276:123|255:241,1,178.499994552612,6|0,0:0|0:0,0:0:0:0:
208,342,49478,1,10,0:0:0:0:
184,134,49652,1,2,0:0:0:0:
304,318,49826,1,6,0:0:0:0:
156,246,49999,1,2,0:0:0:0:
268,58,50173,1,10,0:0:0:0:
301,44,50259,1,0,0:0:0:0:
336,36,50346,1,0,0:0:0:0:
371,35,50433,1,0,0:0:0:0:
406,41,50520,6,0,L|417:204,1,118.999996368408,4|0,0:0|0:0,0:0:0:0:
208,342,50867,2,0,P|216:277|195:159,1,178.499994552612,10|0,0:0|0:0,0:0:0:0:
148,58,51213,2,0,L|-15:69,1,118.999996368408,2|0,0:0|0:0,0:0:0:0:
23,279,51560,1,10,0:0:0:0:
122,138,51734,1,2,0:0:0:0:
89,333,51907,6,0,L|252:344,1,118.999996368408,6|0,0:0|0:0,0:0:0:0:
406,198,52254,2,0,P|341:206|223:185,1,178.499994552612,10|0,0:0|0:0,0:0:0:0:
122,138,52600,1,6,0:0:0:0:
231,88,52774,1,2,0:0:0:0:
42,82,52947,2,0,L|53:245,1,118.999996368408,10|0,0:0|0:0,0:0:0:0:
342,360,53294,6,0,B|355:210|310:274|325:116,1,237.999992736817,6|8,0:0|0:0,0:0:0:0:
324,124,53814,1,0,0:0:0:0:
119,54,53988,2,0,P|111:119|132:237,1,178.499994552612,2|0,0:0|0:0,0:0:0:0:
179,338,54334,1,10,0:0:0:0:
187,135,54508,1,2,0:0:0:0:
97,302,54682,5,2,0:0:0:0:
343,278,54855,1,2,0:0:0:0:
129,229,55028,2,0,L|-34:218,1,118.999996368408,10|0,0:0|0:0,0:0:0:0:
288,169,55375,5,2,0:0:0:0:
151,152,55548,1,2,0:0:0:0:
290,94,55722,1,10,0:0:0:0:
324,85,55808,1,0,0:0:0:0:
360,82,55895,1,0,0:0:0:0:
395,86,55982,1,0,0:0:0:0:
429,97,56069,6,0,L|441:260,1,118.999996368408,4|0,0:0|0:0,0:0:0:0:
256,355,56416,1,10,0:0:0:0:
221,125,56589,1,2,0:0:0:0:
437,215,56762,1,2,0:0:0:0:
174,292,56936,1,2,0:0:0:0:
387,330,57109,1,10,0:0:0:0:
387,330,57196,1,2,0:0:0:0:
387,330,57283,1,2,0:0:0:0:
69,374,57456,5,14,0:0:0:0:
292,238,57629,1,0,0:0:0:0:
44,266,57803,5,10,0:0:0:0:
351,176,57976,1,0,0:0:0:0:
31,147,58149,5,10,0:0:0:0:
402,111,58322,1,8,0:0:0:0:
43,20,58496,5,10,0:0:0:0:
335,70,58669,1,8,0:0:0:0:
182,173,58843,6,0,L|171:336,1,118.999996368408,4|0,0:0|0:0,0:0:0:0:
426,337,59190,1,10,0:0:0:0:
296,192,59364,1,2,0:0:0:0:
352,372,59537,2,0,L|341:209,1,118.999996368408,2|2,0:0|0:0,0:0:0:0:
264,89,59884,1,10,0:0:0:0:
134,234,60058,1,2,0:0:0:0:
190,54,60231,6,0,L|179:217,1,118.999996368408,6|0,0:0|0:0,0:0:0:0:
426,337,60578,2,0,L|437:174,1,118.999996368408,10|0,0:0|0:0,0:0:0:0:
103,159,60924,1,2,0:0:0:0:
315,130,61098,1,10,0:0:0:0:
182,260,61271,2,0,L|345:271,1,118.999996368408,10|0,0:0|0:0,0:0:0:0:
386,279,61618,5,0,0:0:0:0:
386,279,61791,1,0,0:0:0:0:
86,283,61965,5,8,0:0:0:0:
315,130,62138,1,8,0:0:0:0:
86,283,62485,5,0,0:0:0:0:
315,130,62658,1,8,0:0:0:0:
386,279,63005,5,0,0:0:0:0:
386,279,63178,1,0,0:0:0:0:
86,283,63352,5,8,0:0:0:0:
304,210,63525,1,8,0:0:0:0:
86,283,63872,5,0,0:0:0:0:
304,210,64046,1,8,0:0:0:0:
304,210,64219,1,0,0:0:0:0:
386,279,64393,5,0,0:0:0:0:
386,279,64566,1,0,0:0:0:0:
86,283,64739,5,8,0:0:0:0:
289,296,64913,1,8,0:0:0:0:
86,283,65260,5,0,0:0:0:0:
289,296,65433,1,8,0:0:0:0:
230,241,65606,1,0,0:0:0:0:
386,279,65780,5,0,0:0:0:0:
386,279,65953,1,0,0:0:0:0:
86,283,66127,5,8,0:0:0:0:
250,362,66300,1,8,0:0:0:0:
301,273,66473,6,2,L|278:315,4,25.4999992218018,2|0|0|0|0,0:0|0:0|0:0|0:0|0:0,0:0:0:0:
389,131,66820,6,0,B|399:112|399:112|310:84|249:148,1,136,8|0,0:0|0:0,0:0:0:0:
136,210,67167,5,2,0:0:0:0:
468,280,67341,1,2,0:0:0:0:
505,207,67514,5,0,0:0:0:0:
470,133,67861,1,0,0:0:0:0:
434,59,68208,1,0,0:0:0:0:
434,59,68381,1,0,0:0:0:0:
426,208,68554,5,2,0:0:0:0:
94,138,68728,1,2,0:0:0:0:
58,218,68901,5,0,0:0:0:0:
6,148,69248,1,0,0:0:0:0:
43,70,69595,1,0,0:0:0:0:
43,70,69768,1,0,0:0:0:0:
138,203,69942,5,2,0:0:0:0:
470,133,70116,1,2,0:0:0:0:
434,59,70288,5,0,0:0:0:0:
393,129,70635,1,0,0:0:0:0:
426,208,70982,1,0,0:0:0:0:
461,285,71329,6,0,L|408:308,1,50.9999984436036,2|2,0:0|0:0,0:0:0:0:
157,257,71502,2,0,L|210:234,1,50.9999984436036,2|2,0:0|0:0,0:0:0:0:
338,335,71676,2,0,L|315:282,1,50.9999984436036,2|2,0:0|0:0,0:0:0:0:
99,132,71849,2,0,L|122:185,1,50.9999984436036,2|2,0:0|0:0,0:0:0:0:
284,211,72023,5,10,0:0:0:0:
284,211,72196,1,10,0:0:0:0:
284,211,72716,6,0,P|276:282|394:258,1,237.999992736817,6|8,0:0|0:0,0:0:0:0:
361,58,73236,1,0,0:0:0:0:
44,49,73410,2,0,P|36:114|57:232,1,178.499994552612,2|0,0:0|0:0,0:0:0:0:
104,333,73756,1,10,0:0:0:0:
120,123,73930,1,2,0:1:0:0:
190,359,74104,6,0,P|182:294|203:176,1,178.499994552612,2|0,0:0|0:0,0:0:0:0:
250,75,74450,1,10,0:0:0:0:
265,273,74623,1,2,0:0:0:0:
322,50,74797,1,2,0:0:0:0:
309,170,74971,1,2,0:0:0:0:
176,61,75144,1,10,0:0:0:0:
143,47,75230,1,0,0:0:0:0:
108,39,75317,1,0,0:0:0:0:
73,38,75404,1,0,0:0:0:0:
38,44,75491,6,0,L|49:207,1,118.999996368408,4|0,0:0|0:0,0:0:0:0:
190,359,75837,2,0,P|255:367|373:346,1,178.499994552612,10|0,0:0|0:0,0:0:0:0:
474,299,76184,2,0,L|485:136,1,118.999996368408,2|0,0:0|0:0,0:0:0:0:
359,67,76531,1,10,0:0:0:0:
397,270,76705,1,2,0:0:0:0:
264,3,76878,6,0,P|272:68|251:186,1,178.499994552612,6|0,0:0|0:0,0:0:0:0:
204,287,77224,1,10,0:0:0:0:
186,93,77398,1,2,0:0:0:0:
132,312,77572,1,2,0:0:0:0:
141,194,77745,1,2,0:0:0:0:
278,261,77919,2,0,L|441:272,1,118.999996368408,10|0,0:0|0:0,0:0:0:0:
367,11,78265,6,0,B|344:13|344:13|331:10|331:10|312:11|312:11|304:16|304:16|276:18|276:18|267:14|267:14|259:15|259:15|252:20|252:20|212:22|212:22|204:19|204:19|160:22|160:22|152:27|152:27|95:32,1,237.999992736817,6|8,0:0|0:0,0:0:0:0:
135,28,78785,1,0,0:0:0:0:
103,271,78959,2,0,P|168:279|286:258,1,178.499994552612,2|0,0:0|0:0,0:0:0:0:
387,211,79305,1,10,0:0:0:0:
188,197,79479,1,2,0:0:0:0:
356,287,79652,5,2,0:0:0:0:
266,50,79826,1,2,0:0:0:0:
278,260,79999,2,0,L|267:423,1,118.999996368408,10|0,0:0|0:0,0:0:0:0:
189,121,80346,1,2,0:0:0:0:
183,281,80520,1,2,0:0:0:0:
96,176,80694,1,10,0:0:0:0:
86,141,80780,1,0,0:0:0:0:
83,105,80867,1,0,0:0:0:0:
87,70,80954,1,0,0:0:0:0:
98,36,81040,6,0,L|260:47,1,118.999996368408,4|0,0:0|0:0,0:0:0:0:
453,249,81387,2,0,P|388:241|270:262,1,178.499994552612,10|0,0:0|0:0,0:0:0:0:
169,309,81733,1,10,0:0:0:0:
313,123,81907,1,2,0:0:0:0:
396,341,82080,1,10,0:0:0:0:
396,341,82167,1,2,0:0:0:0:
396,341,82253,1,2,0:0:0:0:
435,66,82427,5,10,0:0:0:0:
289,238,82600,1,0,0:0:0:0:
327,45,82774,5,10,0:0:0:0:
232,301,82947,1,0,0:0:0:0:
208,33,83120,5,10,0:0:0:0:
172,356,83293,1,8,0:0:0:0:
81,44,83467,5,10,0:0:0:0:
108,315,83640,1,8,0:0:0:0:
313,123,83814,6,0,L|150:134,1,118.999996368408,4|0,0:0|0:0,0:0:0:0:
28,311,84161,1,10,0:0:0:0:
241,329,84335,1,2,0:0:0:0:
113,139,84508,1,2,0:0:0:0:
102,339,84682,1,2,0:0:0:0:
255,249,84855,1,10,0:0:0:0:
92,258,85029,1,2,0:0:0:0:
241,329,85202,6,0,L|404:340,1,118.999996368408,6|0,0:0|0:0,0:0:0:0:
435,128,85549,2,0,P|370:136|252:115,1,178.499994552612,10|0,0:0|0:0,0:0:0:0:
151,68,85895,2,0,L|144:159,2,56.6666666666667,2|2|0,0:1|0:1|0:0,0:0:0:0:
39,107,86242,2,0,L|50:270,1,118.999996368408,10|0,0:1|0:0,0:0:0:0:
241,329,86589,5,0,0:0:0:0:
241,329,86762,1,0,0:0:0:0:
227,48,86936,5,8,0:0:0:0:
227,48,87109,1,8,0:0:0:0:
141,212,87456,5,0,0:0:0:0:
435,128,87630,1,8,0:0:0:0:
241,329,87976,5,0,0:0:0:0:
241,329,88149,1,0,0:0:0:0:
227,48,88323,5,10,0:0:0:0:
227,48,88496,1,10,0:0:0:0:
