osu file format v14

[General]
AudioFilename: audio.mp3
AudioLeadIn: 0
PreviewTime: 35936
Countdown: 1
SampleSet: Normal
StackLeniency: 0.6
Mode: 0
LetterboxInBreaks: 0
WidescreenStoryboard: 1

[Editor]
DistanceSpacing: 1
BeatDivisor: 2
GridSize: 4
TimelineZoom: 2.000006

[Metadata]
Title:Speaking
TitleUnicode:Speaking
Artist:Mrs. GREEN APPLE
ArtistUnicode:Mrs. GREEN APPLE
Creator:Mykaterasu
Version:Normal
Source:遊☆戯☆王 ARC-V
Tags:[Kergio] Ending ED Four 4 Yu-Gi-Oh! スピーキング ミセスグリーンアップル yugioh Motoki Oomori 大森元貴
BeatmapID:1370909
BeatmapSetID:633499

[Difficulty]
HPDrainRate:4
CircleSize:3
OverallDifficulty:4
ApproachRate:5.9
SliderMultiplier:1.1
SliderTickRate:1

[Events]
//Background and Video events
0,0,"prt.png",0,0
Video,-2,"spkn.mp4"
//Break Periods
2,61471,66450
//Storyboard Layer 0 (Background)
//Storyboard Layer 1 (Fail)
//Storyboard Layer 2 (Pass)
//Storyboard Layer 3 (Foreground)
//Storyboard Sound Samples

[TimingPoints]
578,346.820809248555,4,2,0,55,1,0
11676,-100,4,3,0,70,0,0
17225,-100,4,1,0,90,0,0
31098,-100,4,3,0,60,0,0
36647,-90.9090909090909,4,1,1,75,0,1
61618,-100,4,3,0,60,0,0
67167,-100,4,2,0,50,0,0
71329,-100,4,3,0,70,0,0
72716,-90.9090909090909,4,1,1,75,0,1
86589,-100,4,3,0,55,0,0

[Colours]
Combo1 : 128,255,255
Combo2 : 128,0,255
Combo3 : 212,212,212
Combo4 : 74,74,74

[HitObjects]
94,60,578,5,4,0:0:0:0:
116,167,924,2,0,P|152:216|247:241,1,110
358,235,1791,1,0,0:0:0:0:
412,229,1965,2,0,L|476:222,2,55
207,147,3005,6,0,L|143:154,2,55
250,45,3699,1,0,0:0:0:0:
307,138,4046,2,0,P|310:198|254:278,1,110
256,286,4566,1,0,0:0:0:0:
215,323,4739,2,0,L|98:304,1,110
117,195,5433,2,0,L|234:176,1,110
334,162,6127,5,2,0:0:0:0:
442,145,6473,2,0,P|481:191|484:289,1,110
338,298,7341,1,0,0:0:0:0:
284,292,7515,2,0,L|220:285,2,55
379,93,8554,6,0,L|433:87,2,55
270,111,9248,2,0,P|212:131|160:214,1,110
164,274,9942,1,0,0:0:0:0:
261,324,10288,2,0,L|274:197,1,110
345,132,10982,2,0,L|356:241,1,110
423,328,11676,6,0,P|437:269|436:201,1,110,8|0,0:0|0:0,0:0:0:0:
428,110,12369,1,0,0:0:0:0:
318,123,12716,1,0,0:0:0:0:
263,130,12890,1,0,0:0:0:0:
219,135,13063,2,0,L|151:143,2,55
302,207,13757,1,0,0:0:0:0:
387,276,14104,6,0,L|441:269,2,55
277,289,14797,2,0,P|216:289|150:273,1,110
119,252,15317,1,0,0:0:0:0:
81,211,15491,6,0,P|60:146|165:176,1,220
271,128,16531,1,0,0:0:0:0:
375,92,16878,1,2,0:0:0:0:
479,57,17225,6,0,B|466:166,1,110,4|0,0:0|0:0,0:0:0:0:
454,220,17745,2,0,P|401:263|322:261,1,110,8|0,0:0|0:0,0:0:0:0:
306,270,18265,2,0,B|293:161,1,110,4|0,0:0|0:0,0:0:0:0:
285,106,18785,2,0,P|232:63|153:65,1,110,4|0,0:0|0:0,0:0:0:0:
136,60,19306,1,8,0:0:0:0:
189,156,19653,1,4,0:0:0:0:
149,263,19999,6,0,B|205:291|255:289|255:289|325:261,2,165,4|8|4,0:0|0:0|0:0,0:0:0:0:
100,237,21213,2,0,P|57:184|59:105,1,110
50,88,21734,1,4,0:0:0:0:
158,106,22080,2,0,L|279:119,1,110
377,128,22774,6,0,L|431:133,1,55,12|8,0:0|0:0,0:0:0:0:
280,201,23468,2,0,L|220:195,1,55,8|8,0:0|0:0,0:0:0:0:
360,290,24161,2,0,L|414:295,1,55,8|8,0:0|0:0,0:0:0:0:
255,339,24855,1,8,0:0:0:0:
211,335,25028,2,0,B|156:328|156:328|128:261,1,110,8|8,0:0|0:0,0:0:0:0:
112,227,25549,6,0,L|90:167,1,55,8|8,0:0|0:0,0:0:0:0:
177,33,26242,2,0,L|195:84,1,55,8|8,0:0|0:0,0:0:0:0:
332,176,26936,2,2,P|377:217|358:85,1,330,2|10,0:0|0:0,0:0:0:0:
284,104,28323,6,0,L|224:126,1,55,8|8,0:0|0:0,0:0:0:0:
400,146,29017,2,0,L|452:128,1,55,8|8,0:0|0:0,0:0:0:0:
338,248,29710,2,0,L|287:267,1,55,8|8,0:0|0:0,0:0:0:0:
125,231,30404,5,8,0:0:0:0:
107,192,30577,2,0,B|87:149|94:73,1,110,8|8,0:0|0:0,0:0:0:0:
98,28,31098,6,0,B|156:18|156:18|239:32,1,110,4|8,0:0|0:0,0:0:0:0:
250,34,31618,1,0,0:0:0:0:
293,44,31791,2,0,B|303:102|303:102|289:185,1,110,0|8,0:0|0:0,0:0:0:0:
284,196,32311,1,0,0:0:0:0:
275,240,32485,2,0,L|263:300,2,55,0|0|8,0:0|0:0|0:0,0:0:0:0:
382,212,33179,1,0,0:0:0:0:
395,320,33525,1,8,0:0:0:0:
256,192,33872,12,2,35086,0:0:0:0:
395,320,36300,5,8,0:0:0:0:
278,352,36647,6,0,P|195:353|147:312,1,121.000003692627,6|8,0:0|0:0,0:0:0:0:
105,234,37341,1,0,0:0:0:0:
159,126,37687,1,8,0:0:0:0:
205,112,37861,1,0,0:0:0:0:
251,98,38034,2,0,P|334:97|382:138,1,121.000003692627,0|8,0:0|0:0,0:0:0:0:
390,156,38554,1,0,0:0:0:0:
415,197,38728,2,0,L|425:271,2,60.5000018463135,0|0|8,0:0|0:0|0:0,0:0:0:0:
295,176,39421,5,2,0:0:0:0:
182,220,39768,1,8,0:0:0:0:
66,184,40115,2,0,P|65:101|106:53,1,121.000003692627,0|8,0:0|0:0,0:0:0:0:
128,50,40635,1,0,0:0:0:0:
176,44,40809,2,0,P|248:84|269:144,1,121.000003692627,2|8,0:0|0:0,0:0:0:0:
280,162,41329,1,0,0:0:0:0:
274,209,41502,2,0,L|264:283,2,60.5000018463135,0|0|8,0:0|0:0|0:0,0:0:0:0:
172,134,42196,6,0,P|60:165|82:295,1,242.000007385254,6|0,0:0|0:0,0:0:0:0:
171,322,43236,1,8,0:0:0:0:
184,275,43410,1,0,0:0:0:0:
194,228,43583,2,0,L|134:219,2,60.5000018463135,0|0|8,0:0|0:0|0:0,0:0:0:0:
291,156,44277,2,0,L|350:147,2,60.5000018463135,0|0|8,0:0|0:0|0:0,0:0:0:0:
305,276,44971,5,6,0:0:0:0:
425,282,45317,1,8,0:0:0:0:
429,233,45491,1,0,0:0:0:0:
432,184,45664,2,0,P|422:101|376:58,1,121.000003692627,0|8,0:0|0:0,0:0:0:0:
358,48,46184,1,0,0:0:0:0:
313,28,46358,5,10,0:0:0:0:
246,129,46705,1,10,0:0:0:0:
180,230,47051,1,10,0:0:0:0:
114,331,47398,1,10,0:0:0:0:
60,223,47745,6,0,B|35:169|66:106|66:106|139:80|214:108,1,242.000007385254,6|0,0:0|0:0,0:0:0:0:
302,126,48786,1,8,0:0:0:0:
347,142,48959,1,0,0:0:0:0:
391,159,49132,2,0,P|423:209|423:269,1,121.000003692627,2|8,0:0|0:0,0:0:0:0:
412,316,49653,1,0,0:0:0:0:
387,370,49826,2,0,P|327:372|275:342,1,121.000003692627,6|8,0:0|0:0,0:0:0:0:
239,310,50346,1,0,0:0:0:0:
203,276,50520,5,6,0:0:0:0:
116,191,50867,2,0,P|113:131|143:79,1,121.000003692627,8|0,0:0|0:0,0:0:0:0:
258,43,51560,1,8,0:0:0:0:
305,32,51734,1,0,0:0:0:0:
352,24,51907,2,0,P|354:83|324:135,1,121.000003692627,2|8,0:0|0:0,0:0:0:0:
224,205,52601,2,0,L|198:147,2,60.5000018463135,6|0|8,0:0|0:0|0:0,0:0:0:0:
276,314,53294,6,0,P|379:320|466:203,1,242.000007385254,6|0,0:0|0:0,0:0:0:0:
454,102,54335,1,8,0:0:0:0:
408,85,54508,1,0,0:0:0:0:
362,68,54682,2,0,L|286:44,2,60.5000018463135,0|0|8,0:0|0:0|0:0,0:0:0:0:
263,137,55375,2,0,L|205:155,2,60.5000018463135,0|0|8,0:0|0:0|0:0,0:0:0:0:
198,34,56069,5,6,0:0:0:0:
123,127,56416,1,8,0:0:0:0:
106,172,56589,1,0,0:0:0:0:
90,217,56762,2,0,P|87:276|117:328,1,121.000003692627,0|8,0:0|0:0,0:0:0:0:
163,343,57283,1,0,0:0:0:0:
210,350,57456,5,14,0:0:0:0:
269,244,57803,1,10,0:0:0:0:
328,138,58150,1,10,0:0:0:0:
387,32,58497,2,0,P|330:13|272:27,1,121.000003692627,10|6,0:0|0:0,0:0:0:0:
252,146,59190,5,8,0:0:0:0:
249,195,59364,1,0,0:0:0:0:
250,242,59537,2,0,P|271:297|319:331,1,121.000003692627,0|8,0:0|0:0,0:0:0:0:
368,342,60057,1,0,0:0:0:0:
415,352,60231,5,14,0:0:0:0:
346,237,60578,1,10,0:0:0:0:
415,122,60924,1,10,0:0:0:0:
346,7,61271,1,10,0:0:0:0:
413,65,67514,6,0,P|347:90|267:71,1,110
206,45,68208,2,0,P|139:68|90:134,1,110,0|8,0:0|0:0,0:0:0:0:
95,135,68728,1,8,0:0:0:0:
82,177,68901,1,0,0:0:0:0:
116,281,69248,6,0,P|174:308|254:289,1,110
322,266,69942,1,8,0:0:0:0:
362,250,70115,1,8,0:0:0:0:
402,232,70288,2,0,P|448:189|462:108,2,110
356,131,71329,5,8,0:0:0:0:
267,196,71676,1,8,0:0:0:0:
255,87,72023,2,0,L|196:112,1,55,8|8,0:0|0:0,0:0:0:0:
37,180,72716,6,0,P|61:260|224:339,1,242.000007385254,6|0,0:0|0:0,0:0:0:0:
311,332,73757,2,0,L|378:326,2,60.5000018463135,8|0|0,0:0|0:0|0:0,0:0:0:0:
256,223,74450,1,8,0:0:0:0:
232,180,74624,1,0,0:0:0:0:
206,139,74797,2,0,L|145:144,2,60.5000018463135,0|0|8,0:0|0:0|0:0,0:0:0:0:
273,38,75491,5,6,0:0:0:0:
153,58,75838,2,0,P|70:95|61:169,1,121.000003692627,8|0,0:0|0:0,0:0:0:0:
77,237,76531,1,8,0:0:0:0:
90,283,76705,1,0,0:0:0:0:
104,329,76878,2,0,P|189:361|247:314,1,121.000003692627,2|8,0:0|0:0,0:0:0:0:
255,331,77398,1,0,0:0:0:0:
299,310,77572,2,0,L|377:270,2,60.5000018463135,0|0|8,0:0|0:0|0:0,0:0:0:0:
327,192,78265,6,0,P|424:228|395:363,1,242.000007385254,6|0,0:0|0:0,0:0:0:0:
299,310,79306,1,8,0:0:0:0:
254,290,79479,1,0,0:0:0:0:
210,269,79653,2,0,L|133:238,2,60.5000018463135,0|0|8,0:0|0:0|0:0,0:0:0:0:
109,336,80346,2,0,L|52:358,2,60.5000018463135,0|0|8,0:0|0:0|0:0,0:0:0:0:
72,221,81040,6,0,P|141:162|212:187,1,121.000003692627,6|8,0:0|0:0,0:0:0:0:
286,179,81734,2,0,P|376:178|415:114,1,121.000003692627,0|8,0:0|0:0,0:0:0:0:
424,122,82254,1,0,0:0:0:0:
450,81,82427,5,14,0:0:0:0:
332,110,82774,1,10,0:0:0:0:
214,139,83121,1,10,0:0:0:0:
224,186,83294,1,8,0:0:0:0:
235,233,83468,1,10,0:0:0:0:
246,279,83641,1,8,0:0:0:0:
257,326,83814,6,0,P|340:290|350:215,1,121.000003692627,6|8,0:0|0:0,0:0:0:0:
368,147,84508,2,0,P|332:63|257:53,1,121.000003692627,0|8,0:0|0:0,0:0:0:0:
261,44,85028,1,0,0:0:0:0:
212,37,85202,5,14,0:0:0:0:
284,133,85549,1,10,0:0:0:0:
356,229,85895,1,10,0:0:0:0:
428,325,86242,1,10,0:0:0:0:
256,192,86589,12,12,88497,0:0:0:0:
