osu file format v14

[General]
AudioFilename: audio.mp3
AudioLeadIn: 0
PreviewTime: 35936
Countdown: 1
SampleSet: Soft
StackLeniency: 0.6
Mode: 2
LetterboxInBreaks: 0
WidescreenStoryboard: 1
SamplesMatchPlaybackRate: 1

[Editor]
Bookmarks: 13583,61271
DistanceSpacing: 0.5
BeatDivisor: 4
GridSize: 8
TimelineZoom: 3.700004

[Metadata]
Title:Speaking
TitleUnicode:Speaking
Artist:Mrs. GREEN APPLE
ArtistUnicode:Mrs. GREEN APPLE
Creator:Mykaterasu
Version:Hello's Rain
Source:遊☆戯☆王 ARC-V
Tags:[Kergio] Ending ED Four 4 Yu-Gi-Oh! スピーキング ミセスグリーンアップル yugioh Motoki Oomori 大森元貴
BeatmapID:1455227
BeatmapSetID:633499

[Difficulty]
HPDrainRate:5
CircleSize:4
OverallDifficulty:9.2
ApproachRate:9.2
SliderMultiplier:2.1
SliderTickRate:2

[Events]
//Background and Video events
0,0,"Hello's bg.jpg",0,0
//Break Periods
//Storyboard Layer 0 (Background)
//Storyboard Layer 1 (Fail)
//Storyboard Layer 2 (Pass)
//Storyboard Layer 3 (Foreground)
//Storyboard Sound Samples
Sample,21564,0,"kick1.mp3",70

[TimingPoints]
578,346.820809248555,4,2,0,55,1,0
578,-100,4,3,0,55,0,0
924,-133.333333333333,4,2,0,55,0,0
6127,-66.6666666666667,4,1,1,80,0,0
6473,-133.333333333333,4,2,0,55,0,0
10288,-66.6666666666667,4,2,0,55,0,0
10982,-133.333333333333,4,2,0,55,0,0
11676,-133.333333333333,4,1,1,80,0,0
12023,-100,4,3,0,70,0,0
16965,-100,4,2,0,5,0,0
17225,-83.3333333333333,4,2,0,90,0,0
22080,-83.3333333333333,4,3,0,90,0,0
23121,-83.3333333333333,4,2,0,5,0,0
23468,-83.3333333333333,4,3,0,90,0,0
23814,-83.3333333333333,4,2,0,5,0,0
24161,-83.3333333333333,4,3,0,90,0,0
24508,-83.3333333333333,4,2,0,5,0,0
24855,-83.3333333333333,4,3,0,90,0,0
25895,-83.3333333333333,4,2,0,5,0,0
26242,-83.3333333333333,4,3,0,90,0,0
26589,-83.3333333333333,4,2,0,5,0,0
26936,-83.3333333333333,4,3,0,90,0,0
28670,-83.3333333333333,4,2,0,5,0,0
29017,-83.3333333333333,4,3,0,90,0,0
29364,-83.3333333333333,4,2,0,5,0,0
29710,-83.3333333333333,4,3,0,90,0,0
30057,-83.3333333333333,4,2,0,5,0,0
30404,-83.3333333333333,4,3,0,90,0,0
31098,-100,4,3,0,60,0,0
33872,-100,4,3,0,80,0,0
35433,-100,4,1,0,50,0,0
35953,-100,4,3,0,100,0,0
36040,-100,4,2,0,5,0,0
36300,-66.6666666666667,4,2,0,100,0,0
36387,-66.6666666666667,4,2,0,5,0,0
36647,-83.3333333333333,4,1,1,90,0,1
61618,-62.5,4,3,0,60,0,0
65780,-66.6666666666667,4,3,0,60,0,0
66473,-83.3333333333333,4,3,0,80,0,0
66820,-62.5,4,3,0,80,0,0
67167,-83.3333333333333,4,2,0,70,0,0
71329,-83.3333333333333,4,3,0,80,0,0
72283,-83.3333333333333,4,2,0,5,0,0
72716,-83.3333333333333,4,1,1,90,0,1
85895,-100,4,1,1,75,0,1
86242,-83.3333333333333,4,1,0,75,0,1
86589,-55.5555555555556,4,3,0,55,0,0
88497,-200,4,3,0,85,0,0

[Colours]
Combo1 : 128,255,255
Combo2 : 255,108,108
Combo3 : 248,203,69
Combo4 : 74,74,74

[HitObjects]
56,296,578,5,8,0:0:0:0:
344,304,924,6,0,L|368:128,1,157.500006008148,2|0,0:0|0:0,0:0:0:0:
112,312,1791,1,2,0:0:0:0:
240,256,1965,1,2,0:0:0:0:
96,216,2138,1,0,0:0:0:0:
296,328,2312,2,0,P|376:288|320:160,1,236.250009012223,2|0,0:0|0:0,0:0:0:0:
144,144,3005,6,0,L|223:144,2,78.7500030040742,2|2|2,0:0|0:0|0:0,0:0:0:0:
384,224,3699,2,0,L|208:232,1,157.500006008148,2|0,0:0|0:0,0:0:0:0:
448,336,4393,1,2,0:0:0:0:
472,200,4566,1,0,0:0:0:0:
280,304,4739,6,0,P|232:272|288:216,1,157.500006008148,2|0,0:0|0:0,0:0:0:0:
64,256,5433,2,0,L|208:184,1,157.500006008148,2|0,0:0|0:0,0:0:0:0:
304,144,5953,1,0,0:0:0:0:
88,112,6127,1,2,0:0:0:0:
464,200,6473,5,2,0:0:0:0:
168,312,6820,2,0,P|120:280|192:216,1,157.500006008148,2|0,0:0|0:0,0:0:0:0:
368,152,7341,2,0,L|289:159,2,78.7500030040742,2|2|2,0:0|0:0|0:0,0:0:0:0:
176,280,7861,2,0,P|88:232|192:184,1,236.250009012223,2|0,0:0|0:0,0:0:0:0:
336,168,8554,6,0,L|352:80,1,78.7500030040742,2|0,0:0|0:0,0:0:0:0:
176,104,8901,2,0,L|160:16,1,78.7500030040742,2|0,0:0|0:0,0:0:0:0:
352,304,9248,2,0,L|192:240,1,157.500006008148,2|0,0:0|0:0,0:0:0:0:
48,272,9942,2,0,L|128:272,1,78.7500030040742,2|0,0:0|0:0,0:0:0:0:
352,336,10288,2,0,P|440:296|328:168,1,315.000012016297
72,200,10982,2,0,L|224:152,1,157.500006008148,2|0,0:0|0:0,0:0:0:0:
96,112,11502,1,2,0:0:0:0:
400,112,11676,1,8,0:0:0:0:
104,304,12023,6,0,L|88:184,1,105,8|0,0:0|0:0,0:0:0:0:
264,248,12369,2,0,L|272:128,1,105,10|0,0:0|0:0,0:0:0:0:
72,168,12716,1,8,0:0:0:0:
174,144,12890,1,0,0:0:0:0:
320,120,13063,2,0,L|208:96,1,105,10|0,0:0|0:0,0:0:0:0:
376,96,13410,2,8,P|440:136|352:224,1,210,8|10,0:0|0:0,0:0:0:0:
496,312,13930,1,0,0:0:0:0:
256,304,14104,6,0,L|240:192,1,105,8|0,0:0|0:0,0:0:0:0:
112,216,14450,2,0,L|88:104,1,105,10|0,0:0|0:0,0:0:0:0:
384,216,14797,2,0,L|416:104,1,105,12|0,0:0|0:0,0:0:0:0:
264,120,15144,1,10,0:0:0:0:
168,75,15317,1,0,0:0:0:0:
368,280,15491,5,8,0:0:0:0:
480,240,15664,1,0,0:0:0:0:
304,240,15838,2,0,P|216:200|216:136,1,157.5,8|0,0:0|0:0,0:0:0:0:
296,120,16184,2,0,L|168:88,1,105,10|0,0:0|0:0,0:0:0:0:
464,104,16531,2,0,L|320:80,1,105,10|0,0:0|0:0,0:0:0:0:
112,104,16878,2,0,L|120:248,1,105,4|0,0:0|0:0,0:0:0:0:
392,320,17225,5,4,0:0:0:0:
280,256,17398,1,2,0:0:0:0:
440,224,17572,1,0,0:0:0:0:
184,320,17745,2,0,P|144:248|280:160,1,251.999992309571,4|2,0:0|0:0,0:0:0:0:
56,288,18265,2,0,P|32:216|168:88,1,251.999992309571,4|2,0:0|0:0,0:0:0:0:
368,120,18786,2,0,L|232:104,1,125.999996154785,4|0,0:0|0:0,0:0:0:0:
400,32,19132,1,2,0:0:0:0:
88,328,19306,5,4,0:0:0:0:
40,296,19393,1,0,0:0:0:0:
40,232,19479,1,2,0:0:0:0:
96,208,19566,1,2,0:0:0:0:
248,168,19653,2,0,L|152:80,1,125.999996154785,4|2,0:0|0:0,0:0:0:0:
400,128,19999,6,0,P|368:216|216:264,1,251.999992309571,4|2,0:0|0:0,0:0:0:0:
336,344,20520,1,6,0:0:0:0:
384,320,20606,1,2,0:0:0:0:
336,296,20693,2,0,L|200:280,1,125.999996154785
424,256,21040,2,0,P|456:168|328:72,1,251.999992309571,4|0,0:0|0:0,0:0:0:0:
208,72,21560,1,4,0:0:0:0:
456,160,21734,2,0,L|333:188,1,125.999996154785,2|0,0:0|0:0,0:0:0:0:
176,296,22080,5,2,0:0:0:0:
112,280,22167,1,2,0:0:0:0:
112,216,22254,1,2,0:0:0:0:
176,192,22341,1,0,0:0:0:0:
352,168,22427,1,8,0:0:0:0:
456,160,22601,1,4,0:0:0:0:
176,120,22774,5,4,0:0:0:0:
432,312,22947,2,0,P|472:208|392:80,1,251.999992309571,4|0,0:0|0:0,0:0:0:0:
256,64,23468,1,4,0:0:0:0:
496,80,23641,2,0,P|440:160|280:232,1,251.999992309571,4|0,0:0|0:0,0:0:0:0:
456,272,24161,1,4,0:0:0:0:
224,328,24335,2,0,P|144:296|192:152,1,251.999992309571,4|0,0:0|0:0,0:0:0:0:
32,112,24855,5,2,0:0:0:0:
336,184,25028,1,8,0:0:0:0:
240,136,25202,1,2,0:0:0:0:
336,88,25375,1,8,0:0:0:0:
192,64,25549,5,4,0:0:0:0:
424,48,25722,2,0,P|456:112|344:240,1,251.999992309571,4|0,0:0|0:0,0:0:0:0:
488,304,26242,1,4,0:0:0:0:
240,336,26416,2,0,P|160:272|280:160,1,251.999992309571,4|0,0:0|0:0,0:0:0:0:
360,152,26936,1,4,0:0:0:0:
152,128,27109,6,0,L|16:64,1,125.999996154785,6|8,0:0|0:0,0:0:0:0:
208,192,27456,2,0,L|352:120,1,125.999996154785,2|8,0:0|0:0,0:0:0:0:
144,240,27803,2,0,L|8:192,1,125.999996154785,2|8,0:0|0:0,0:0:0:0:
208,224,28150,1,2,0:0:0:0:
80,160,28323,5,4,0:0:0:0:
464,344,28497,2,0,P|488:280|336:176,1,251.999992309571,4|0,0:0|0:0,0:0:0:0:
496,128,29017,1,4,0:0:0:0:
128,264,29190,2,0,L|392:176,1,251.999992309571,4|0,0:0|0:0,0:0:0:0:
240,136,29710,1,4,0:0:0:0:
496,128,29884,2,0,P|496:216|352:312,1,251.999992309571,4|0,0:0|0:0,0:0:0:0:
224,288,30404,5,2,0:0:0:0:
304,240,30578,1,8,0:0:0:0:
208,192,30751,1,2,0:0:0:0:
344,160,30924,1,8,0:0:0:0:
80,336,31098,6,0,L|48:224,1,105,12|0,0:0|0:0,0:0:0:0:
264,256,31445,2,0,L|280:120,1,105,10|0,0:0|0:0,0:0:0:0:
120,136,31791,1,8,0:0:0:0:
304,128,31965,2,2,L|368:80,1,52.5
280,64,32138,2,0,L|168:64,1,105,8|0,0:0|0:0,0:0:0:0:
432,208,32485,6,0,P|464:168|480:96,1,105,12|0,0:0|0:0,0:0:0:0:
416,72,32745,1,2,0:0:0:0:
232,312,32832,2,0,P|176:248|184:184,1,105,8|0,0:0|0:0,0:0:0:0:
424,336,33179,1,10,0:0:0:0:
480,280,33265,1,0,0:0:0:0:
472,208,33352,1,0,0:0:0:0:
400,176,33439,1,2,0:0:0:0:
288,168,33525,2,0,L|336:120,1,52.5,10|0,0:0|0:0,0:0:0:0:
424,96,33699,2,0,L|472:64,1,52.5,2|0,0:0|0:0,0:0:0:0:
136,328,33872,5,10,0:0:0:0:
80,304,33959,1,0,0:0:0:0:
64,240,34046,1,8,0:0:0:0:
104,184,34132,1,0,0:0:0:0:
216,200,34219,1,10,0:0:0:0:
272,160,34306,1,0,0:0:0:0:
272,104,34393,1,8,0:0:0:0:
232,56,34479,1,0,0:0:0:0:
424,256,34566,5,10,0:0:0:0:
472,176,34653,1,0,0:0:0:0:
456,96,34739,1,8,0:0:0:0:
392,40,34826,1,0,0:0:0:0:
184,256,34913,1,10,0:0:0:0:
136,176,35000,1,0,0:0:0:0:
152,96,35086,1,8,0:0:0:0:
216,40,35173,1,0,0:0:0:0:
104,336,35433,6,0,L|8:288,2,105,2|2|2,0:0|0:0|0:0,0:0:0:0:
392,336,35953,2,0,P|408:256|320:184,1,157.5,4|0,0:0|0:0,0:0:0:0:
200,160,36300,2,0,L|352:96,1,157.500006008148,8|0,0:0|0:0,0:0:0:0:
56,120,36647,5,6,0:0:0:0:
192,264,36820,1,0,0:0:0:0:
248,216,36907,1,0,0:0:0:0:
176,192,36994,2,0,L|32:176,1,125.999996154785,8|0,0:0|0:0,0:0:0:0:
368,296,37341,2,0,P|416:240|400:176,1,125.999996154785,2|0,0:0|0:0,0:0:0:0:
328,176,37601,1,0,0:0:0:0:
240,168,37687,2,0,P|200:120|240:56,1,125.999996154785,8|0,0:0|0:0,0:0:0:0:
480,104,38034,6,0,L|336:88,1,125.999996154785,2|0,0:0|0:0,0:0:0:0:
232,192,38381,2,0,L|384:176,1,125.999996154785,8|0,0:0|0:0,0:0:0:0:
88,296,38728,2,0,L|80:160,1,125.999996154785,2|0,0:0|0:0,0:0:0:0:
240,288,39075,2,0,P|280:192|224:104,1,188.999994232178,8|0,0:0|0:0,0:0:0:0:
32,136,39421,6,0,L|160:64,1,125.999996154785,6|0,0:0|0:0,0:0:0:0:
456,200,39768,2,0,L|472:56,1,125.999996154785,8|0,0:0|0:0,0:0:0:0:
312,160,40115,1,2,0:0:0:0:
448,144,40288,1,0,0:0:0:0:
272,64,40462,1,8,0:0:0:0:
456,56,40635,2,0,L|480:128,1,62.9999980773926
264,248,40809,6,0,P|208:192|192:120,1,125.999996154785,2|0,0:0|0:0,0:0:0:0:
336,192,41156,2,0,P|384:144|408:80,1,125.999996154785,8|0,0:0|0:0,0:0:0:0:
328,48,41416,1,0,0:0:0:0:
64,216,41502,2,0,P|40:136|64:96,1,125.999996154785,2|0,0:0|0:0,0:0:0:0:
232,160,41849,1,8,0:0:0:0:
72,144,42023,1,8,0:0:0:0:
400,304,42196,6,0,P|448:216|416:176,1,125.999996154785,6|0,0:0|0:0,0:0:0:0:
376,168,42456,1,0,0:0:0:0:
304,128,42543,2,0,L|432:96,1,125.999996154785,8|0,0:0|0:0,0:0:0:0:
144,304,42890,2,0,P|104:224|136:168,1,125.999996154785,2|0,0:0|0:0,0:0:0:0:
176,160,43150,1,0,0:0:0:0:
240,120,43236,2,0,L|112:104,1,125.999996154785,8|0,0:0|0:0,0:0:0:0:
464,272,43583,5,2,0:0:0:0:
424,144,43757,1,0,0:0:0:0:
80,272,43930,2,0,L|224:240,1,125.999996154785,8|0,0:0|0:0,0:0:0:0:
40,168,44277,1,2,0:0:0:0:
216,304,44450,2,0,L|304:280,1,62.9999980773926
208,240,44624,2,0,L|72:224,1,125.999996154785,8|0,0:0|0:0,0:0:0:0:
400,352,44971,6,0,P|472:304|464:216,1,125.999996154785,6|0,0:0|0:0,0:0:0:0:
288,248,45317,2,0,L|192:144,1,125.999996154785,8|0,0:0|0:0,0:0:0:0:
280,128,45578,1,0,0:0:0:0:
200,80,45664,2,0,L|32:64,1,125.999996154785,2|0,0:0|0:0,0:0:0:0:
256,152,46011,2,0,L|408:144,1,125.999996154785,8|0,0:0|0:0,0:0:0:0:
64,336,46358,6,0,P|48:240|96:184,1,125.999996154785,2|0,0:0|0:0,0:0:0:0:
392,216,46705,2,0,P|448:152|464:72,1,125.999996154785,8|0,0:0|0:0,0:0:0:0:
176,152,47051,1,2,0:0:0:0:
120,128,47138,1,0,0:0:0:0:
64,104,47225,1,0,0:0:0:0:
240,64,47398,1,8,0:0:0:0:
72,184,47572,1,8,0:0:0:0:
432,344,47745,6,0,P|472:272|456:208,1,125.999996154785,6|0,0:0|0:0,0:0:0:0:
408,200,48005,1,0,0:0:0:0:
352,168,48092,1,8,0:0:0:0:
472,120,48265,1,0,0:0:0:0:
192,288,48439,2,0,P|152:248|152:160,1,125.999996154785,2|0,0:0|0:0,0:0:0:0:
224,176,48699,1,0,0:0:0:0:
312,176,48786,2,0,P|392:128|408:64,1,125.999996154785,8|0,0:0|0:0,0:0:0:0:
104,168,49132,6,0,L|88:32,1,125.999996154785,2|0,0:0|0:0,0:0:0:0:
280,136,49479,1,8,0:0:0:0:
104,136,49653,1,0,0:0:0:0:
48,88,49739,1,0,0:0:0:0:
104,40,49826,1,2,0:0:0:0:
312,304,49999,1,0,0:0:0:0:
136,328,50173,2,0,P|80:280|168:224,1,188.999994232178,8|0,0:0|0:0,0:0:0:0:
304,192,50520,6,0,L|400:88,1,125.999996154785,6|0,0:0|0:0,0:0:0:0:
200,200,50867,2,0,L|72:120,1,125.999996154785,8|0,0:0|0:0,0:0:0:0:
368,296,51213,2,0,L|472:208,1,125.999996154785,2|0,0:0|0:0,0:0:0:0:
400,192,51473,1,0,0:0:0:0:
336,152,51560,2,0,L|480:96,1,125.999996154785,8|0,0:0|0:0,0:0:0:0:
120,296,51907,6,0,L|16:216,1,125.999996154785,2|0,0:0|0:0,0:0:0:0:
208,232,52254,2,0,L|304:136,1,125.999996154785,8|0,0:0|0:0,0:0:0:0:
232,120,52514,1,0,0:0:0:0:
32,96,52601,2,0,L|160:176,1,125.999996154785,2|0,0:0|0:0,0:0:0:0:
336,208,52947,2,0,L|464:120,1,125.999996154785,8|0,0:0|0:0,0:0:0:0:
160,312,53294,6,0,L|32:272,1,125.999996154785,6|0,0:0|0:0,0:0:0:0:
96,232,53554,1,0,0:0:0:0:
160,208,53641,2,0,L|24:184,1,125.999996154785,8|0,0:0|0:0,0:0:0:0:
456,336,53988,2,0,P|480:264|424:200,1,125.999996154785,2|0,0:0|0:0,0:0:0:0:
400,200,54248,1,0,0:0:0:0:
336,176,54335,1,8,0:0:0:0:
472,144,54508,1,0,0:0:0:0:
168,304,54682,6,0,P|104:232|104:168,1,125.999996154785,2|0,0:0|0:0,0:0:0:0:
272,248,55028,2,0,P|336:184|352:128,1,125.999996154785,8|0,0:0|0:0,0:0:0:0:
304,104,55288,1,0,0:0:0:0:
248,80,55375,1,2,0:0:0:0:
384,40,55549,1,0,0:0:0:0:
112,320,55722,2,0,P|56:280|128:200,1,188.999994232178,8|0,0:0|0:0,0:0:0:0:
336,200,56069,6,0,L|448:120,1,125.999996154785,6|0,0:0|0:0,0:0:0:0:
288,152,56416,2,0,L|168:72,1,125.999996154785,8|0,0:0|0:0,0:0:0:0:
352,312,56762,1,2,0:0:0:0:
456,256,56936,1,0,0:0:0:0:
328,224,57109,1,8,0:0:0:0:
456,160,57283,1,0,0:0:0:0:
104,336,57456,6,0,L|208:200,1,125.999996154785,6|0,0:0|0:0,0:0:0:0:
240,232,57716,1,0,0:0:0:0:
448,256,57803,2,0,P|472:176|416:128,1,125.999996154785,8|0,0:0|0:0,0:0:0:0:
208,136,58150,1,2,0:0:0:0:
320,96,58323,1,0,0:0:0:0:
192,56,58497,1,8,0:0:0:0:
328,16,58670,1,8,0:0:0:0:
72,216,58843,6,0,L|16:88,2,125.999996154785,6|0|8,0:0|0:0|0:0,0:0:0:0:
240,288,59364,1,0,0:0:0:0:
288,240,59450,1,0,0:0:0:0:
224,208,59537,2,0,L|88:176,1,125.999996154785,2|0,0:0|0:0,0:0:0:0:
288,168,59884,2,0,L|432:144,1,125.999996154785,8|0,0:0|0:0,0:0:0:0:
112,352,60231,6,0,P|80:272|112:224,1,125.999996154785,6|0,0:0|0:0,0:0:0:0:
160,216,60491,1,0,0:0:0:0:
232,200,60578,2,0,P|312:152|304:96,1,125.999996154785,10|0,0:0|0:0,0:0:0:0:
248,120,60838,1,0,0:0:0:0:
408,56,60924,5,10,0:0:0:0:
464,80,61011,1,0,0:0:0:0:
480,120,61098,1,0,0:0:0:0:
464,160,61184,1,0,0:0:0:0:
232,176,61271,1,10,0:0:0:0:
176,200,61358,1,0,0:0:0:0:
160,240,61445,1,0,0:0:0:0:
176,280,61531,1,0,0:0:0:0:
456,360,61618,5,2,0:0:0:0:
480,248,61791,1,2,0:0:0:0:
192,224,61965,1,8,0:0:0:0:
336,192,62138,1,8,0:0:0:0:
176,160,62485,1,2,0:0:0:0:
344,128,62658,1,8,0:0:0:0:
48,320,63005,5,2,0:0:0:0:
32,216,63179,1,2,0:0:0:0:
280,216,63352,1,8,0:0:0:0:
128,208,63525,1,8,0:0:0:0:
360,152,63872,1,0,0:0:0:0:
184,120,64045,1,0,0:0:0:0:
384,80,64219,1,0,0:0:0:0:
56,360,64393,5,2,0:0:0:0:
32,248,64566,1,2,0:0:0:0:
320,224,64740,1,8,0:0:0:0:
176,192,64913,1,8,0:0:0:0:
336,160,65260,1,2,0:0:0:0:
168,128,65433,1,8,0:0:0:0:
448,320,65780,5,0,0:0:0:0:
448,200,65953,1,0,0:0:0:0:
280,184,66127,1,2,0:0:0:0:
448,152,66300,1,8,0:0:0:0:
56,224,66473,5,2,0:0:0:0:
184,168,66647,1,8,0:0:0:0:
40,112,66820,1,8,0:0:0:0:
176,64,66994,1,8,0:0:0:0:
456,264,67167,6,4,L|472:120,1,125.999996154785
296,344,67514,2,0,P|184:296|104:176,2,251.999992309571,2|2|2,0:0|0:0|0:0,0:0:0:0:
432,320,68381,1,0,0:0:0:0:
48,224,68554,6,4,L|32:80,1,125.999996154785
168,40,68901,2,0,P|280:88|360:208,2,251.999992309571,2|2|2,0:0|0:0|0:0,0:0:0:0:
40,80,69768,1,0,0:0:0:0:
400,128,69942,6,4,L|424:264,1,125.999996154785
216,336,70288,2,0,P|272:264|432:184,2,251.999992309571,2|2|2,0:0|0:0|0:0,0:0:0:0:
368,336,71156,1,0,0:0:0:0:
96,312,71329,5,8,0:0:0:0:
48,280,71416,1,8,0:0:0:0:
48,216,71502,1,8,0:0:0:0:
104,184,71589,1,0,0:0:0:0:
272,200,71676,1,4,0:0:0:0:
328,168,71762,1,4,0:0:0:0:
328,96,71849,1,4,0:0:0:0:
272,64,71936,1,4,0:0:0:0:
96,48,72023,2,0,L|16:48,1,62.9999980773926,4|0,0:0|0:0,0:0:0:0:
312,328,72196,2,0,P|384:272|304:96,1,314.999990386963,2|0,0:0|0:0,0:0:0:0:
96,96,72716,5,6,0:0:0:0:
224,184,72890,1,0,0:0:0:0:
280,152,72976,1,0,0:0:0:0:
224,136,73063,2,0,L|88:120,1,125.999996154785,8|0,0:0|0:0,0:0:0:0:
288,256,73410,2,0,P|360:208|392:144,1,125.999996154785,2|0,0:0|0:0,0:0:0:0:
320,136,73670,1,0,0:0:0:0:
248,112,73757,2,0,P|184:160|152:216,1,125.999996154785,8|0,0:0|0:0,0:0:0:0:
464,240,74104,6,0,L|472:104,1,125.999996154785,2|0,0:0|0:0,0:0:0:0:
312,152,74450,1,8,0:0:0:0:
448,168,74624,1,0,0:0:0:0:
288,200,74797,2,0,L|160:208,1,125.999996154785,2|0,0:0|0:0,0:0:0:0:
360,328,75144,2,0,P|408:264|360:152,1,188.999994232178,8|0,0:0|0:0,0:0:0:0:
80,192,75491,6,0,L|192:104,1,125.999996154785,6|0,0:0|0:0,0:0:0:0:
320,112,75838,2,0,L|208:32,1,125.999996154785,8|0,0:0|0:0,0:0:0:0:
472,216,76184,2,0,L|328:192,1,125.999996154785,2|0,0:0|0:0,0:0:0:0:
288,216,76445,1,0,0:0:0:0:
336,248,76531,2,0,L|472:280,1,125.999996154785,8|0,0:0|0:0,0:0:0:0:
184,336,76878,6,0,P|144:256|160:192,1,125.999996154785,2|0,0:0|0:0,0:0:0:0:
336,208,77225,2,0,P|368:128|360:80,1,125.999996154785,8|0,0:0|0:0,0:0:0:0:
296,64,77485,1,0,0:0:0:0:
240,48,77572,1,2,0:0:0:0:
360,16,77745,1,0,0:0:0:0:
152,176,77919,2,0,L|136:40,1,125.999996154785,8|0,0:0|0:0,0:0:0:0:
424,96,78265,5,6,0:0:0:0:
264,224,78439,2,0,L|176:176,1,62.9999980773926
280,176,78612,2,0,L|440:160,1,125.999996154785,8|0,0:0|0:0,0:0:0:0:
216,344,78959,2,0,P|168:280|152:192,1,125.999996154785,2|0,0:0|0:0,0:0:0:0:
224,208,79219,1,0,0:0:0:0:
144,176,79306,2,0,L|8:152,1,125.999996154785,8|0,0:0|0:0,0:0:0:0:
392,296,79653,5,2,0:0:0:0:
304,208,79826,1,0,0:0:0:0:
120,312,79999,2,0,P|96:248|128:168,1,125.999996154785,8|0,0:0|0:0,0:0:0:0:
168,184,80260,1,0,0:0:0:0:
224,176,80346,1,2,0:0:0:0:
112,112,80520,1,0,0:0:0:0:
320,312,80693,2,0,P|352:224|304:120,1,188.999994232178,8|0,0:0|0:0,0:0:0:0:
96,192,81040,6,0,L|64:64,1,125.999996154785,6|0,0:0|0:0,0:0:0:0:
280,128,81387,2,0,L|304:0,1,125.999996154785,8|0,0:0|0:0,0:0:0:0:
128,304,81734,2,0,L|88:168,1,125.999996154785,2|0,0:0|0:0,0:0:0:0:
256,232,82080,1,8,0:0:0:0:
128,216,82254,1,0,0:0:0:0:
424,344,82427,6,0,P|456:280|400:192,1,125.999996154785,2|0,0:0|0:0,0:0:0:0:
376,216,82687,1,0,0:0:0:0:
312,200,82774,2,0,P|272:144|272:64,1,125.999996154785,8|0,0:0|0:0,0:0:0:0:
440,72,83121,1,2,0:0:0:0:
288,72,83294,1,0,0:0:0:0:
440,136,83468,1,10,0:0:0:0:
288,136,83641,1,0,0:0:0:0:
48,288,83814,6,0,P|64:200|80:152,1,125.999996154785,6|0,0:0|0:0,0:0:0:0:
248,248,84161,2,0,P|280:160|288:104,1,125.999996154785,8|0,0:0|0:0,0:0:0:0:
88,208,84508,2,0,P|48:144|64:64,1,125.999996154785,2|0,0:0|0:0,0:0:0:0:
112,72,84768,1,0,0:0:0:0:
368,328,84855,2,0,L|480:240,1,125.999996154785,8|0,0:0|0:0,0:0:0:0:
192,320,85202,6,0,P|168:232|176:160,1,125.999996154785,2|0,0:0|0:0,0:0:0:0:
240,168,85462,1,0,0:0:0:0:
168,128,85549,2,0,P|216:80|272:56,1,125.999996154785,10|0,0:0|0:0,0:0:0:0:
112,48,85895,5,10,0:0:0:0:
64,96,85982,1,0,0:0:0:0:
64,152,86069,1,10,0:0:0:0:
104,192,86156,1,0,0:0:0:0:
312,216,86242,1,2,0:0:0:0:
192,264,86416,1,2,0:0:0:0:
448,320,86589,5,4,0:0:0:0:
464,200,86762,1,0,0:0:0:0:
176,192,86936,1,8,0:0:0:0:
336,176,87109,1,8,0:0:0:0:
168,144,87456,1,0,0:0:0:0:
352,128,87630,1,8,0:0:0:0:
72,304,87976,5,0,0:0:0:0:
64,176,88150,1,0,0:0:0:0:
336,232,88323,1,8,0:0:0:0:
64,104,88497,1,8,0:0:0:0:
