osu file format v14

[General]
AudioFilename: audio.mp3
AudioLeadIn: 0
PreviewTime: 35936
Countdown: 1
SampleSet: Soft
StackLeniency: 0.6
Mode: 0
LetterboxInBreaks: 0
WidescreenStoryboard: 1

[Editor]
DistanceSpacing: 1.2
BeatDivisor: 4
GridSize: 4
TimelineZoom: 2.000006

[Metadata]
Title:Speaking
TitleUnicode:Speaking
Artist:Mrs. GREEN APPLE
ArtistUnicode:Mrs. GREEN APPLE
Creator:Mykaterasu
Version:Hard
Source:遊☆戯☆王 ARC-V
Tags:[Kergio] Ending ED Four 4 Yu-Gi-Oh! スピーキング ミセスグリーンアップル yugioh Motoki Oomori 大森元貴
BeatmapID:1371097
BeatmapSetID:633499

[Difficulty]
HPDrainRate:5
CircleSize:3.3
OverallDifficulty:5.6
ApproachRate:8
SliderMultiplier:1.6
SliderTickRate:1

[Events]
//Background and Video events
0,0,"prt.png",0,0
Video,-2,"spkn.mp4"
//Break Periods
//Storyboard Layer 0 (Background)
//Storyboard Layer 1 (Fail)
//Storyboard Layer 2 (Pass)
//Storyboard Layer 3 (Foreground)
//Storyboard Sound Samples

[TimingPoints]
578,346.820809248555,4,2,0,55,1,0
578,-142.857142857143,4,3,0,70,0,0
751,-100,4,2,0,55,0,0
6127,-142.857142857143,4,2,0,70,0,0
6300,-100,4,2,0,55,0,0
10982,-100,4,2,0,70,0,0
11156,-100,4,2,0,55,0,0
11676,-76.9230769230769,4,3,0,70,0,0
12023,-100,4,3,0,70,0,0
17225,-100,4,1,0,90,0,0
31098,-100,4,3,0,60,0,0
35433,-142.857142857143,4,3,0,60,0,0
36647,-76.9230769230769,4,1,1,75,0,1
61271,-90.9090909090909,4,1,1,75,0,1
61618,-100,4,3,0,60,0,0
67167,-100,4,2,0,50,0,0
71329,-100,4,3,0,70,0,0
72716,-76.9230769230769,4,1,1,75,0,1
86589,-100,4,3,0,55,0,0

[Colours]
Combo1 : 128,255,255
Combo2 : 128,0,255
Combo3 : 212,212,212
Combo4 : 74,74,74

[HitObjects]
94,60,578,6,0,L|96:147,1,55.9999982910157,8|0,0:0|0:0,0:0:0:0:
97,195,924,6,0,L|120:318,1,80
129,351,1271,1,0,0:0:0:0:
208,338,1445,2,0,B|286:326|286:326|359:247,1,160
386,200,1965,1,0,0:0:0:0:
386,200,2138,1,0,0:0:0:0:
383,119,2312,2,0,L|260:96,1,80
247,160,2658,2,0,L|124:183,1,80
88,167,3005,6,0,P|101:218|145:259,1,80
196,251,3352,1,0,0:0:0:0:
137,102,3699,1,0,0:0:0:0:
260,203,4046,2,0,P|275:253|258:311,1,80
211,332,4393,1,0,0:0:0:0:
211,332,4566,1,0,0:0:0:0:
135,306,4739,6,0,P|114:257|125:198,1,80
173,175,5086,2,0,P|209:136|220:77,1,80
183,39,5433,2,0,P|235:35|288:64,1,80
301,113,5780,2,0,P|353:116|406:87,1,80
483,67,6127,6,2,L|485:154,1,55.9999982910157,0|0,0:0|0:0,0:0:0:0:
483,202,6473,6,0,L|460:325,1,80
450,358,6820,1,0,0:0:0:0:
375,328,6994,2,0,B|303:294|303:294|188:308,1,160
143,316,7514,1,0,0:0:0:0:
143,316,7687,1,0,0:0:0:0:
64,330,7861,2,0,L|41:207,1,80
114,205,8208,2,0,L|137:82,1,80
122,46,8554,6,0,P|173:59|214:103,1,80
204,154,8901,2,0,P|250:129|280:77,1,80
332,61,9248,2,0,P|346:111|328:169,1,80
294,202,9595,1,0,0:0:0:0:
310,361,9942,2,0,P|350:326|367:269,1,80
283,284,10288,6,0,P|236:259|207:206,1,80
154,192,10635,2,0,P|198:164|258:165,1,80
373,190,10982,2,0,L|294:202,1,80
219,238,11329,1,0,0:0:0:0:
190,312,11502,1,0,0:0:0:0:
80,280,11676,6,0,B|48:236|48:236|48:184,1,103.999995239258
52,106,12023,6,0,L|147:71,1,80
202,53,12369,1,0,0:0:0:0:
189,132,12543,1,0,0:0:0:0:
265,107,12716,1,0,0:0:0:0:
252,188,12890,1,0,0:0:0:0:
327,160,13063,6,0,L|422:125,1,80
478,106,13410,1,0,0:0:0:0:
466,184,13583,2,0,L|448:283,1,80
438,341,13930,1,0,0:0:0:0:
374,291,14104,2,0,L|296:226,1,80
252,188,14450,6,0,P|217:171|131:187,1,80
98,150,14797,2,0,P|100:188|157:255,1,80
140,302,15144,1,0,0:0:0:0:
194,246,15317,1,0,0:0:0:0:
59,280,15491,6,0,P|17:184|27:85,1,160,0|2,0:0|0:0,0:0:0:0:
154,91,16184,2,0,P|251:97|306:122,1,120,2|0,0:0|0:0,0:0:0:0:
304,118,16531,1,2,0:0:0:0:
218,322,16878,1,2,0:0:0:0:
390,264,17225,6,0,L|471:238,2,80,4|0|0,0:0|0:0|0:0,0:0:0:0:
324,217,17745,2,0,L|242:191,2,80,8|0|0,0:0|0:0|0:0,0:0:0:0:
395,180,18265,2,0,L|476:154,2,80,4|0|0,0:0|0:0|0:0,0:0:0:0:
329,133,18785,2,0,L|247:107,2,80,4|0|0,0:0|0:0|0:0,0:0:0:0:
401,97,19306,1,8,0:0:0:0:
318,295,19653,1,4,0:0:0:0:
176,91,19999,6,0,L|106:2,2,80,4|0|0,0:0|0:0|0:0,0:0:0:0:
137,162,20520,2,0,L|31:119,2,80,8|0|0,0:0|0:0|0:0,0:0:0:0:
137,242,21040,2,0,L|24:258,2,80,4|0|0,0:0|0:0|0:0,0:0:0:0:
171,314,21560,2,0,L|82:384,2,80,8|8|0,0:0|0:0|0:0,0:0:0:0:
232,262,22080,2,0,L|265:234,3,40
293,210,22427,2,0,P|326:171|338:122,1,80,8|0,0:0|0:0,0:0:0:0:
343,64,22774,5,10,0:0:0:0:
343,64,22947,1,10,0:0:0:0:
269,96,23121,2,0,B|199:137|199:137|173:214,1,160,0|10,0:0|0:0,0:0:0:0:
148,288,23641,2,0,L|56:262,2,80,10|0|0,0:0|0:0|0:0,0:0:0:0:
225,310,24161,5,10,0:0:0:0:
225,310,24335,1,10,0:0:0:0:
302,327,24508,1,0,0:0:0:0:
409,112,24855,1,0,0:0:0:0:
421,190,25028,2,0,L|433:274,2,80,10|0|10,0:0|0:0|0:0,0:0:0:0:
345,161,25549,5,10,0:0:0:0:
345,161,25722,2,0,B|304:174|304:174|272:214,1,80,10|0,0:0|0:0,0:0:0:0:
350,242,26069,1,0,0:0:0:0:
283,285,26242,1,10,0:0:0:0:
283,285,26416,2,0,B|241:277|241:277|204:242,1,80,10|0,0:0|0:0,0:0:0:0:
160,191,26762,1,0,0:0:0:0:
190,116,26936,5,10,0:0:0:0:
262,50,27109,2,0,L|366:63,1,80
270,131,27456,2,0,L|374:144,1,80
278,212,27803,2,0,L|382:225,1,80,0|10,0:0|0:0,0:0:0:0:
424,69,28323,5,10,0:0:0:0:
424,69,28497,1,10,0:0:0:0:
347,92,28670,2,0,B|270:119|270:119|194:89,1,160,0|10,0:0|0:0,0:0:0:0:
124,55,29190,2,0,L|31:17,2,80,10|0|0,0:0|0:0|0:0,0:0:0:0:
127,135,29710,1,10,0:0:0:0:
127,135,29884,1,10,0:0:0:0:
131,214,30057,1,0,0:0:0:0:
348,154,30404,1,0,0:0:0:0:
275,125,30577,2,0,L|200:96,2,80,10|0|10,0:0|0:0|0:0,0:0:0:0:
337,73,31098,5,0,0:0:0:0:
337,73,31271,1,0,0:0:0:0:
412,98,31445,2,0,P|432:162|422:197,1,80,8|0,0:0|0:0,0:0:0:0:
372,228,31791,1,0,0:0:0:0:
372,228,31964,1,0,0:0:0:0:
297,253,32138,2,0,P|277:317|287:352,1,80,8|0,0:0|0:0,0:0:0:0:
357,311,32485,6,0,L|445:326,2,80,0|0|8,0:0|0:0|0:0,0:0:0:0:
372,228,33005,1,0,0:0:0:0:
347,151,33179,2,0,L|327:92,3,40
322,75,33525,2,0,P|284:38|254:32,1,80,8|0,0:0|0:0,0:0:0:0:
181,46,33872,2,0,L|133:85,3,40
181,98,34219,2,0,L|122:118,3,40
152,150,34565,2,0,L|93:130,3,40
107,177,34913,6,0,P|79:152|8:144,1,80
46,278,35433,6,0,L|35:222,2,55.9999982910157
110,331,35953,1,0,0:0:0:0:
110,331,36127,1,0,0:0:0:0:
174,233,36300,5,8,0:0:0:0:
345,351,36647,6,0,P|415:307|427:179,1,207.999990478516,4|8,0:0|0:0,0:0:0:0:
380,124,37167,1,0,0:0:0:0:
303,152,37341,2,0,L|201:194,1,103.999995239258
129,221,37687,1,8,0:0:0:0:
142,138,37861,1,0,0:0:0:0:
54,262,38034,6,0,B|96:298|96:298|144:306,1,103.999995239258,4|0,0:0|0:0,0:0:0:0:
219,274,38381,1,8,0:0:0:0:
206,191,38555,1,0,0:0:0:0:
286,223,38728,1,0,0:0:0:0:
299,140,38902,1,0,0:0:0:0:
366,193,39075,2,0,L|486:227,1,103.999995239258,8|0,0:0|0:0,0:0:0:0:
419,370,39421,6,0,B|363:372|363:372|320:349,1,103.999995239258,4|0,0:0|0:0,0:0:0:0:
274,280,39768,2,0,L|171:298,1,103.999995239258,8|0,0:0|0:0,0:0:0:0:
88,286,40115,2,0,P|112:240|158:217,1,103.999995239258
240,202,40462,1,8,0:0:0:0:
186,138,40635,1,0,0:0:0:0:
302,90,40809,6,0,B|354:102|354:102|401:124,1,103.999995239258,4|0,0:0|0:0,0:0:0:0:
327,179,41156,1,8,0:0:0:0:
390,234,41330,1,0,0:0:0:0:
308,261,41503,1,0,0:0:0:0:
351,333,41677,1,0,0:0:0:0:
266,335,41849,2,0,P|231:296|226:244,1,103.999995239258,8|0,0:0|0:0,0:0:0:0:
358,138,42196,6,2,B|333:135|308:153|308:153|284:152|284:152|257:166|257:166|194:152|147:207,2,207.999990478516,4|8|0,0:0|0:0|0:0,0:0:0:0:
436,165,43063,1,0,0:0:0:0:
373,220,43236,2,0,L|252:253,1,103.999995239258,8|0,0:0|0:0,0:0:0:0:
151,278,43583,1,0,0:0:0:0:
118,355,43757,1,0,0:0:0:0:
69,286,43930,2,0,P|80:236|117:201,1,103.999995239258,8|0,0:0|0:0,0:0:0:0:
200,201,44277,1,0,0:0:0:0:
233,278,44450,1,0,0:0:0:0:
282,210,44624,2,0,L|300:107,1,103.999995239258,8|0,0:0|0:0,0:0:0:0:
454,79,44971,6,0,B|450:134|450:134|422:175,1,103.999995239258,4|0,0:0|0:0,0:0:0:0:
363,232,45317,1,8,0:0:0:0:
363,232,45491,1,0,0:0:0:0:
363,232,45664,1,0,0:0:0:0:
344,150,45838,1,0,0:0:0:0:
282,210,46011,1,8,0:0:0:0:
238,138,46185,1,0,0:0:0:0:
202,214,46358,6,2,L|76:236,1,103.999995239258,12|2,0:0|0:0,0:0:0:0:
50,156,46705,2,2,L|152:138,1,103.999995239258,8|2,0:0|0:0,0:0:0:0:
219,245,47051,6,2,L|93:267,1,103.999995239258,8|2,0:0|0:0,0:0:0:0:
33,125,47398,2,2,L|159:103,1,103.999995239258,8|2,0:0|0:0,0:0:0:0:
248,171,47745,6,0,P|224:322|201:318,2,207.999990478516,4|8|0,0:0|0:0|0:0,0:0:0:0:
221,244,48612,1,0,0:0:0:0:
165,182,48786,1,8,0:0:0:0:
140,265,48959,1,0,0:0:0:0:
88,145,49132,6,0,B|124:104|124:104|173:99,1,103.999995239258,4|0,0:0|0:0,0:0:0:0:
241,148,49479,1,8,0:0:0:0:
252,65,49653,1,0,0:0:0:0:
326,164,49826,2,0,B|377:145|377:145|426:137,1,103.999995239258,4|0,0:0|0:0,0:0:0:0:
439,54,50173,2,0,P|484:76|510:120,1,103.999995239258,8|0,0:0|0:0,0:0:0:0:
455,231,50520,6,0,B|404:230|404:230|351:241,1,103.999995239258,4|0,0:0|0:0,0:0:0:0:
326,164,50867,2,0,P|283:191|268:240,1,103.999995239258,8|0,0:0|0:0,0:0:0:0:
193,275,51213,2,0,L|163:175,1,103.999995239258
138,96,51560,1,8,0:0:0:0:
220,109,51734,1,0,0:0:0:0:
118,13,51907,6,0,B|72:42|72:42|56:88,1,103.999995239258,4|0,0:0|0:0,0:0:0:0:
29,167,52254,2,0,L|128:196,1,103.999995239258,8|0,0:0|0:0,0:0:0:0:
248,234,52601,1,4,0:0:0:0:
328,256,52774,1,0,0:0:0:0:
362,333,52947,2,0,P|312:340|266:318,1,103.999995239258,8|0,0:0|0:0,0:0:0:0:
307,178,53294,6,2,B|360:133|360:133|424:105|424:105|491:49,2,207.999990478516,4|8|0,0:0|0:0|0:0,0:0:0:0:
248,234,54161,1,0,0:0:0:0:
171,200,54335,2,0,L|142:101,1,103.999995239258,8|0,0:0|0:0,0:0:0:0:
266,88,54682,1,0,0:0:0:0:
345,108,54855,1,0,0:0:0:0:
376,31,55028,2,0,P|414:64|427:113,1,103.999995239258,8|0,0:0|0:0,0:0:0:0:
380,183,55375,1,0,0:0:0:0:
322,243,55549,1,0,0:0:0:0:
282,171,55722,2,0,L|183:200,1,103.999995239258,8|0,0:0|0:0,0:0:0:0:
19,130,56069,6,0,B|55:92|55:92|106:89,1,103.999995239258,4|0,0:0|0:0,0:0:0:0:
101,178,56416,1,8,0:0:0:0:
101,178,56590,1,0,0:0:0:0:
101,178,56763,1,0,0:0:0:0:
120,260,56937,1,0,0:0:0:0:
182,200,57110,1,8,0:0:0:0:
226,272,57284,1,0,0:0:0:0:
264,198,57457,6,2,L|390:176,1,103.999995239258,12|2,0:0|0:0,0:0:0:0:
416,256,57804,2,0,L|314:274,1,103.999995239258,8|2,0:0|0:0,0:0:0:0:
247,167,58150,6,2,L|373:145,1,103.999995239258,8|2,0:0|0:0,0:0:0:0:
433,287,58497,2,2,L|307:309,1,103.999995239258,8|2,0:0|0:0,0:0:0:0:
194,234,58843,6,0,B|164:188|164:188|168:140,1,103.999995239258,0|0,0:3|0:0,0:0:0:0:
255,174,59190,1,8,0:0:0:0:
255,174,59364,1,0,0:0:0:0:
255,174,59537,1,0,0:0:0:0:
292,101,59711,1,0,0:0:0:0:
338,176,59884,1,8,0:0:0:0:
398,117,60058,1,0,0:0:0:0:
414,204,60231,5,2,0:0:0:0:
445,365,60578,1,10,0:0:0:0:
499,184,60924,1,2,0:0:0:0:
360,384,61271,2,2,P|334:324|295:286,1,88.000002685547,2|0,0:0|0:0,0:0:0:0:
239,309,61618,5,0,0:0:0:0:
239,309,61791,1,0,0:0:0:0:
167,345,61965,1,8,0:0:0:0:
170,265,62138,2,0,L|130:99,1,160,8|0,0:0|0:0,0:0:0:0:
112,31,62658,1,8,0:0:0:0:
268,64,63005,5,0,0:0:0:0:
268,64,63178,1,0,0:0:0:0:
340,28,63352,1,8,0:0:0:0:
335,107,63525,2,0,L|295:273,1,160,8|0,0:0|0:0,0:0:0:0:
273,339,64045,1,8,0:0:0:0:
273,339,64219,1,0,0:0:0:0:
352,324,64393,5,0,0:0:0:0:
352,324,64566,1,0,0:0:0:0:
430,309,64739,1,8,0:0:0:0:
376,249,64913,2,0,L|336:83,1,160,8|0,0:0|0:0,0:0:0:0:
319,15,65433,2,0,L|221:39,1,80,8|2,0:0|0:0,0:0:0:0:
162,50,65780,5,0,0:0:0:0:
162,50,65953,1,0,0:0:0:0:
90,14,66127,1,8,0:0:0:0:
92,93,66300,2,0,L|52:259,1,160,8|2,0:0|0:0,0:0:0:0:
31,325,66820,1,8,0:0:0:0:
109,309,66994,1,2,0:0:0:0:
187,292,67167,5,2,0:0:0:0:
187,292,67341,1,2,0:0:0:0:
297,271,68554,5,2,0:0:0:0:
297,271,68728,1,2,0:0:0:0:
406,247,69942,5,2,0:0:0:0:
406,247,70116,1,2,0:0:0:0:
300,211,71329,2,8,L|241:191,3,40
271,159,71675,2,8,L|212:179,3,40
226,132,72023,6,8,P|198:157|127:165,1,80
157,89,72716,6,0,P|78:163|143:249,1,207.999990478516,4|8,0:0|0:0,0:0:0:0:
194,268,73236,1,0,0:0:0:0:
275,249,73410,2,0,L|427:214,1,103.999995239258
400,147,73757,1,8,0:0:0:0:
458,208,73930,1,0,0:0:0:0:
430,71,74104,6,0,B|374:67|374:67|335:97,1,103.999995239258
323,179,74450,1,8,0:0:0:0:
400,147,74624,1,0,0:0:0:0:
386,231,74797,1,0,0:0:0:0:
470,225,74971,1,0,0:0:0:0:
433,302,75144,2,0,L|281:337,1,103.999995239258,8|0,0:0|0:0,0:0:0:0:
140,349,75491,6,0,B|88:343|88:343|49:309,1,103.999995239258,4|0,0:0|0:0,0:0:0:0:
121,267,75838,2,0,L|156:115,1,103.999995239258,8|0,0:0|0:0,0:0:0:0:
64,142,76184,2,0,P|95:99|144:83,1,103.999995239258
217,120,76531,1,8,0:0:0:0:
214,36,76705,1,0,0:0:0:0:
348,32,76878,6,0,B|364:86|364:86|372:133,1,103.999995239258,4|0,0:0|0:0,0:0:0:0:
294,160,77225,1,8,0:0:0:0:
357,215,77399,1,0,0:0:0:0:
275,242,77572,1,0,0:0:0:0:
318,314,77746,1,0,0:0:0:0:
233,316,77919,2,0,P|198:277|193:225,1,103.999995239258,8|0,0:0|0:0,0:0:0:0:
183,56,78265,6,2,B|165:73|164:104|164:104|148:122|148:122|142:152|142:152|93:193|107:264,2,207.999990478516,4|8|0,0:0|0:0|0:0,0:0:0:0:
251,103,79132,1,0,0:0:0:0:
316,155,79306,2,0,L|292:256,1,103.999995239258,8|0,0:0|0:0,0:0:0:0:
144,329,79653,5,0,0:0:0:0:
141,246,79826,1,0,0:0:0:0:
60,265,79999,2,0,P|65:212|100:174,1,103.999995239258,8|0,0:0|0:0,0:0:0:0:
182,176,80346,1,0,0:0:0:0:
143,101,80520,1,0,0:0:0:0:
225,105,80693,2,0,L|326:81,1,103.999995239258,8|0,0:0|0:0,0:0:0:0:
451,52,81040,6,0,P|480:94|479:147,1,103.999995239258,4|0,0:0|0:0,0:0:0:0:
401,117,81387,2,0,L|377:218,1,103.999995239258,8|0,0:0|0:0,0:0:0:0:
302,181,81734,1,0,0:0:0:0:
308,264,81908,1,0,0:0:0:0:
231,226,82081,1,8,0:0:0:0:
210,307,82255,1,0,0:0:0:0:
149,246,82427,6,2,P|144:181|117:121,1,103.999995239258,12|2,0:0|0:0,0:0:0:0:
34,130,82774,2,2,P|39:195|65:254,1,103.999995239258,8|2,0:0|0:0,0:0:0:0:
184,249,83121,6,2,P|179:184|152:124,1,103.999995239258,8|2,0:0|0:0,0:0:0:0:
0,127,83468,2,2,P|5:192|31:251,1,103.999995239258,8|2,0:0|0:0,0:0:0:0:
124,346,83814,6,0,L|263:331,1,103.999995239258
310,325,84161,1,8,0:0:0:0:
310,325,84335,1,0,0:0:0:0:
310,325,84508,1,0,0:0:0:0:
393,331,84682,1,0,0:0:0:0:
355,254,84855,1,8,0:0:0:0:
436,233,85029,1,0,0:0:0:0:
375,172,85201,6,0,P|310:167|250:140,1,103.999995239258,2|0,0:0|0:0,0:0:0:0:
259,57,85548,2,0,P|324:62|383:88,1,103.999995239258,10|0,0:0|0:0,0:0:0:0:
378,207,85895,6,0,P|313:202|253:175,1,103.999995239258,2|0,0:0|0:0,0:0:0:0:
256,23,86242,2,0,P|321:28|380:54,1,103.999995239258,10|0,0:0|0:0,0:0:0:0:
428,106,86589,5,0,0:0:0:0:
428,106,86762,1,0,0:0:0:0:
339,127,86936,1,8,0:0:0:0:
339,127,87109,2,0,P|261:100|161:127,1,160,8|0,0:0|0:0,0:0:0:0:
115,152,87630,1,8,0:0:0:0:
93,310,87976,5,0,0:0:0:0:
93,310,88149,1,0,0:0:0:0:
177,264,88323,1,8,0:0:0:0:
177,264,88497,1,8,0:0:0:0:
