osu file format v14

[General]
AudioFilename: audio.mp3
AudioLeadIn: 0
PreviewTime: 35936
Countdown: 1
SampleSet: Normal
StackLeniency: 0.7
Mode: 0
LetterboxInBreaks: 0
WidescreenStoryboard: 1

[Editor]
DistanceSpacing: 0.6
BeatDivisor: 4
GridSize: 32
TimelineZoom: 3.2

[Metadata]
Title:Speaking
TitleUnicode:Speaking
Artist:Mrs. GREEN APPLE
ArtistUnicode:Mrs. GREEN APPLE
Creator:Mykaterasu
Version:Extreme
Source:遊☆戯☆王 ARC-V
Tags:[Kergio] Ending ED Four 4 Yu-Gi-Oh! スピーキング ミセスグリーンアップル yugioh Motoki Oomori 大森元貴
BeatmapID:1345383
BeatmapSetID:633499

[Difficulty]
HPDrainRate:6.4
CircleSize:4
OverallDifficulty:8
ApproachRate:9
SliderMultiplier:1.7
SliderTickRate:1

[Events]
//Background and Video events
0,0,"prt.png",0,0
Video,-2,"spkn.mp4"
//Break Periods
//Storyboard Layer 0 (Background)
//Storyboard Layer 1 (Fail)
//Storyboard Layer 2 (Pass)
//Storyboard Layer 3 (Foreground)
//Storyboard Sound Samples

[TimingPoints]
578,346.820809248555,4,2,0,55,1,0
578,-62.5,4,2,0,55,0,0
924,-100,4,2,0,55,0,0
6127,-100,4,2,0,55,0,0
11676,-62.5,4,3,0,70,0,0
12023,-90.9090909090909,4,3,0,70,0,0
13063,-83.3333333333333,4,3,0,70,0,0
14450,-76.9230769230769,4,3,0,70,0,0
14797,-76.9230769230769,4,3,0,70,0,0
15144,-76.9230769230769,4,3,0,70,0,0
15838,-71.4285714285714,4,3,0,70,0,0
17225,-100,4,1,0,90,0,0
31098,-83.3333333333333,4,3,0,60,0,0
32485,-76.9230769230769,4,3,0,70,0,0
33872,-71.4285714285714,4,3,0,80,0,0
34566,-100,4,3,0,90,0,0
34913,-125,4,3,0,60,0,0
35433,-100,4,1,0,50,0,0
35953,-83.3333333333333,4,1,0,75,0,0
36300,-50,4,1,0,100,0,0
36647,-62.5,4,1,1,75,0,1
61618,-62.5,4,3,0,60,0,0
66473,-83.3333333333333,4,3,0,80,0,0
66820,-62.5,4,3,0,80,0,0
67167,-83.3333333333333,4,2,0,50,0,0
71329,-83.3333333333333,4,3,0,70,0,0
72716,-55.5555555555556,4,1,1,75,0,1
86242,-83.3333333333333,4,1,1,75,0,1
86589,-55.5555555555556,4,3,0,55,0,0
88497,-200,4,3,0,55,0,0

[Colours]
Combo1 : 128,255,255
Combo2 : 128,0,255
Combo3 : 212,212,212
Combo4 : 74,74,74

[HitObjects]
60,97,578,6,2,B|106:71|106:71|233:55,1,136,12|0,0:0|0:0,0:0:0:0:
372,49,924,6,0,P|350:124|363:216,1,170
421,350,1445,2,0,P|438:303|444:252,1,85
451,170,1791,5,0,0:0:0:0:
451,170,1965,1,0,0:0:0:0:
362,213,2138,1,0,0:0:0:0:
362,213,2312,2,0,P|287:191|195:204,1,170
29,305,2832,1,0,0:0:0:0:
146,276,3005,1,0,0:0:0:0:
101,351,3179,1,0,0:0:0:0:
71,232,3352,6,0,P|62:154|91:65,1,170
167,32,3872,1,0,0:0:0:0:
232,86,4046,2,0,P|309:94|398:65,1,170
463,15,4566,1,0,0:0:0:0:
425,147,4739,6,0,P|408:194|402:245,1,85
462,368,5086,2,0,P|429:329|388:299,1,85
251,290,5433,2,0,P|300:281|347:260,1,85
484,207,5780,2,0,P|434:215|387:236,1,85
272,372,6127,6,2,B|259:349|259:349|251:285,1,85,2|0,0:0|0:0,0:0:0:0:
233,153,6473,6,0,P|308:131|400:144,1,170
512,279,6994,2,0,P|465:296|414:302,1,85
345,238,7341,5,0,0:0:0:0:
345,238,7514,1,0,0:0:0:0:
251,290,7687,1,0,0:0:0:0:
251,290,7861,2,0,P|229:215|242:123,1,170
375,52,8381,1,0,0:0:0:0:
404,169,8554,1,0,0:0:0:0:
450,97,8728,1,0,0:0:0:0:
331,127,8901,6,0,P|253:136|164:107,1,170
111,48,9421,1,0,0:0:0:0:
138,186,9595,2,0,P|146:263|117:352,1,170
39,254,10115,1,0,0:0:0:0:
249,287,10288,6,0,P|298:286|348:275,1,85
472,161,10635,2,0,P|395:153|306:182,1,170
300,184,11069,1,0,0:0:0:0:
292,188,11156,1,0,0:0:0:0:
445,347,11329,2,0,P|444:297|433:247,1,85
406,69,11676,6,2,B|360:43|360:43|233:27,1,136,12|0,0:0|0:0,0:0:0:0:
84,154,12023,6,0,L|204:140,1,93.5000028533936
416,219,12369,2,0,L|296:205,1,93.5000028533936
90,293,12716,2,0,L|210:279,1,93.5000028533936
427,320,13063,6,0,L|413:200,1,101.999996887207
302,39,13410,2,0,L|288:159,1,101.999996887207
194,357,13757,2,0,L|180:237,1,101.999996887207
97,41,14104,1,0,0:0:0:0:
85,142,14276,1,0,0:0:0:0:
73,243,14450,6,0,L|193:257,1,110.499994941712
369,153,14797,2,0,L|249:167,1,110.499994941712
154,93,15144,1,0,0:0:0:0:
294,273,15317,1,0,0:0:0:0:
432,40,15491,2,2,B|444:69|444:69|428:102|428:102|463:147|429:203,1,165.749992412568,0|0,0:0|0:0,0:0:0:0:
420,226,15838,5,2,0:0:0:0:
357,68,16011,1,0,0:0:0:0:
370,303,16184,2,0,P|304:353|225:317,1,178.499994552612,2|2,0:0|0:0,0:0:0:0:
212,283,16531,2,0,L|188:129,1,118.999996368408,2|0,0:0|0:0,0:0:0:0:
294,273,16878,5,10,0:0:0:0:
330,132,17225,5,0,0:0:0:0:
347,211,17398,1,0,0:0:0:0:
294,273,17572,1,0,0:0:0:0:
128,231,17745,5,0,0:0:0:0:
188,176,17918,1,0,0:0:0:0:
269,191,18092,1,0,0:0:0:0:
315,356,18265,5,0,0:0:0:0:
238,331,18438,1,0,0:0:0:0:
210,254,18612,1,0,0:0:0:0:
347,211,18786,5,0,0:0:0:0:
399,148,18960,1,0,0:0:0:0:
382,69,19133,1,0,0:0:0:0:
242,109,19306,5,0,0:0:0:0:
270,186,19480,1,0,0:0:0:0:
347,211,19653,1,0,0:0:0:0:
347,211,19999,5,0,0:0:0:0:
266,196,20173,1,0,0:0:0:0:
206,250,20346,1,0,0:0:0:0:
90,370,20520,5,0,0:0:0:0:
143,307,20694,1,0,0:0:0:0:
126,228,20867,1,0,0:0:0:0:
83,69,21040,5,0,0:0:0:0:
111,146,21214,1,0,0:0:0:0:
187,171,21387,1,0,0:0:0:0:
263,67,21560,1,0,0:0:0:0:
263,196,21734,1,0,0:0:0:0:
187,91,21907,1,0,0:0:0:0:
309,131,22080,2,0,L|362:135,3,42.5
424,138,22427,2,0,P|428:190|409:248,1,85
300,206,22774,5,2,0:0:0:0:
48,299,22947,1,2,0:0:0:0:
334,222,23468,5,2,0:0:0:0:
48,299,23641,1,2,0:0:0:0:
369,243,24161,5,2,0:0:0:0:
48,299,24334,1,2,0:0:0:0:
353,323,24855,5,2,0:0:0:0:
78,92,25028,1,8,0:0:0:0:
151,276,25202,5,2,0:0:0:0:
426,45,25375,1,8,0:0:0:0:
369,243,25549,5,2,0:0:0:0:
48,299,25722,1,2,0:0:0:0:
406,269,26242,5,2,0:0:0:0:
48,299,26415,1,2,0:0:0:0:
444,301,26936,5,2,0:0:0:0:
48,299,27109,5,2,0:0:0:0:
444,301,27283,1,8,0:0:0:0:
112,241,27456,5,2,0:0:0:0:
444,301,27630,1,8,0:0:0:0:
176,183,27803,5,2,0:0:0:0:
444,301,27976,1,8,0:0:0:0:
157,285,28323,5,2,0:0:0:0:
269,42,28496,1,2,0:0:0:0:
170,320,29017,5,2,0:0:0:0:
269,42,29190,1,2,0:0:0:0:
188,357,29710,5,2,0:0:0:0:
269,42,29883,1,2,0:0:0:0:
397,300,30404,5,2,0:0:0:0:
114,140,30578,1,8,0:0:0:0:
360,50,30751,5,2,0:0:0:0:
79,214,30925,1,8,0:0:0:0:
188,357,31098,6,0,P|251:362|309:327,1,101.999996887207,4|0,0:0|0:0,0:0:0:0:
301,161,31445,1,8,0:0:0:0:
231,286,31618,1,0,0:0:0:0:
341,90,31791,6,0,P|278:85|220:120,1,101.999996887207
375,285,32138,1,8,0:0:0:0:
160,208,32312,1,0,0:0:0:0:
412,124,32485,5,0,0:0:0:0:
172,131,32658,1,0,0:0:0:0:
172,131,32745,1,2,0:0:0:0:
172,131,32832,1,8,0:0:0:0:
305,241,33005,1,0,0:0:0:0:
180,56,33179,5,0,0:0:0:0:
148,58,33265,1,0,0:0:0:0:
121,73,33352,1,0,0:0:0:0:
102,98,33439,1,0,0:0:0:0:
94,129,33525,5,8,0:0:0:0:
95,139,33612,1,0,0:0:0:0:
97,149,33699,1,0,0:0:0:0:
100,159,33785,1,0,0:0:0:0:
102,170,33872,5,0,0:0:0:0:
128,194,33959,1,0,0:0:0:0:
161,207,34046,1,0,0:0:0:0:
196,207,34132,1,0,0:0:0:0:
228,192,34219,5,0,0:0:0:0:
250,211,34305,1,0,0:0:0:0:
278,220,34392,1,0,0:0:0:0:
307,220,34479,1,0,0:0:0:0:
335,211,34566,6,0,L|361:270,3,42.5
389,331,34913,2,0,L|312:342,1,68,8|0,0:0|0:0,0:0:0:0:
247,348,35433,5,0,0:0:0:0:
209,241,35606,6,0,L|206:266,6,14.1666666666667
43,312,35953,6,0,L|165:331,1,101.999996887207
423,205,36300,6,2,P|448:115|406:184,1,255,8|0,0:0|0:0,0:0:0:0:
393,197,36647,6,0,P|335:278|228:258,1,204,6|0,0:0|0:0,0:0:0:0:
209,241,36994,1,10,0:0:0:0:
142,93,37167,1,0,0:0:0:0:
274,79,37341,2,0,P|311:161|246:237,1,136,2|0,0:0|0:0,0:0:0:0:
297,199,37687,1,10,0:0:0:0:
166,336,37861,1,2,0:0:0:0:
57,182,38034,6,0,P|105:103|203:114,1,136,2|0,0:0|0:0,0:0:0:0:
297,199,38381,1,10,0:0:0:0:
142,177,38554,1,2,0:0:0:0:
274,79,38728,1,2,0:0:0:0:
362,155,38901,1,2,0:0:0:0:
343,268,39075,2,0,P|251:265|211:174,1,136,10|0,0:0|0:0,0:0:0:0:
274,79,39421,5,4,0:0:0:0:
297,199,39595,1,0,0:0:0:0:
142,247,39768,2,0,P|189:169|288:180,1,136,10|0,0:0|0:0,0:0:0:0:
379,192,40115,2,0,P|423:271|364:351,1,136,2|0,0:0|0:0,0:0:0:0:
412,310,40462,1,10,0:0:0:0:
187,320,40635,1,2,0:0:0:0:
153,108,40809,6,0,P|233:65|313:124,1,136,6|0,0:0|0:0,0:0:0:0:
342,353,41156,1,10,0:0:0:0:
111,321,41329,1,2,0:0:0:0:
228,143,41502,1,2,0:0:0:0:
332,228,41676,1,2,0:0:0:0:
342,353,41849,1,10,0:0:0:0:
465,167,42023,1,0,0:0:0:0:
465,167,42109,1,0,0:0:0:0:
465,167,42196,6,0,B|430:152|430:152|391:171|391:171|337:130|271:170,1,204,6|0,0:0|0:0,0:0:0:0:
242,191,42543,1,8,0:0:0:0:
153,380,42716,1,0,0:0:0:0:
363,347,42890,2,0,P|359:255|268:215,1,136,2|0,0:0|0:0,0:0:0:0:
363,347,43236,1,10,0:0:0:0:
153,161,43410,1,2,0:0:0:0:
153,380,43584,5,2,0:0:0:0:
295,297,43757,1,2,0:0:0:0:
83,232,43930,2,0,P|39:312|98:392,1,136,10|0,0:0|0:0,0:0:0:0:
290,374,44277,1,2,0:0:0:0:
331,227,44450,1,2,0:0:0:0:
273,77,44624,2,0,P|181:80|141:171,1,136,10|0,0:0|0:0,0:0:0:0:
153,380,44971,6,0,P|196:298|137:218,1,136,4|0,0:0|0:0,0:0:0:0:
153,107,45317,1,10,0:0:0:0:
119,304,45491,1,2,0:0:0:0:
331,227,45664,1,2,0:0:0:0:
81,152,45838,1,2,0:0:0:0:
153,380,46011,1,10,0:0:0:0:
300,151,46184,1,2,0:0:0:0:
15,107,46358,6,0,P|18:199|109:239,1,136,6|0,0:0|0:0,0:0:0:0:
346,86,46705,2,0,P|254:89|214:180,1,136,10|0,0:0|0:0,0:0:0:0:
360,344,47051,1,2,0:0:0:0:
370,312,47137,1,0,0:0:0:0:
367,279,47224,1,8,0:0:0:0:
354,249,47311,1,8,0:0:0:0:
329,226,47398,1,2,0:0:0:0:
153,380,47572,1,8,0:0:0:0:
86,151,47745,6,0,P|171:116|118:192,1,204,6|0,0:0|0:0,0:0:0:0:
126,211,48092,1,8,0:0:0:0:
11,126,48265,1,0,0:0:0:0:
248,94,48439,2,0,P|334:128|340:227,1,136,2|0,0:0|0:0,0:0:0:0:
350,162,48786,1,10,0:0:0:0:
392,315,48959,1,2,0:0:0:0:
233,294,49132,6,0,P|235:202|326:163,1,136,6|0,0:0|0:0,0:0:0:0:
458,163,49479,1,10,0:0:0:0:
304,247,49653,1,2,0:0:0:0:
74,72,49826,1,6,0:0:0:0:
222,107,49999,1,2,0:0:0:0:
304,247,50173,2,0,P|211:244|171:152,1,136,10|0,0:0|0:0,0:0:0:0:
308,34,50520,5,4,0:0:0:0:
257,179,50693,1,0,0:0:0:0:
102,76,50867,2,0,P|194:79|235:169,1,136,10|0,0:0|0:0,0:0:0:0:
304,247,51213,2,0,P|301:338|210:379,1,136,2|0,0:0|0:0,0:0:0:0:
272,366,51560,1,10,0:0:0:0:
93,283,51734,1,2,0:0:0:0:
257,179,51907,6,0,P|348:182|389:273,1,136,6|0,0:0|0:0,0:0:0:0:
194,372,52254,2,0,P|197:280|288:240,1,136,10|0,0:0|0:0,0:0:0:0:
422,347,52601,1,6,0:0:0:0:
304,247,52774,1,2,0:0:0:0:
302,94,52947,1,10,0:0:0:0:
150,337,53121,1,0,0:0:0:0:
150,337,53208,1,0,0:0:0:0:
150,337,53294,6,0,B|153:279|153:279|200:195|200:195|205:128,1,204,6|0,0:0|0:0,0:0:0:0:
206,104,53641,1,8,0:0:0:0:
80,259,53814,1,0,0:0:0:0:
382,274,53988,2,0,P|357:184|259:166,1,136,2|0,0:0|0:0,0:0:0:0:
382,274,54335,1,10,0:0:0:0:
123,170,54508,1,2,0:0:0:0:
219,376,54682,5,2,0:0:0:0:
304,241,54855,1,2,0:0:0:0:
86,98,55028,2,0,P|43:179|102:259,1,136,10|0,0:0|0:0,0:0:0:0:
310,322,55375,1,2,0:0:0:0:
398,191,55549,1,2,0:0:0:0:
341,39,55722,2,0,P|249:43|211:135,1,136,10|0,0:0|0:0,0:0:0:0:
376,367,56069,6,0,P|371:275|279:237,1,136,4|0,0:0|0:0,0:0:0:0:
123,170,56416,1,10,0:0:0:0:
310,322,56589,1,2,0:0:0:0:
222,72,56762,1,2,0:0:0:0:
116,328,56936,1,2,0:0:0:0:
342,248,57109,1,10,0:0:0:0:
132,79,57283,1,2,0:0:0:0:
190,353,57456,6,0,P|282:349|323:259,1,136,6|0,0:0|0:0,0:0:0:0:
52,125,57803,2,0,P|56:217|146:258,1,136,10|0,0:0|0:0,0:0:0:0:
405,83,58150,1,10,0:0:0:0:
123,169,58323,1,8,0:0:0:0:
405,83,58497,1,10,0:0:0:0:
123,169,58670,1,8,0:0:0:0:
392,182,58843,6,0,P|420:269|348:338,1,136,4|0,0:0|0:0,0:0:0:0:
173,266,59190,1,10,0:0:0:0:
342,250,59364,1,2,0:0:0:0:
190,353,59537,1,2,0:0:0:0:
312,178,59710,1,2,0:0:0:0:
348,354,59884,1,10,0:0:0:0:
115,315,60057,1,2,0:0:0:0:
266,112,60231,6,0,P|359:114|398:205,1,136,6|0,0:0|0:0,0:0:0:0:
193,134,60578,2,0,P|99:131|60:40,1,136,10|0,0:0|0:0,0:0:0:0:
312,178,60924,1,2,0:0:0:0:
321,211,61010,1,0,0:0:0:0:
319,244,61098,1,10,0:0:0:0:
305,275,61184,1,8,0:0:0:0:
280,298,61270,1,2,0:0:0:0:
148,63,61445,1,8,0:0:0:0:
193,134,61618,5,0,0:0:0:0:
193,134,61791,1,0,0:0:0:0:
349,45,61965,5,8,0:0:0:0:
218,237,62138,1,8,0:0:0:0:
218,237,62485,5,0,0:0:0:0:
349,45,62658,1,8,0:0:0:0:
193,134,63005,5,0,0:0:0:0:
193,134,63178,1,0,0:0:0:0:
349,45,63352,5,8,0:0:0:0:
285,199,63525,1,8,0:0:0:0:
285,199,63872,5,0,0:0:0:0:
349,45,64046,1,8,0:0:0:0:
349,45,64219,1,0,0:0:0:0:
193,134,64393,5,0,0:0:0:0:
193,134,64566,1,0,0:0:0:0:
349,45,64739,5,8,0:0:0:0:
350,161,64912,1,8,0:0:0:0:
350,161,65259,5,0,0:0:0:0:
349,45,65432,1,8,0:0:0:0:
285,199,65606,1,0,0:0:0:0:
193,134,65780,5,0,0:0:0:0:
193,134,65953,1,0,0:0:0:0:
349,45,66127,5,8,0:0:0:0:
418,123,66300,1,8,0:0:0:0:
346,239,66473,6,0,L|372:321,2,50.9999984436036
349,45,66820,2,0,L|305:181,1,136,8|0,0:0|0:0,0:0:0:0:
270,280,67167,5,8,0:0:0:0:
15,225,67341,1,8,0:0:0:0:
173,69,67514,6,2,P|248:95|260:178,1,165.749992412568,0|0,0:0|0:0,0:0:0:0:
254,203,67861,2,2,P|329:229|341:312,1,165.749992412568,0|0,0:0|0:0,0:0:0:0:
333,335,68208,2,2,P|288:356|223:352,1,101.999996887207,0|0,0:0|0:0,0:0:0:0:
187,148,68554,5,8,0:0:0:0:
442,207,68728,1,8,0:0:0:0:
95,170,68901,2,0,P|98:120|135:66,1,101.999996887207
211,58,69248,2,0,P|252:86|280:144,1,101.999996887207
252,211,69595,2,0,P|207:232|142:228,1,101.999996887207
76,249,69942,5,8,0:0:0:0:
323,45,70115,1,8,0:0:0:0:
463,269,70288,6,2,P|384:281|335:213,1,165.749992412568,0|0,0:0|0:0,0:0:0:0:
328,188,70635,2,2,P|249:200|200:132,1,165.749992412568,0|0,0:0|0:0,0:0:0:0:
193,108,70982,2,0,P|151:136|123:194,1,101.999996887207
113,340,71329,5,0,0:0:0:0:
140,355,71415,1,0,0:0:0:0:
170,367,71502,1,0,0:0:0:0:
200,376,71589,1,0,0:0:0:0:
232,380,71675,1,0,0:0:0:0:
264,380,71762,1,0,0:0:0:0:
295,375,71849,1,0,0:0:0:0:
326,367,71935,1,0,0:0:0:0:
356,355,72023,2,0,B|386:342|386:342|424:335|424:335|460:317,1,101.999996887207,8|8,0:0|0:0,0:0:0:0:
446,31,72716,6,0,B|413:42|413:42|433:142|433:142|405:253,1,229.499992996216,6|0,0:0|0:0,0:0:0:0:
402,262,73063,1,8,0:0:0:0:
229,276,73236,1,0,0:0:0:0:
224,94,73410,2,0,P|316:97|356:188,1,152.999995330811,2|0,0:0|0:0,0:0:0:0:
351,139,73757,1,10,0:0:0:0:
353,342,73930,1,2,0:0:0:0:
162,324,74104,6,0,P|164:230|255:191,1,152.999995330811,2|0,0:0|0:0,0:0:0:0:
418,185,74450,1,10,0:0:0:0:
229,276,74624,1,2,0:0:0:0:
224,94,74797,1,2,0:0:0:0:
286,215,74971,1,2,0:0:0:0:
276,345,75144,2,0,P|182:342|143:251,1,152.999995330811,10|0,0:0|0:0,0:0:0:0:
351,139,75491,5,4,0:0:0:0:
229,276,75664,1,0,0:0:0:0:
91,119,75838,2,0,P|172:74|252:133,1,152.999995330811,10|0,0:0|0:0,0:0:0:0:
333,283,76184,1,2,0:0:0:0:
205,202,76358,1,2,0:0:0:0:
205,202,76531,1,10,0:0:0:0:
356,64,76705,1,2,0:0:0:0:
419,285,76878,6,0,P|361:358|264:337,1,152.999995330811,6|0,0:0|0:0,0:0:0:0:
283,42,77225,1,10,0:0:0:0:
333,283,77398,1,2,0:0:0:0:
123,189,77572,1,2,0:0:0:0:
223,93,77745,1,2,0:0:0:0:
360,95,77919,1,10,0:0:0:0:
391,343,78092,1,0,0:0:0:0:
391,343,78179,1,0,0:0:0:0:
391,343,78265,6,0,B|377:302|377:302|333:283|333:283|327:208|246:182,1,229.499992996216,6|0,0:0|0:0,0:0:0:0:
205,172,78612,1,8,0:0:0:0:
319,359,78786,1,0,0:0:0:0:
435,60,78959,2,0,P|353:17|273:76,1,152.999995330811,2|0,0:0|0:0,0:0:0:0:
435,60,79306,1,10,0:0:0:0:
126,158,79479,1,2,0:0:0:0:
400,233,79653,5,2,0:0:0:0:
271,123,79826,1,2,0:0:0:0:
164,247,79999,2,0,P|255:242|294:150,1,152.999995330811,10|0,0:0|0:0,0:0:0:0:
161,84,80346,1,2,0:0:0:0:
87,226,80520,1,2,0:0:0:0:
223,309,80693,2,0,P|240:219|160:159,1,152.999995330811,10|0,0:0|0:0,0:0:0:0:
5,209,81040,6,0,P|40:294|140:298,1,152.999995330811,4|0,0:0|0:0,0:0:0:0:
271,123,81387,2,0,P|182:98|116:172,1,152.999995330811,10|0,0:0|0:0,0:0:0:0:
165,370,81734,1,2,0:0:0:0:
205,174,81907,1,2,0:0:0:0:
92,311,82080,1,10,0:0:0:0:
318,190,82254,1,2,0:0:0:0:
97,60,82427,6,0,P|56:142|116:222,1,152.999995330811,6|0,0:0|0:0,0:0:0:0:
348,84,82774,2,0,P|266:43|186:103,1,152.999995330811,10|0,0:0|0:0,0:0:0:0:
11,354,83121,1,10,0:0:0:0:
271,123,83294,1,8,0:0:0:0:
11,354,83468,1,10,0:0:0:0:
271,123,83641,1,8,0:0:0:0:
45,253,83814,6,0,P|54:160|147:127,1,152.999995330811,4|0,0:0|0:0,0:0:0:0:
256,239,84161,1,10,0:0:0:0:
117,210,84335,1,2,0:0:0:0:
213,63,84508,1,2,0:0:0:0:
209,308,84682,1,2,0:0:0:0:
97,128,84855,1,10,0:0:0:0:
347,193,85028,1,2,0:0:0:0:
115,297,85202,6,0,P|40:244|58:146,1,152.999995330811,6|0,0:0|0:0,0:0:0:0:
350,110,85549,2,0,P|425:163|407:261,1,152.999995330811,10|0,0:0|0:0,0:0:0:0:
117,210,85895,1,2,0:0:0:0:
116,172,85981,1,0,0:0:0:0:
131,137,86068,1,10,0:0:0:0:
157,111,86155,1,8,0:0:0:0:
192,96,86242,2,0,L|220:217,1,101.999996887207,2|8,0:0|0:0,0:0:0:0:
254,344,86589,5,0,0:0:0:0:
254,344,86762,1,0,0:0:0:0:
346,189,86936,5,8,0:0:0:0:
234,270,87109,1,8,0:0:0:0:
234,270,87456,5,0,0:0:0:0:
346,189,87630,1,8,0:0:0:0:
214,195,87976,5,0,0:0:0:0:
214,195,88150,1,0,0:0:0:0:
346,189,88323,5,8,0:0:0:0:
159,247,88497,1,12,0:0:0:0:
