osu file format v14

[General]
AudioFilename: audio.mp3
AudioLeadIn: 0
PreviewTime: 35936
Countdown: 1
SampleSet: Normal
StackLeniency: 0.7
Mode: 0
LetterboxInBreaks: 0
WidescreenStoryboard: 1

[Editor]
Bookmarks: 56416
DistanceSpacing: 0.7
BeatDivisor: 4
GridSize: 4
TimelineZoom: 4.299999

[Metadata]
Title:Speaking
TitleUnicode:Speaking
Artist:Mrs. GREEN APPLE
ArtistUnicode:Mrs. GREEN APPLE
Creator:Mykaterasu
Version:Extra
Source:遊☆戯☆王 ARC-V
Tags:[Kergio] Ending ED Four 4 Yu-Gi-Oh! スピーキング ミセスグリーンアップル yugioh Motoki Oomori 大森元貴
BeatmapID:1432495
BeatmapSetID:633499

[Difficulty]
HPDrainRate:6.4
CircleSize:4
OverallDifficulty:8
ApproachRate:9
SliderMultiplier:1.7
SliderTickRate:1

[Events]
//Background and Video events
0,0,"prt.png",0,0
Video,-2,"spkn.mp4"
//Break Periods
//Storyboard Layer 0 (Background)
//Storyboard Layer 1 (Fail)
//Storyboard Layer 2 (Pass)
//Storyboard Layer 3 (Foreground)
//Storyboard Sound Samples

[TimingPoints]
578,346.820809248555,4,2,0,55,1,0
578,-100,4,2,0,55,0,0
924,-133.333333333333,4,2,0,55,0,0
6127,-200,4,2,0,55,0,0
6473,-133.333333333333,4,2,0,55,0,0
11676,-80,4,3,0,70,0,0
12023,-100,4,3,0,70,0,0
15751,-100,4,3,0,5,0,0
15838,-200,4,3,0,70,0,0
17051,-133.333333333333,4,3,0,5,0,0
17225,-100,4,1,0,90,0,0
19306,-133.333333333333,4,1,0,90,0,0
19653,-90.9090909090909,4,1,0,90,0,0
19999,-100,4,1,0,90,0,0
22774,-133.333333333333,4,1,0,90,0,0
23381,-133.333333333333,4,1,0,5,0,0
23468,-200,4,1,0,90,0,0
24768,-133.333333333333,4,1,0,5,0,0
24855,-133.333333333333,4,1,0,90,0,0
28930,-133.333333333333,4,1,0,5,0,0
29017,-133.333333333333,4,1,0,90,0,0
30057,-200,4,1,0,90,0,0
30317,-133.333333333333,4,1,0,5,0,0
30404,-133.333333333333,4,1,0,90,0,0
31098,-100,4,3,0,60,0,0
32485,-100,4,3,0,70,0,0
33872,-100,4,3,0,80,0,0
34566,-90.9090909090909,4,3,0,90,0,0
34913,-125,4,3,0,60,0,0
35433,-100,4,1,0,50,0,0
35953,-83.3333333333333,4,1,0,75,0,0
36300,-100,4,1,0,100,0,0
36560,-100,4,1,0,5,0,0
36647,-80,4,1,1,75,0,1
46618,-80,4,1,1,5,0,1
46705,-80,4,1,1,75,0,1
46965,-80,4,1,1,5,0,1
47051,-68.9655172413793,4,1,1,75,0,1
47312,-68.9655172413793,4,1,1,5,0,1
47398,-80,4,1,1,75,0,1
47658,-80,4,1,1,5,0,1
47745,-80,4,1,1,75,0,1
57716,-80,4,1,1,5,0,1
57803,-68.9655172413793,4,1,1,75,0,1
58063,-68.9655172413793,4,1,1,5,0,1
58150,-60.6060606060606,4,1,1,75,0,1
58410,-60.6060606060606,4,1,1,5,0,1
58497,-68.9655172413793,4,1,1,75,0,1
58757,-68.9655172413793,4,1,1,5,0,1
58843,-80,4,1,1,75,0,1
60231,-100,4,1,1,75,0,1
61618,-76.9230769230769,4,3,0,60,0,0
66473,-83.3333333333333,4,3,0,80,0,0
66820,-100,4,3,0,80,0,0
67167,-83.3333333333333,4,2,0,50,0,0
71329,-83.3333333333333,4,3,0,70,0,0
72716,-66.6666666666667,4,1,1,75,0,1
86416,-66.6666666666667,4,1,0,75,0,1
86589,-55.5555555555556,4,3,0,55,0,0
88497,-200,4,3,0,55,0,0

[Colours]
Combo1 : 128,255,255
Combo2 : 128,0,255
Combo3 : 212,212,212
Combo4 : 74,74,74

[HitObjects]
253,365,578,6,2,B|272:304|233:253,1,85,12|0,0:0|0:0,0:0:0:0:
175,168,924,6,0,L|91:180,1,63.7500024318696
309,211,1271,2,0,L|246:203,1,63.7500024318696
386,226,1618,1,0,0:0:0:0:
180,246,1791,5,0,0:0:0:0:
241,125,1965,1,0,0:0:0:0:
251,282,2138,1,0,0:0:0:0:
109,210,2312,2,0,L|118:146,2,63.7500024318696
183,324,2832,1,0,0:0:0:0:
319,240,3005,5,0,0:0:0:0:
180,246,3179,1,0,0:0:0:0:
321,319,3352,2,0,L|385:328,1,63.7500024318696
180,246,3699,2,0,L|244:237,1,63.7500024318696
39,319,4046,2,0,L|103:328,1,63.7500024318696
243,237,4393,5,0,0:0:0:0:
384,327,4566,1,0,0:0:0:0:
392,160,4739,2,0,L|383:96,1,63.7500024318696
312,293,5086,2,0,L|325:197,1,95.6250036478044
307,122,5433,2,0,L|243:113,1,63.7500024318696
28,139,5780,2,0,L|95:130,1,63.7500024318696
123,127,6040,1,0,0:0:0:0:
154,121,6127,6,2,B|180:104|171:83|171:83,1,42.5,2|0,0:0|0:0,0:0:0:0:
200,247,6473,6,0,L|212:331,1,63.7500024318696
243,113,6820,2,0,L|235:176,1,63.7500024318696
253,39,7167,1,0,0:0:0:0:
278,241,7341,5,0,0:0:0:0:
314,85,7514,1,0,0:0:0:0:
158,181,7687,1,0,0:0:0:0:
354,207,7861,2,0,L|417:215,2,63.7500024318696
208,315,8381,1,0,0:0:0:0:
349,291,8554,5,0,0:0:0:0:
287,162,8728,1,0,0:0:0:0:
135,264,8901,2,0,L|127:327,1,63.7500024318696
60,108,9248,2,0,L|73:204,1,95.6250036478044
73,203,9595,1,0,0:0:0:0:
211,235,9768,1,0,0:0:0:0:
202,92,9942,2,0,L|139:100,1,63.7500024318696
324,40,10288,6,0,L|261:32,1,63.7500024318696
462,107,10635,2,0,L|366:120,1,95.6250036478044
283,128,10982,1,2,0:0:0:0:
284,137,11069,1,0,0:0:0:0:
285,146,11156,1,0,0:0:0:0:
243,352,11329,2,0,L|235:289,1,63.7500024318696
203,105,11676,6,0,B|206:163|206:163|228:219,1,106.25,10|0,0:0|0:0,0:0:0:0:
316,320,12023,2,0,P|367:334|414:320,1,85
234,288,12369,2,0,P|183:274|136:288,1,85
365,257,12716,1,0,0:0:0:0:
285,146,12890,1,0,0:0:0:0:
160,198,13063,2,0,P|146:249|160:296,1,85
192,116,13409,2,0,P|206:65|192:18,1,85
237,208,13757,2,0,P|288:222|335:208,1,85
125,67,14104,1,0,0:0:0:0:
87,234,14277,1,0,0:0:0:0:
238,83,14450,6,0,P|289:69|336:83,1,85
77,131,14797,2,0,P|128:145|175:131,1,85
6,59,15144,1,0,0:0:0:0:
285,148,15317,1,0,0:0:0:0:
102,356,15491,2,0,P|79:275|102:201,1,127.5
105,148,15838,5,2,0:0:0:0:
201,242,16011,1,2,0:0:0:0:
198,219,16098,1,2,0:0:0:0:
195,196,16184,1,2,0:0:0:0:
286,299,16358,1,2,0:0:0:0:
289,270,16445,1,2,0:0:0:0:
293,241,16531,1,2,0:0:0:0:
399,347,16705,1,2,0:0:0:0:
395,310,16792,1,2,0:0:0:0:
390,274,16878,1,2,0:0:0:0:
133,66,17225,5,4,0:0:0:0:
217,77,17398,1,0,0:0:0:0:
301,88,17572,1,0,0:0:0:0:
77,158,17745,1,8,0:0:0:0:
77,158,17919,2,0,P|128:144|175:158,1,85
420,160,18265,5,4,0:0:0:0:
335,171,18439,1,0,0:0:0:0:
251,182,18612,1,0,0:0:0:0:
476,252,18785,1,8,0:0:0:0:
476,252,18959,2,0,P|425:238|378:252,1,85
436,380,19306,6,0,L|424:292,1,63.7500024318696,8|0,0:0|0:0,0:0:0:0:
390,35,19653,6,0,L|404:143,1,93.5000028533936,4|0,0:0|0:0,0:0:0:0:
427,316,19999,5,4,0:0:0:0:
342,304,20172,1,0,0:0:0:0:
258,293,20346,1,0,0:0:0:0:
480,222,20519,1,8,0:0:0:0:
480,222,20606,1,0,0:0:0:0:
480,222,20693,2,0,P|429:236|382:222,1,85
117,232,21039,5,4,0:0:0:0:
201,220,21213,1,0,0:0:0:0:
285,209,21386,1,0,0:0:0:0:
61,140,21559,1,8,0:0:0:0:
61,140,21733,2,0,P|112:154|159:140,1,85,4|0,0:0|0:0,0:0:0:0:
369,23,22080,5,0,0:0:0:0:
405,59,22167,1,0,0:0:0:0:
418,109,22254,1,0,0:0:0:0:
405,158,22341,1,0,0:0:0:0:
369,194,22427,1,0,0:0:0:0:
169,301,22601,1,0,0:0:0:0:
109,75,22774,5,10,0:0:0:0:
109,75,22947,1,10,0:0:0:0:
234,147,23121,2,0,L|243:260,1,95.6250036478044
252,321,23468,1,10,0:0:0:0:
252,321,23641,1,10,0:0:0:0:
179,354,23814,1,0,0:0:0:0:
123,299,23988,1,0,0:0:0:0:
159,227,24161,5,10,0:0:0:0:
159,227,24335,1,10,0:0:0:0:
176,92,24508,2,0,P|188:136|176:177,1,63.7500024318696
159,227,24855,5,0,0:0:0:0:
226,34,25028,1,10,0:0:0:0:
109,136,25202,5,0,0:0:0:0:
309,97,25375,1,10,0:0:0:0:
239,215,25549,5,10,0:0:0:0:
239,215,25722,1,10,0:0:0:0:
392,160,25895,1,0,0:0:0:0:
455,208,26069,1,0,0:0:0:0:
444,286,26242,5,10,0:0:0:0:
444,286,26416,1,10,0:0:0:0:
239,215,26589,1,0,0:0:0:0:
176,263,26763,1,0,0:0:0:0:
187,341,26936,5,10,0:0:0:0:
433,364,27109,5,0,0:0:0:0:
255,298,27283,1,0,0:0:0:0:
433,364,27456,5,0,0:0:0:0:
255,298,27630,1,0,0:0:0:0:
433,364,27803,5,0,0:0:0:0:
255,298,27976,2,0,P|213:267|165:263,1,95.6250036478044
91,272,28323,5,10,0:0:0:0:
91,272,28497,1,10,0:0:0:0:
207,186,28670,2,0,L|320:177,1,95.6250036478044
382,176,29017,1,10,0:0:0:0:
382,176,29190,1,10,0:0:0:0:
415,103,29363,1,0,0:0:0:0:
360,47,29537,1,0,0:0:0:0:
288,83,29710,5,10,0:0:0:0:
288,83,29884,1,10,0:0:0:0:
153,100,30057,2,0,P|197:112|238:100,1,63.7500024318696
288,83,30404,5,0,0:0:0:0:
95,150,30577,1,10,0:0:0:0:
197,33,30751,5,0,0:0:0:0:
158,233,30924,1,10,0:0:0:0:
275,160,31098,5,0,0:0:0:0:
313,228,31271,1,0,0:0:0:0:
353,162,31445,1,8,0:0:0:0:
235,226,31618,1,0,0:0:0:0:
391,226,31791,5,0,0:0:0:0:
353,294,31965,1,0,0:0:0:0:
313,228,32138,1,8,0:0:0:0:
431,292,32311,1,0,0:0:0:0:
276,296,32485,5,0,0:0:0:0:
476,231,32658,1,0,0:0:0:0:
476,231,32745,1,0,0:0:0:0:
476,231,32832,1,8,0:0:0:0:
197,158,33005,1,0,0:0:0:0:
366,33,33179,5,0,0:0:0:0:
408,45,33265,1,0,0:0:0:0:
436,76,33352,1,0,0:0:0:0:
444,117,33439,1,0,0:0:0:0:
428,157,33525,1,8,0:0:0:0:
400,187,33611,1,0,0:0:0:0:
391,228,33698,1,0,0:0:0:0:
403,268,33785,1,0,0:0:0:0:
434,297,33872,5,0,0:0:0:0:
389,309,33958,1,0,0:0:0:0:
344,322,34045,1,0,0:0:0:0:
299,335,34132,1,0,0:0:0:0:
254,348,34219,2,0,L|240:281,1,42.5,8|0,0:0|0:0,0:0:0:0:
202,207,34393,2,0,L|188:274,1,42.5
87,295,34566,5,0,0:0:0:0:
53,264,34652,1,0,0:0:0:0:
38,220,34739,1,0,0:0:0:0:
44,174,34826,1,0,0:0:0:0:
70,136,34912,5,8,0:0:0:0:
152,370,35086,1,8,0:0:0:0:
152,370,35433,1,0,0:0:0:0:
181,298,35606,1,0,0:0:0:0:
152,370,35780,1,0,0:0:0:0:
321,250,35953,5,0,0:0:0:0:
121,210,36127,1,0,0:0:0:0:
290,90,36300,2,8,B|348:75|390:95|390:95|338:102,1,127.5,8|0,0:0|0:0,0:0:0:0:
320,160,36647,6,0,P|248:154|248:26,1,212.5,6|10,0:0|0:0,0:0:0:0:
121,210,37167,1,0,0:0:0:0:
273,301,37341,2,0,L|291:75,1,212.5,2|10,0:0|0:0,0:0:0:0:
391,316,37861,1,2,0:0:0:0:
182,351,38034,6,0,P|179:278|223:232,1,106.25,2|0,0:0|0:0,0:0:0:0:
382,210,38381,1,10,0:0:0:0:
206,240,38554,1,2,0:0:0:0:
324,357,38728,1,2,0:0:0:0:
299,161,38901,1,2,0:0:0:0:
253,311,39075,2,8,L|139:320,1,106.25,10|0,0:0|0:0,0:0:0:0:
382,210,39421,6,0,L|495:219,1,106.25,4|0,0:0|0:0,0:0:0:0:
199,53,39768,2,0,P|196:126|240:172,1,106.25,10|0,0:0|0:0,0:0:0:0:
353,281,40115,1,2,0:0:0:0:
268,93,40288,1,2,0:0:0:0:
382,210,40462,1,10,0:0:0:0:
212,151,40635,1,2,0:0:0:0:
309,348,40809,6,0,P|382:351|428:307,1,106.25,6|0,0:0|0:0,0:0:0:0:
445,100,41156,1,10,0:0:0:0:
420,324,41329,1,2,0:0:0:0:
290,172,41502,1,2,0:0:0:0:
495,288,41676,1,2,0:0:0:0:
309,348,41849,2,8,L|318:234,1,106.25,10|0,0:0|0:0,0:0:0:0:
82,50,42196,6,0,B|85:93|85:93|104:122|104:122|108:165|108:165|150:215|105:295,1,212.5,6|8,0:0|0:0,0:0:0:0:
161,64,42716,1,0,0:0:0:0:
257,186,42890,2,0,B|203:213|203:213|51:221,1,212.5,2|10,0:0|0:0,0:0:0:0:
271,178,43410,1,2,0:0:0:0:
99,322,43583,5,2,0:0:0:0:
183,139,43757,1,2,0:0:0:0:
296,277,43930,2,0,P|262:341|200:359,1,106.25,10|0,0:0|0:0,0:0:0:0:
24,328,44277,1,2,0:0:0:0:
220,362,44450,1,2,0:0:0:0:
123,201,44624,2,8,L|9:192,1,106.25,10|0,0:0|0:0,0:0:0:0:
306,349,44971,6,8,L|420:340,1,106.25,4|0,0:0|0:0,0:0:0:0:
260,99,45317,1,10,0:0:0:0:
214,274,45491,1,2,0:0:0:0:
361,179,45664,1,2,0:0:0:0:
361,179,45751,1,0,0:0:0:0:
361,179,45838,1,2,0:0:0:0:
110,115,46011,1,10,0:0:0:0:
110,115,46098,1,2,0:0:0:0:
110,115,46184,1,2,0:0:0:0:
116,342,46358,6,0,B|111:305|111:305|130:280|138:254|138:254|137:217|151:192,1,159.375,14|0,0:0|0:0,0:0:0:0:
214,41,46705,6,0,B|195:103|195:103|212:169|274:200|274:200,1,159.375,10|0,0:0|0:0,0:0:0:0:
395,208,47051,6,0,P|357:125|342:199,1,184.875005641937,10|0,0:0|0:0,0:0:0:0:
280,313,47398,6,0,B|335:296|390:317|390:317|336:277,1,159.375,10|0,0:0|0:0,0:0:0:0:
302,231,47745,6,0,B|280:221|280:221|271:201|271:201|252:171|252:171|262:129|262:129|289:71|350:87|350:87,1,212.5,6|8,0:0|0:0,0:0:0:0:
203,239,48265,1,0,0:0:0:0:
157,46,48439,2,0,B|200:73|256:81|256:81|289:132|329:157,1,212.5,2|10,0:0|0:0,0:0:0:0:
104,120,48959,1,2,0:0:0:0:
203,239,49132,6,0,P|206:312|162:358,1,106.25,6|0,0:0|0:0,0:0:0:0:
36,185,49479,1,10,0:0:0:0:
178,349,49653,1,2,0:0:0:0:
185,127,49826,1,6,0:0:0:0:
33,279,49999,1,2,0:0:0:0:
303,343,50173,2,8,L|417:334,1,106.25,10|0,0:0|0:0,0:0:0:0:
138,93,50520,6,8,L|24:84,1,106.25,4|0,0:0|0:0,0:0:0:0:
310,217,50867,2,0,P|313:144|269:98,1,106.25,10|0,0:0|0:0,0:0:0:0:
74,237,51213,2,0,P|71:310|115:356,1,106.25,2|0,0:0|0:0,0:0:0:0:
243,176,51560,1,10,0:0:0:0:
99,346,51734,1,2,0:0:0:0:
33,167,51907,6,0,P|106:164|152:208,1,106.25,6|0,0:0|0:0,0:0:0:0:
303,343,52254,2,0,P|230:346|184:302,1,106.25,10|0,0:0|0:0,0:0:0:0:
222,96,52601,1,6,0:0:0:0:
195,316,52774,1,2,0:0:0:0:
375,178,52947,2,8,L|366:64,1,106.25,10|0,0:0|0:0,0:0:0:0:
263,275,53294,6,0,B|227:228|167:243|167:243|164:238|164:238|65:250,1,212.5,6|8,0:0|0:0,0:0:0:0:
301,202,53814,1,0,0:0:0:0:
150,133,53988,2,0,B|157:171|157:171|101:310|101:310|104:333,1,212.5,2|10,0:0|0:0,0:0:0:0:
146,117,54508,1,2,0:0:0:0:
263,275,54682,5,2,0:0:0:0:
249,83,54855,1,2,0:0:0:0:
73,171,55028,2,0,P|107:235|169:253,1,106.25,10|0,0:0|0:0,0:0:0:0:
344,273,55375,1,2,0:0:0:0:
151,249,55549,1,2,0:0:0:0:
321,122,55722,2,8,L|435:113,1,106.25,10|0,0:0|0:0,0:0:0:0:
159,341,56069,6,6,L|45:332,1,106.25,4|0,0:0|0:0,0:0:0:0:
250,163,56416,1,10,0:0:0:0:
72,249,56590,1,2,0:0:0:0:
58,90,56763,1,2,0:0:0:0:
58,90,56850,1,0,0:0:0:0:
58,90,56937,1,2,0:0:0:0:
312,44,57110,1,10,0:0:0:0:
312,44,57197,1,2,0:0:0:0:
312,44,57283,1,2,0:0:0:0:
371,358,57456,6,0,B|327:274|346:222|346:222|352:245,1,159.375,14|0,0:0|0:0,0:0:0:0:
451,154,57803,6,0,B|410:137|410:137|371:149|371:149|338:115|338:115|303:129|263:102,1,184.875005641937,10|0,0:0|0:0,0:0:0:0:
118,109,58150,6,0,P|162:91|130:197,1,210.375002006292,10|0,0:0|0:0,0:0:0:0:
74,344,58497,6,0,B|113:294|168:278|168:278|190:278|190:278|216:267|216:267|253:267,1,184.875005641937,10|0,0:0|0:0,0:0:0:0:
434,278,58843,6,6,L|320:269,1,106.25,4|0,0:0|0:0,0:0:0:0:
181,353,59190,1,10,0:0:0:0:
311,268,59364,1,2,0:0:0:0:
101,220,59537,1,2,0:0:0:0:
269,334,59710,1,2,0:0:0:0:
284,196,59884,1,10,0:0:0:0:
109,301,60057,1,2,0:0:0:0:
379,304,60231,6,0,P|381:238|342:196,1,85,6|0,0:0|0:0,0:0:0:0:
160,40,60578,2,0,P|157:106|196:148,1,85,10|0,0:0|0:0,0:0:0:0:
311,268,60924,2,0,P|313:202|274:160,1,85,2|8,0:0|0:0,0:0:0:0:
228,77,61271,2,0,P|225:143|264:185,1,85,10|0,0:0|0:0,0:0:0:0:
242,232,61618,5,0,0:0:0:0:
242,232,61791,1,0,0:0:0:0:
295,113,61965,1,8,0:0:0:0:
295,113,62138,1,8,0:0:0:0:
242,232,62485,1,0,0:0:0:0:
295,113,62658,1,8,0:0:0:0:
207,214,63005,5,0,0:0:0:0:
207,214,63178,1,0,0:0:0:0:
334,122,63352,1,8,0:0:0:0:
334,122,63525,1,8,0:0:0:0:
207,214,63872,1,0,0:0:0:0:
334,122,64045,1,8,0:0:0:0:
177,178,64393,5,0,0:0:0:0:
177,178,64566,1,0,0:0:0:0:
364,158,64740,1,8,0:0:0:0:
364,158,64913,1,8,0:0:0:0:
177,178,65260,1,0,0:0:0:0:
364,158,65433,1,8,0:0:0:0:
167,122,65780,5,0,0:0:0:0:
167,122,65953,1,0,0:0:0:0:
373,213,66127,1,8,0:0:0:0:
373,213,66300,1,8,0:0:0:0:
300,222,66473,2,2,L|220:228,2,50.9999984436036
106,71,66820,2,0,P|87:131|114:180,1,85,8|0,0:0|0:0,0:0:0:0:
167,122,67167,6,0,L|247:128,1,50.9999984436036,2|0,0:0|0:0,0:0:0:0:
180,146,67341,2,0,L|260:140,1,50.9999984436036,2|0,0:0|0:0,0:0:0:0:
364,148,67514,6,0,B|366:179|366:179|380:208|380:208|375:243|375:243|390:279|390:279|379:325|405:356,2,203.999993774414
237,338,68554,6,0,L|231:258,1,50.9999984436036,2|0,0:0|0:0,0:0:0:0:
213,325,68728,2,0,L|219:245,1,50.9999984436036,2|0,0:0|0:0,0:0:0:0:
216,156,68901,6,0,B|288:104|364:146|364:146|289:164,2,203.999993774414
409,319,69942,6,0,L|329:325,1,50.9999984436036,2|0,0:0|0:0,0:0:0:0:
396,343,70116,2,0,L|316:337,1,50.9999984436036,2|0,0:0|0:0,0:0:0:0:
203,345,70288,6,0,B|181:287|203:244|203:244|199:208|199:208|220:192|220:192|212:128,2,203.999993774414
406,65,71329,6,0,L|397:123,3,50.9999984436036
310,159,71676,2,0,L|319:217,3,50.9999984436036
214,253,72023,5,2,0:0:0:0:
412,340,72196,1,8,0:0:0:0:
100,340,72716,6,0,P|89:244|215:255,1,255.000009727478,6|8,0:0|0:0,0:0:0:0:
66,161,73236,1,0,0:0:0:0:
149,286,73410,2,0,P|170:159|238:33,1,255.000009727478,2|10,0:0|0:0,0:0:0:0:
490,156,73930,1,2,0:0:0:0:
377,348,74103,6,0,P|304:351|258:307,1,127.500004863739,2|0,0:0|0:0,0:0:0:0:
362,101,74450,1,10,0:0:0:0:
256,300,74624,1,2,0:0:0:0:
482,230,74797,1,2,0:0:0:0:
280,113,74970,1,2,0:0:0:0:
377,348,75144,2,8,L|388:204,1,127.500004863739,10|0,0:0|0:0,0:0:0:0:
62,37,75491,6,8,L|73:180,1,127.500004863739,4|0,0:0|0:0,0:0:0:0:
321,41,75838,2,0,P|248:38|202:82,1,127.500004863739,10|0,0:0|0:0,0:0:0:0:
168,294,76184,1,2,0:0:0:0:
280,113,76357,1,2,0:0:0:0:
256,300,76531,1,10,0:0:0:0:
208,70,76704,1,2,0:0:0:0:
92,254,76878,6,0,P|89:327|133:373,1,127.500004863739,6|0,0:0|0:0,0:0:0:0:
277,204,77225,1,10,0:0:0:0:
139,373,77398,1,2,0:0:0:0:
151,139,77571,1,2,0:0:0:0:
332,254,77745,1,2,0:0:0:0:
164,297,77918,2,8,L|37:286,1,127.500004863739,10|0,0:0|0:0,0:0:0:0:
367,49,78265,6,0,B|375:97|375:97|385:101|385:101|391:147|391:147|384:151|384:151|392:209|392:209|400:214|400:214|412:300|412:300,1,255.000009727478,6|8,0:0|0:0,0:0:0:0:
446,55,78785,1,0,0:0:0:0:
478,338,78959,2,0,B|424:365|424:365|294:355|294:355|323:339|356:344,1,255.000009727478,2|10,0:0|0:0,0:0:0:0:
495,329,79479,1,2,0:0:0:0:
218,351,79652,5,2,0:0:0:0:
311,134,79826,1,2,0:0:0:0:
438,261,79999,2,0,P|404:325|342:343,1,127.500004863739,10|0,0:0|0:0,0:0:0:0:
188,196,80346,1,2,0:0:0:0:
336,344,80520,1,2,0:0:0:0:
386,160,80693,2,8,L|375:24,1,127.500004863739,10|0,0:0|0:0,0:0:0:0:
106,205,81040,6,8,L|95:340,1,127.500004863739,4|0,0:0|0:0,0:0:0:0:
356,262,81387,1,10,0:0:0:0:
135,129,81560,1,0,0:0:0:0:
218,351,81733,1,2,0:0:0:0:
218,351,81820,1,0,0:0:0:0:
218,351,81907,1,2,0:0:0:0:
455,248,82080,1,10,0:0:0:0:
455,248,82167,1,2,0:0:0:0:
455,248,82253,1,2,0:0:0:0:
203,84,82427,5,14,0:0:0:0:
218,351,82601,1,0,0:0:0:0:
290,51,82774,5,10,0:0:0:0:
305,318,82948,1,0,0:0:0:0:
135,38,83121,5,10,0:0:0:0:
120,305,83294,1,8,0:0:0:0:
388,97,83468,5,10,0:0:0:0:
373,364,83642,1,8,0:0:0:0:
177,237,83814,6,0,P|211:173|273:155,1,127.500004863739,4|0,0:0|0:0,0:0:0:0:
446,327,84161,1,10,0:0:0:0:
279,153,84335,1,2,0:0:0:0:
218,351,84508,1,2,0:0:0:0:
379,280,84682,1,2,0:0:0:0:
261,238,84855,1,10,0:0:0:0:
314,346,85028,1,2,0:0:0:0:
447,251,85202,6,8,L|458:116,1,127.500004863739,14|0,0:0|0:0,0:0:0:0:
61,34,85549,2,0,L|72:169,1,127.500004863739,10|0,0:0|0:0,0:0:0:0:
314,346,85895,2,0,L|449:335,1,127.500004863739,10|0,0:0|0:0,0:0:0:0:
146,251,86242,2,0,L|11:240,1,127.500004863739,10|0,0:0|0:0,0:0:0:0:
367,190,86589,5,0,0:0:0:0:
367,41,86762,1,0,0:0:0:0:
279,161,86936,1,8,0:0:0:0:
420,115,87109,1,8,0:0:0:0:
211,203,87456,5,0,0:0:0:0:
279,69,87630,1,8,0:0:0:0:
70,249,87976,5,0,0:0:0:0:
211,295,88150,1,0,0:0:0:0:
123,174,88323,1,8,0:0:0:0:
123,323,88497,1,8,0:0:0:0:
