osu file format v14

[General]
AudioFilename: audio.mp3
AudioLeadIn: 0
PreviewTime: 35936
Countdown: 1
SampleSet: Normal
StackLeniency: 0.6
Mode: 0
LetterboxInBreaks: 0
WidescreenStoryboard: 1

[Editor]
DistanceSpacing: 1
BeatDivisor: 2
GridSize: 4
TimelineZoom: 2.700005

[Metadata]
Title:Speaking
TitleUnicode:Speaking
Artist:Mrs. GREEN APPLE
ArtistUnicode:Mrs. GREEN APPLE
Creator:Mykaterasu
Version:Easy
Source:遊☆戯☆王 ARC-V
Tags:[Kergio] Ending ED Four 4 Yu-Gi-Oh! スピーキング ミセスグリーンアップル yugioh Motoki Oomori 大森元貴
BeatmapID:1370749
BeatmapSetID:633499

[Difficulty]
HPDrainRate:1
CircleSize:2.8
OverallDifficulty:1
ApproachRate:3
SliderMultiplier:0.799999999999999
SliderTickRate:1

[Events]
//Background and Video events
0,0,"prt.png",0,0
Video,0,"spkn.mp4"
//Break Periods
2,61618,65727
//Storyboard Layer 0 (Background)
//Storyboard Layer 1 (Fail)
//Storyboard Layer 2 (Pass)
//Storyboard Layer 3 (Foreground)
//Storyboard Sound Samples

[TimingPoints]
578,346.820809248555,4,2,0,55,1,0
11676,-100,4,3,0,70,0,0
17225,-100,4,1,0,90,0,0
31098,-100,4,3,0,60,0,0
36647,-90.9090909090909,4,1,1,75,0,1
61618,-100,4,3,0,60,0,0
67167,-100,4,2,0,50,0,0
71329,-100,4,3,0,70,0,0
72716,-90.9090909090909,4,1,1,75,0,1
86589,-100,4,3,0,55,0,0

[Colours]
Combo1 : 128,255,255
Combo2 : 128,0,255
Combo3 : 212,212,212
Combo4 : 74,74,74

[HitObjects]
356,90,578,5,4,0:0:0:0:
369,168,924,2,0,L|383:257,1,79.9999999999999
248,337,1965,2,0,L|235:257,1,79.9999999999999
106,163,3005,5,0,0:0:0:0:
118,242,3352,1,0,0:0:0:0:
130,321,3699,2,0,L|209:308,1,79.9999999999999
296,174,4739,2,0,L|216:186,2,79.9999999999999
375,161,5780,1,0,0:0:0:0:
349,236,6127,5,2,0:0:0:0:
324,311,6473,2,0,L|244:323,1,79.9999999999999
92,275,7514,2,0,L|171:262,1,79.9999999999999
300,169,8554,5,0,0:0:0:0:
220,156,8901,1,0,0:0:0:0:
141,144,9248,2,0,L|128:64,2,79.9999999999999
154,222,10288,1,0,0:0:0:0:
258,334,10982,1,0,0:0:0:0:
415,351,11676,6,0,P|413:307|396:261,1,79.9999999999999,8|0,0:0|0:0,0:0:0:0:
365,201,12369,2,0,P|341:163|303:132,1,79.9999999999999
248,94,13063,1,0,0:0:0:0:
169,79,13410,1,0,0:0:0:0:
184,238,14104,1,0,0:0:0:0:
263,239,14450,2,0,P|307:237|353:220,1,79.9999999999999
410,185,15144,1,0,0:0:0:0:
447,114,15491,1,0,0:0:0:0:
456,34,15838,6,0,L|295:54,1,160
217,63,16878,1,0,0:0:0:0:
137,71,17225,6,0,B|142:152|142:152|161:195,2,120,4|8|4,0:0|0:0|0:0,0:0:0:0:
57,77,18612,2,0,L|61:173,1,79.9999999999999,2|2,0:0|0:0,0:0:0:0:
88,232,19306,2,0,P|141:269|167:271,1,79.9999999999999,2|8,0:0|0:0,0:0:0:0:
234,275,19999,6,0,B|315:280|315:280|358:299,2,120,4|8|4,0:0|0:0|0:0,0:0:0:0:
238,194,21387,2,0,L|326:199,1,79.9999999999999,2|4,0:0|0:0,0:0:0:0:
393,225,22080,2,0,P|427:327|381:376,1,160,2|12,0:0|0:0,0:0:0:0:
243,340,23468,5,8,0:0:0:0:
315,197,24161,1,8,0:0:0:0:
155,207,24855,2,0,B|114:210|114:210|68:234,1,79.9999999999999,2|2,0:0|0:0,0:0:0:0:
14,275,25549,5,8,0:0:0:0:
159,341,26242,1,8,0:0:0:0:
236,201,26936,2,0,P|221:154|192:119,2,79.9999999999999,2|2|2,0:0|0:0|0:0,0:0:0:0:
243,280,27976,1,8,0:0:0:0:
168,250,28323,5,12,0:0:0:0:
310,177,29017,1,8,0:0:0:0:
176,91,29710,1,8,0:0:0:0:
168,250,30404,2,0,B|167:292|167:292|178:335,1,79.9999999999999,2|2,0:0|0:0,0:0:0:0:
256,324,31098,6,0,P|312:296|356:301,1,79.9999999999999,0|8,0:0|0:0,0:0:0:0:
389,244,31791,2,0,P|333:216|289:221,1,79.9999999999999,0|8,0:0|0:0,0:0:0:0:
254,164,32485,2,0,P|310:136|354:141,2,79.9999999999999,0|8|0,0:0|0:0|0:0,0:0:0:0:
219,237,33525,1,8,0:0:0:0:
191,311,33872,6,2,B|169:349|130:357|130:357|95:311|103:284|103:284|128:230|84:213|103:154,1,280
182,183,36300,1,8,0:0:0:0:
266,208,36647,6,0,P|336:234|439:196,1,176.000005371094,6|0,0:0|0:0,0:0:0:0:
456,120,37687,1,8,0:0:0:0:
390,61,38034,2,0,P|349:46|308:59,1,88.0000026855468,0|8,0:0|0:0,0:0:0:0:
250,125,38728,2,0,P|209:139|168:126,1,88.0000026855468,0|8,0:0|0:0,0:0:0:0:
97,74,39421,5,2,0:0:0:0:
78,160,39768,2,0,B|69:208|69:208|77:261,1,88.0000026855468,8|0,0:0|0:0,0:0:0:0:
94,332,40462,1,8,0:0:0:0:
162,277,40809,1,2,0:0:0:0:
228,219,41156,2,0,B|237:171|237:171|229:118,1,88.0000026855468,8|0,0:0|0:0,0:0:0:0:
212,46,41849,1,8,0:0:0:0:
296,70,42196,6,0,B|320:103|320:103|327:151|327:151|347:190|347:190|355:245,1,176.000005371094,2|0,0:3|0:3,0:3:0:0:
362,319,43236,1,8,0:0:0:0:
274,306,43583,2,0,L|181:293,1,88.0000026855468,0|8,0:0|0:0,0:0:0:0:
145,216,44277,2,0,L|232:203,1,88.0000026855468,0|8,0:0|0:0,0:0:0:0:
319,190,44971,5,2,0:0:0:0:
357,111,45317,1,8,0:0:0:0:
268,111,45664,2,0,P|197:119|173:131,1,88.0000026855468,0|8,0:0|0:0,0:0:0:0:
122,190,46358,5,10,0:0:0:0:
68,260,46705,1,10,0:0:0:0:
139,313,47052,1,10,0:0:0:0:
192,243,47398,1,10,0:0:0:0:
250,308,47745,6,0,B|337:317|337:317|427:275,1,176.000005371094,6|0,0:0|0:0,0:0:0:0:
442,195,48786,1,8,0:0:0:0:
362,157,49132,2,0,B|321:138|321:138|278:142,1,88.0000026855468,2|8,0:0|0:0,0:0:0:0:
196,176,49826,2,0,B|155:194|155:194|112:190,1,88.0000026855468,2|8,0:0|0:0,0:0:0:0:
24,179,50520,5,6,0:0:0:0:
77,109,50867,2,0,P|131:72|190:61,2,88.0000026855468,8|0|8,0:0|0:0|0:0,0:0:0:0:
113,189,51907,2,0,B|124:214|124:214|132:299,1,88.0000026855468,2|8,0:0|0:0,0:0:0:0:
202,325,52601,2,0,B|213:300|213:300|221:215,1,88.0000026855468,2|8,0:0|0:0,0:0:0:0:
227,151,53294,6,0,B|196:91|246:28|246:28|311:68,1,176.000005371094,6|0,0:0|0:0,0:0:0:0:
359,95,54335,1,8,0:0:0:0:
434,139,54682,2,0,B|449:183|449:183|425:254,1,88.0000026855468,0|8,0:0|0:0,0:0:0:0:
358,179,55375,2,0,B|343:223|343:223|367:294,1,88.0000026855468,0|8,0:0|0:0,0:0:0:0:
387,345,56069,5,6,0:0:0:0:
299,332,56416,2,0,P|226:314|124:241,1,176.000005371094,8|8,0:0|0:0,0:0:0:0:
82,195,57456,5,14,0:0:0:0:
28,125,57803,1,10,0:0:0:0:
99,72,58150,1,10,0:0:0:0:
152,142,58497,1,10,0:0:0:0:
189,62,58843,6,0,P|262:80|364:153,1,176.000005371094,6|0,0:0|0:0,0:0:0:0:
398,205,59884,1,8,0:0:0:0:
408,292,60231,2,0,L|319:311,1,88.0000026855468,6|8,0:0|0:0,0:0:0:0:
235,293,60924,2,0,L|146:274,1,88.0000026855468,8|8,0:0|0:0,0:0:0:0:
281,153,67167,5,0,0:0:0:0:
345,105,67514,2,0,P|389:83|393:213,1,240
337,234,68901,6,0,B|291:234|261:256|261:256|233:220|240:182|240:182|193:172|137:219,1,240
88,227,70288,6,0,B|36:166|36:166|116:118,1,160
179,95,71329,6,0,P|248:88|281:97,2,79.9999999999999,8|8|8,0:0|0:0|0:0,0:0:0:0:
169,270,72716,6,0,P|286:281|343:266,1,176.000005371094,6|0,0:0|0:0,0:0:0:0:
418,222,73757,1,8,0:0:0:0:
339,182,74104,2,0,P|280:176|252:184,1,88.0000026855468,0|8,0:0|0:0,0:0:0:0:
174,223,74797,2,0,P|115:228|87:221,1,88.0000026855468,0|8,0:0|0:0,0:0:0:0:
23,161,75491,5,6,0:0:0:0:
84,97,75838,1,8,0:0:0:0:
145,33,76184,2,0,L|250:62,1,88.0000026855468,0|8,0:0|0:0,0:0:0:0:
237,144,76878,2,0,L|342:115,1,88.0000026855468,2|8,0:0|0:0,0:0:0:0:
406,95,77572,1,0,0:0:0:0:
417,182,77919,1,8,0:0:0:0:
426,269,78265,6,0,P|357:320|314:258,1,176.000005371094,6|0,0:0|0:0,0:0:0:0:
325,174,79306,1,8,0:0:0:0:
330,86,79653,2,0,B|279:79|279:79|228:90,1,88.0000026855468,0|8,0:0|0:0,0:0:0:0:
210,168,80346,2,0,B|159:175|159:175|108:164,1,88.0000026855468,0|8,0:0|0:0,0:0:0:0:
37,147,81040,5,6,0:0:0:0:
52,233,81387,2,0,L|74:351,2,88.0000026855468,8|0|8,0:0|0:0|0:0,0:0:0:0:
120,177,82427,5,14,0:0:0:0:
178,244,82774,1,10,0:0:0:0:
245,186,83121,1,10,0:0:0:0:
186,119,83468,2,0,B|223:94|223:94|291:97,1,88.0000026855468,8|6,0:0|0:0,0:0:0:0:
354,99,84161,6,0,L|332:217,2,88.0000026855468,8|0|8,0:0|0:0|0:0,0:0:0:0:
441,109,85202,1,14,0:0:0:0:
424,195,85549,1,10,0:0:0:0:
382,272,85895,1,10,0:0:0:0:
311,325,86242,1,10,0:0:0:0:
256,192,86589,12,12,88497,0:0:0:0:
