osu file format v14

[General]
AudioFilename: audio.mp3
AudioLeadIn: 0
PreviewTime: 35936
Countdown: 1
SampleSet: None
StackLeniency: 0.7
Mode: 0
LetterboxInBreaks: 0
WidescreenStoryboard: 1

[Editor]
Bookmarks: 563,11661,22759,36632,47730,61603,72701,78250
DistanceSpacing: 1.2
BeatDivisor: 4
GridSize: 4
TimelineZoom: 3.3

[Metadata]
Title:Speaking
TitleUnicode:Speaking
Artist:Mrs. GREEN APPLE
ArtistUnicode:Mrs. GREEN APPLE
Creator:Mykaterasu
Version:Collab Light Insane
Source:遊☆戯☆王 ARC-V
Tags:[Kergio] Ending ED Four 4 Yu-Gi-Oh! スピーキング ミセスグリーンアップル yugioh Motoki Oomori 大森元貴
BeatmapID:1375710
BeatmapSetID:633499

[Difficulty]
HPDrainRate:6
CircleSize:3.1
OverallDifficulty:7.6
ApproachRate:8.5
SliderMultiplier:1.6
SliderTickRate:1

[Events]
//Background and Video events
0,0,"prt.png",0,0
Video,0,"spkn.mp4"
//Break Periods
//Storyboard Layer 0 (Background)
Sprite,Background,Centre,"sb\sr.png",320,240 S,0,360,,0.3 F,0,360,562,0,0.7 C,0,360,11487,79,218,255 M,0,360,88482,560,440 C,0,11487,11661,79,218,255,255,25,25 C,0,22586,22759,255,25,25,79,218,255 C,0,36458,36632,79,218,255,255,25,25 C,0,47557,47730,255,25,25,79,218,255 C,0,61430,61603,79,218,255,255,25,25 C,0,72528,72701,255,25,25,79,218,255 C,0,78077,78250,79,218,255,255,25,25 F,0,88286,88482,0.7,0
Sprite,Background,Centre,"sb\sr.png",320,240 S,0,360,,0.3 R,0,360,,0.8 F,0,360,562,0,0.7 C,0,360,11487,79,218,255 M,0,360,88482,630,425 C,0,11487,11661,79,218,255,255,25,25 C,0,22586,22759,255,25,25,79,218,255 C,0,36458,36632,79,218,255,255,25,25 C,0,47557,47730,255,25,25,79,218,255 C,0,61430,61603,79,218,255,255,25,25 C,0,72528,72701,255,25,25,79,218,255 C,0,78077,78250,79,218,255,255,25,25 F,0,88286,88482,0.7,0
Sprite,Background,Centre,"sb\f\004d.png",531.8787,432.8787 F,0,360,560,0,1 S,0,560,,0.5 F,0,11460,11660,1,0
Sprite,Background,Centre,"sb\f\0079.png",546.1287,436.8787 F,0,360,560,0,1 S,0,560,,0.5 F,0,11460,11660,1,0
Sprite,Background,Centre,"sb\f\006b.png",559.1287,431.1287 F,0,360,560,0,1 S,0,560,,0.5 F,0,11460,11660,1,0
Sprite,Background,Centre,"sb\f\0061.png",574.1287,433.3787 F,0,360,560,0,1 S,0,560,,0.5 F,0,11460,11660,1,0
Sprite,Background,Centre,"sb\f\0074.png",588.1287,431.3787 F,0,360,560,0,1 S,0,560,,0.5 F,0,11460,11660,1,0
Sprite,Background,Centre,"sb\f\0065.png",600.3787,434.1287 F,0,360,560,0,1 S,0,560,,0.5 F,0,11460,11660,1,0
Sprite,Background,Centre,"sb\f\0072.png",610.8787,433.8787 F,0,360,560,0,1 S,0,560,,0.5 F,0,11460,11660,1,0
Sprite,Background,Centre,"sb\f\0061.png",624.1287,433.3787 F,0,360,560,0,1 S,0,560,,0.5 F,0,11460,11660,1,0
Sprite,Background,Centre,"sb\f\0073.png",640.1287,433.1287 F,0,360,560,0,1 S,0,560,,0.5 F,0,11460,11660,1,0
Sprite,Background,Centre,"sb\f\0075.png",652.8787,434.6287 F,0,360,560,0,1 S,0,560,,0.5 F,0,11460,11660,1,0
Sprite,Background,Centre,"sb\f\004d.png",531.8787,432.8787 F,0,22560,22760,0,1 S,0,22760,,0.5 F,0,36430,36630,1,0
Sprite,Background,Centre,"sb\f\0079.png",546.1287,436.8787 F,0,22560,22760,0,1 S,0,22760,,0.5 F,0,36430,36630,1,0
Sprite,Background,Centre,"sb\f\006b.png",559.1287,431.1287 F,0,22560,22760,0,1 S,0,22760,,0.5 F,0,36430,36630,1,0
Sprite,Background,Centre,"sb\f\0061.png",574.1287,433.3787 F,0,22560,22760,0,1 S,0,22760,,0.5 F,0,36430,36630,1,0
Sprite,Background,Centre,"sb\f\0074.png",588.1287,431.3787 F,0,22560,22760,0,1 S,0,22760,,0.5 F,0,36430,36630,1,0
Sprite,Background,Centre,"sb\f\0065.png",600.3787,434.1287 F,0,22560,22760,0,1 S,0,22760,,0.5 F,0,36430,36630,1,0
Sprite,Background,Centre,"sb\f\0072.png",610.8787,433.8787 F,0,22560,22760,0,1 S,0,22760,,0.5 F,0,36430,36630,1,0
Sprite,Background,Centre,"sb\f\0061.png",624.1287,433.3787 F,0,22560,22760,0,1 S,0,22760,,0.5 F,0,36430,36630,1,0
Sprite,Background,Centre,"sb\f\0073.png",640.1287,433.1287 F,0,22560,22760,0,1 S,0,22760,,0.5 F,0,36430,36630,1,0
Sprite,Background,Centre,"sb\f\0075.png",652.8787,434.6287 F,0,22560,22760,0,1 S,0,22760,,0.5 F,0,36430,36630,1,0
Sprite,Background,Centre,"sb\f\004d.png",531.8787,432.8787 F,0,47530,47730,0,1 S,0,47730,,0.5 F,0,61400,61600,1,0
Sprite,Background,Centre,"sb\f\0079.png",546.1287,436.8787 F,0,47530,47730,0,1 S,0,47730,,0.5 F,0,61400,61600,1,0
Sprite,Background,Centre,"sb\f\006b.png",559.1287,431.1287 F,0,47530,47730,0,1 S,0,47730,,0.5 F,0,61400,61600,1,0
Sprite,Background,Centre,"sb\f\0061.png",574.1287,433.3787 F,0,47530,47730,0,1 S,0,47730,,0.5 F,0,61400,61600,1,0
Sprite,Background,Centre,"sb\f\0074.png",588.1287,431.3787 F,0,47530,47730,0,1 S,0,47730,,0.5 F,0,61400,61600,1,0
Sprite,Background,Centre,"sb\f\0065.png",600.3787,434.1287 F,0,47530,47730,0,1 S,0,47730,,0.5 F,0,61400,61600,1,0
Sprite,Background,Centre,"sb\f\0072.png",610.8787,433.8787 F,0,47530,47730,0,1 S,0,47730,,0.5 F,0,61400,61600,1,0
Sprite,Background,Centre,"sb\f\0061.png",624.1287,433.3787 F,0,47530,47730,0,1 S,0,47730,,0.5 F,0,61400,61600,1,0
Sprite,Background,Centre,"sb\f\0073.png",640.1287,433.1287 F,0,47530,47730,0,1 S,0,47730,,0.5 F,0,61400,61600,1,0
Sprite,Background,Centre,"sb\f\0075.png",652.8787,434.6287 F,0,47530,47730,0,1 S,0,47730,,0.5 F,0,61400,61600,1,0
Sprite,Background,Centre,"sb\f\004d.png",531.8787,432.8787 F,0,72500,72700,0,1 S,0,72700,,0.5 F,0,78050,78250,1,0
Sprite,Background,Centre,"sb\f\0079.png",546.1287,436.8787 F,0,72500,72700,0,1 S,0,72700,,0.5 F,0,78050,78250,1,0
Sprite,Background,Centre,"sb\f\006b.png",559.1287,431.1287 F,0,72500,72700,0,1 S,0,72700,,0.5 F,0,78050,78250,1,0
Sprite,Background,Centre,"sb\f\0061.png",574.1287,433.3787 F,0,72500,72700,0,1 S,0,72700,,0.5 F,0,78050,78250,1,0
Sprite,Background,Centre,"sb\f\0074.png",588.1287,431.3787 F,0,72500,72700,0,1 S,0,72700,,0.5 F,0,78050,78250,1,0
Sprite,Background,Centre,"sb\f\0065.png",600.3787,434.1287 F,0,72500,72700,0,1 S,0,72700,,0.5 F,0,78050,78250,1,0
Sprite,Background,Centre,"sb\f\0072.png",610.8787,433.8787 F,0,72500,72700,0,1 S,0,72700,,0.5 F,0,78050,78250,1,0
Sprite,Background,Centre,"sb\f\0061.png",624.1287,433.3787 F,0,72500,72700,0,1 S,0,72700,,0.5 F,0,78050,78250,1,0
Sprite,Background,Centre,"sb\f\0073.png",640.1287,433.1287 F,0,72500,72700,0,1 S,0,72700,,0.5 F,0,78050,78250,1,0
Sprite,Background,Centre,"sb\f\0075.png",652.8787,434.6287 F,0,72500,72700,0,1 S,0,72700,,0.5 F,0,78050,78250,1,0
Sprite,Background,Centre,"sb\f\glow\004d.png",531.75,432.75 F,0,360,560,0,1 S,0,560,,0.5 F,0,11460,11660,1,0 P,0,11460,11660,A
Sprite,Background,Centre,"sb\f\glow\0079.png",546.25,436.75 F,0,360,560,0,1 S,0,560,,0.5 F,0,11460,11660,1,0 P,0,11460,11660,A
Sprite,Background,Centre,"sb\f\glow\006b.png",558.75,431 F,0,360,560,0,1 S,0,560,,0.5 F,0,11460,11660,1,0 P,0,11460,11660,A
Sprite,Background,Centre,"sb\f\glow\0061.png",574,433.25 F,0,360,560,0,1 S,0,560,,0.5 F,0,11460,11660,1,0 P,0,11460,11660,A
Sprite,Background,Centre,"sb\f\glow\0074.png",588,431.25 F,0,360,560,0,1 S,0,560,,0.5 F,0,11460,11660,1,0 P,0,11460,11660,A
Sprite,Background,Centre,"sb\f\glow\0065.png",600,434 F,0,360,560,0,1 S,0,560,,0.5 F,0,11460,11660,1,0 P,0,11460,11660,A
Sprite,Background,Centre,"sb\f\glow\0072.png",611,433.75 F,0,360,560,0,1 S,0,560,,0.5 F,0,11460,11660,1,0 P,0,11460,11660,A
Sprite,Background,Centre,"sb\f\glow\0061.png",624,433.25 F,0,360,560,0,1 S,0,560,,0.5 F,0,11460,11660,1,0 P,0,11460,11660,A
Sprite,Background,Centre,"sb\f\glow\0073.png",640,433 F,0,360,560,0,1 S,0,560,,0.5 F,0,11460,11660,1,0 P,0,11460,11660,A
Sprite,Background,Centre,"sb\f\glow\0075.png",653,434.5 F,0,360,560,0,1 S,0,560,,0.5 F,0,11460,11660,1,0 P,0,11460,11660,A
Sprite,Background,Centre,"sb\f\glow\004d.png",531.75,432.75 F,0,22560,22760,0,1 S,0,22760,,0.5 F,0,36430,36630,1,0 P,0,36430,36630,A
Sprite,Background,Centre,"sb\f\glow\0079.png",546.25,436.75 F,0,22560,22760,0,1 S,0,22760,,0.5 F,0,36430,36630,1,0 P,0,36430,36630,A
Sprite,Background,Centre,"sb\f\glow\006b.png",558.75,431 F,0,22560,22760,0,1 S,0,22760,,0.5 F,0,36430,36630,1,0 P,0,36430,36630,A
Sprite,Background,Centre,"sb\f\glow\0061.png",574,433.25 F,0,22560,22760,0,1 S,0,22760,,0.5 F,0,36430,36630,1,0 P,0,36430,36630,A
Sprite,Background,Centre,"sb\f\glow\0074.png",588,431.25 F,0,22560,22760,0,1 S,0,22760,,0.5 F,0,36430,36630,1,0 P,0,36430,36630,A
Sprite,Background,Centre,"sb\f\glow\0065.png",600,434 F,0,22560,22760,0,1 S,0,22760,,0.5 F,0,36430,36630,1,0 P,0,36430,36630,A
Sprite,Background,Centre,"sb\f\glow\0072.png",611,433.75 F,0,22560,22760,0,1 S,0,22760,,0.5 F,0,36430,36630,1,0 P,0,36430,36630,A
Sprite,Background,Centre,"sb\f\glow\0061.png",624,433.25 F,0,22560,22760,0,1 S,0,22760,,0.5 F,0,36430,36630,1,0 P,0,36430,36630,A
Sprite,Background,Centre,"sb\f\glow\0073.png",640,433 F,0,22560,22760,0,1 S,0,22760,,0.5 F,0,36430,36630,1,0 P,0,36430,36630,A
Sprite,Background,Centre,"sb\f\glow\0075.png",653,434.5 F,0,22560,22760,0,1 S,0,22760,,0.5 F,0,36430,36630,1,0 P,0,36430,36630,A
Sprite,Background,Centre,"sb\f\glow\004d.png",531.75,432.75 F,0,47530,47730,0,1 S,0,47730,,0.5 F,0,61400,61600,1,0 P,0,61400,61600,A
Sprite,Background,Centre,"sb\f\glow\0079.png",546.25,436.75 F,0,47530,47730,0,1 S,0,47730,,0.5 F,0,61400,61600,1,0 P,0,61400,61600,A
Sprite,Background,Centre,"sb\f\glow\006b.png",558.75,431 F,0,47530,47730,0,1 S,0,47730,,0.5 F,0,61400,61600,1,0 P,0,61400,61600,A
Sprite,Background,Centre,"sb\f\glow\0061.png",574,433.25 F,0,47530,47730,0,1 S,0,47730,,0.5 F,0,61400,61600,1,0 P,0,61400,61600,A
Sprite,Background,Centre,"sb\f\glow\0074.png",588,431.25 F,0,47530,47730,0,1 S,0,47730,,0.5 F,0,61400,61600,1,0 P,0,61400,61600,A
Sprite,Background,Centre,"sb\f\glow\0065.png",600,434 F,0,47530,47730,0,1 S,0,47730,,0.5 F,0,61400,61600,1,0 P,0,61400,61600,A
Sprite,Background,Centre,"sb\f\glow\0072.png",611,433.75 F,0,47530,47730,0,1 S,0,47730,,0.5 F,0,61400,61600,1,0 P,0,61400,61600,A
Sprite,Background,Centre,"sb\f\glow\0061.png",624,433.25 F,0,47530,47730,0,1 S,0,47730,,0.5 F,0,61400,61600,1,0 P,0,61400,61600,A
Sprite,Background,Centre,"sb\f\glow\0073.png",640,433 F,0,47530,47730,0,1 S,0,47730,,0.5 F,0,61400,61600,1,0 P,0,61400,61600,A
Sprite,Background,Centre,"sb\f\glow\0075.png",653,434.5 F,0,47530,47730,0,1 S,0,47730,,0.5 F,0,61400,61600,1,0 P,0,61400,61600,A
Sprite,Background,Centre,"sb\f\glow\004d.png",531.75,432.75 F,0,72500,72700,0,1 S,0,72700,,0.5 F,0,78050,78250,1,0 P,0,78050,78250,A
Sprite,Background,Centre,"sb\f\glow\0079.png",546.25,436.75 F,0,72500,72700,0,1 S,0,72700,,0.5 F,0,78050,78250,1,0 P,0,78050,78250,A
Sprite,Background,Centre,"sb\f\glow\006b.png",558.75,431 F,0,72500,72700,0,1 S,0,72700,,0.5 F,0,78050,78250,1,0 P,0,78050,78250,A
Sprite,Background,Centre,"sb\f\glow\0061.png",574,433.25 F,0,72500,72700,0,1 S,0,72700,,0.5 F,0,78050,78250,1,0 P,0,78050,78250,A
Sprite,Background,Centre,"sb\f\glow\0074.png",588,431.25 F,0,72500,72700,0,1 S,0,72700,,0.5 F,0,78050,78250,1,0 P,0,78050,78250,A
Sprite,Background,Centre,"sb\f\glow\0065.png",600,434 F,0,72500,72700,0,1 S,0,72700,,0.5 F,0,78050,78250,1,0 P,0,78050,78250,A
Sprite,Background,Centre,"sb\f\glow\0072.png",611,433.75 F,0,72500,72700,0,1 S,0,72700,,0.5 F,0,78050,78250,1,0 P,0,78050,78250,A
Sprite,Background,Centre,"sb\f\glow\0061.png",624,433.25 F,0,72500,72700,0,1 S,0,72700,,0.5 F,0,78050,78250,1,0 P,0,78050,78250,A
Sprite,Background,Centre,"sb\f\glow\0073.png",640,433 F,0,72500,72700,0,1 S,0,72700,,0.5 F,0,78050,78250,1,0 P,0,78050,78250,A
Sprite,Background,Centre,"sb\f\glow\0075.png",653,434.5 F,0,72500,72700,0,1 S,0,72700,,0.5 F,0,78050,78250,1,0 P,0,78050,78250,A
Sprite,Background,Centre,"sb\f2\glow\005b.png",550.5,431.75 F,0,11460,11660,0,1 S,0,11660,,0.5 F,0,22560,22760,1,0 P,0,22560,22760,A
Sprite,Background,Centre,"sb\f2\glow\004b.png",564.75,432.25 F,0,11460,11660,0,1 S,0,11660,,0.5 F,0,22560,22760,1,0 P,0,22560,22760,A
Sprite,Background,Centre,"sb\f2\glow\0065.png",579.25,434 F,0,11460,11660,0,1 S,0,11660,,0.5 F,0,22560,22760,1,0 P,0,22560,22760,A
Sprite,Background,Centre,"sb\f2\glow\0072.png",590.25,433.75 F,0,11460,11660,0,1 S,0,11660,,0.5 F,0,22560,22760,1,0 P,0,22560,22760,A
Sprite,Background,Centre,"sb\f2\glow\0067.png",601,440.25 F,0,11460,11660,0,1 S,0,11660,,0.5 F,0,22560,22760,1,0 P,0,22560,22760,A
Sprite,Background,Centre,"sb\f2\glow\0069.png",610,432.5 F,0,11460,11660,0,1 S,0,11660,,0.5 F,0,22560,22760,1,0 P,0,22560,22760,A
Sprite,Background,Centre,"sb\f2\glow\006f.png",617.5,432.5 F,0,11460,11660,0,1 S,0,11660,,0.5 F,0,22560,22760,1,0 P,0,22560,22760,A
Sprite,Background,Centre,"sb\f2\glow\005d.png",626.75,433.5 F,0,11460,11660,0,1 S,0,11660,,0.5 F,0,22560,22760,1,0 P,0,22560,22760,A
Sprite,Background,Centre,"sb\f2\glow\005b.png",550.5,431.75 F,0,36430,36630,0,1 S,0,36630,,0.5 F,0,47530,47730,1,0 P,0,47530,47730,A
Sprite,Background,Centre,"sb\f2\glow\004b.png",564.75,432.25 F,0,36430,36630,0,1 S,0,36630,,0.5 F,0,47530,47730,1,0 P,0,47530,47730,A
Sprite,Background,Centre,"sb\f2\glow\0065.png",579.25,434 F,0,36430,36630,0,1 S,0,36630,,0.5 F,0,47530,47730,1,0 P,0,47530,47730,A
Sprite,Background,Centre,"sb\f2\glow\0072.png",590.25,433.75 F,0,36430,36630,0,1 S,0,36630,,0.5 F,0,47530,47730,1,0 P,0,47530,47730,A
Sprite,Background,Centre,"sb\f2\glow\0067.png",601,440.25 F,0,36430,36630,0,1 S,0,36630,,0.5 F,0,47530,47730,1,0 P,0,47530,47730,A
Sprite,Background,Centre,"sb\f2\glow\0069.png",610,432.5 F,0,36430,36630,0,1 S,0,36630,,0.5 F,0,47530,47730,1,0 P,0,47530,47730,A
Sprite,Background,Centre,"sb\f2\glow\006f.png",617.5,432.5 F,0,36430,36630,0,1 S,0,36630,,0.5 F,0,47530,47730,1,0 P,0,47530,47730,A
Sprite,Background,Centre,"sb\f2\glow\005d.png",626.75,433.5 F,0,36430,36630,0,1 S,0,36630,,0.5 F,0,47530,47730,1,0 P,0,47530,47730,A
Sprite,Background,Centre,"sb\f2\glow\005b.png",550.5,431.75 F,0,61400,61600,0,1 S,0,61600,,0.5 F,0,72500,72700,1,0 P,0,72500,72700,A
Sprite,Background,Centre,"sb\f2\glow\004b.png",564.75,432.25 F,0,61400,61600,0,1 S,0,61600,,0.5 F,0,72500,72700,1,0 P,0,72500,72700,A
Sprite,Background,Centre,"sb\f2\glow\0065.png",579.25,434 F,0,61400,61600,0,1 S,0,61600,,0.5 F,0,72500,72700,1,0 P,0,72500,72700,A
Sprite,Background,Centre,"sb\f2\glow\0072.png",590.25,433.75 F,0,61400,61600,0,1 S,0,61600,,0.5 F,0,72500,72700,1,0 P,0,72500,72700,A
Sprite,Background,Centre,"sb\f2\glow\0067.png",601,440.25 F,0,61400,61600,0,1 S,0,61600,,0.5 F,0,72500,72700,1,0 P,0,72500,72700,A
Sprite,Background,Centre,"sb\f2\glow\0069.png",610,432.5 F,0,61400,61600,0,1 S,0,61600,,0.5 F,0,72500,72700,1,0 P,0,72500,72700,A
Sprite,Background,Centre,"sb\f2\glow\006f.png",617.5,432.5 F,0,61400,61600,0,1 S,0,61600,,0.5 F,0,72500,72700,1,0 P,0,72500,72700,A
Sprite,Background,Centre,"sb\f2\glow\005d.png",626.75,433.5 F,0,61400,61600,0,1 S,0,61600,,0.5 F,0,72500,72700,1,0 P,0,72500,72700,A
Sprite,Background,Centre,"sb\f2\glow\005b.png",550.5,431.75 F,0,78050,78250,0,1 S,0,78250,,0.5 F,0,88280,88480,1,0 P,0,88280,88480,A
Sprite,Background,Centre,"sb\f2\glow\004b.png",564.75,432.25 F,0,78050,78250,0,1 S,0,78250,,0.5 F,0,88280,88480,1,0 P,0,88280,88480,A
Sprite,Background,Centre,"sb\f2\glow\0065.png",579.25,434 F,0,78050,78250,0,1 S,0,78250,,0.5 F,0,88280,88480,1,0 P,0,88280,88480,A
Sprite,Background,Centre,"sb\f2\glow\0072.png",590.25,433.75 F,0,78050,78250,0,1 S,0,78250,,0.5 F,0,88280,88480,1,0 P,0,88280,88480,A
Sprite,Background,Centre,"sb\f2\glow\0067.png",601,440.25 F,0,78050,78250,0,1 S,0,78250,,0.5 F,0,88280,88480,1,0 P,0,88280,88480,A
Sprite,Background,Centre,"sb\f2\glow\0069.png",610,432.5 F,0,78050,78250,0,1 S,0,78250,,0.5 F,0,88280,88480,1,0 P,0,88280,88480,A
Sprite,Background,Centre,"sb\f2\glow\006f.png",617.5,432.5 F,0,78050,78250,0,1 S,0,78250,,0.5 F,0,88280,88480,1,0 P,0,88280,88480,A
Sprite,Background,Centre,"sb\f2\glow\005d.png",626.75,433.5 F,0,78050,78250,0,1 S,0,78250,,0.5 F,0,88280,88480,1,0 P,0,88280,88480,A
Sprite,Background,Centre,"sb\f2\005b.png",550.8787,431.8787 F,0,11460,11660,0,1 S,0,11660,,0.5 F,0,22560,22760,1,0
Sprite,Background,Centre,"sb\f2\004b.png",565.1287,432.1287 F,0,11460,11660,0,1 S,0,11660,,0.5 F,0,22560,22760,1,0
Sprite,Background,Centre,"sb\f2\0065.png",579.6287,434.1287 F,0,11460,11660,0,1 S,0,11660,,0.5 F,0,22560,22760,1,0
Sprite,Background,Centre,"sb\f2\0072.png",590.1287,433.8787 F,0,11460,11660,0,1 S,0,11660,,0.5 F,0,22560,22760,1,0
Sprite,Background,Centre,"sb\f2\0067.png",601.1287,440.6287 F,0,11460,11660,0,1 S,0,11660,,0.5 F,0,22560,22760,1,0
Sprite,Background,Centre,"sb\f2\0069.png",610.3787,432.6287 F,0,11460,11660,0,1 S,0,11660,,0.5 F,0,22560,22760,1,0
Sprite,Background,Centre,"sb\f2\006f.png",617.8787,432.8787 F,0,11460,11660,0,1 S,0,11660,,0.5 F,0,22560,22760,1,0
Sprite,Background,Centre,"sb\f2\005d.png",627.1287,433.6287 F,0,11460,11660,0,1 S,0,11660,,0.5 F,0,22560,22760,1,0
Sprite,Background,Centre,"sb\f2\005b.png",550.8787,431.8787 F,0,36430,36630,0,1 S,0,36630,,0.5 F,0,47530,47730,1,0
Sprite,Background,Centre,"sb\f2\004b.png",565.1287,432.1287 F,0,36430,36630,0,1 S,0,36630,,0.5 F,0,47530,47730,1,0
Sprite,Background,Centre,"sb\f2\0065.png",579.6287,434.1287 F,0,36430,36630,0,1 S,0,36630,,0.5 F,0,47530,47730,1,0
Sprite,Background,Centre,"sb\f2\0072.png",590.1287,433.8787 F,0,36430,36630,0,1 S,0,36630,,0.5 F,0,47530,47730,1,0
Sprite,Background,Centre,"sb\f2\0067.png",601.1287,440.6287 F,0,36430,36630,0,1 S,0,36630,,0.5 F,0,47530,47730,1,0
Sprite,Background,Centre,"sb\f2\0069.png",610.3787,432.6287 F,0,36430,36630,0,1 S,0,36630,,0.5 F,0,47530,47730,1,0
Sprite,Background,Centre,"sb\f2\006f.png",617.8787,432.8787 F,0,36430,36630,0,1 S,0,36630,,0.5 F,0,47530,47730,1,0
Sprite,Background,Centre,"sb\f2\005d.png",627.1287,433.6287 F,0,36430,36630,0,1 S,0,36630,,0.5 F,0,47530,47730,1,0
Sprite,Background,Centre,"sb\f2\005b.png",550.8787,431.8787 F,0,61400,61600,0,1 S,0,61600,,0.5 F,0,72500,72700,1,0
Sprite,Background,Centre,"sb\f2\004b.png",565.1287,432.1287 F,0,61400,61600,0,1 S,0,61600,,0.5 F,0,72500,72700,1,0
Sprite,Background,Centre,"sb\f2\0065.png",579.6287,434.1287 F,0,61400,61600,0,1 S,0,61600,,0.5 F,0,72500,72700,1,0
Sprite,Background,Centre,"sb\f2\0072.png",590.1287,433.8787 F,0,61400,61600,0,1 S,0,61600,,0.5 F,0,72500,72700,1,0
Sprite,Background,Centre,"sb\f2\0067.png",601.1287,440.6287 F,0,61400,61600,0,1 S,0,61600,,0.5 F,0,72500,72700,1,0
Sprite,Background,Centre,"sb\f2\0069.png",610.3787,432.6287 F,0,61400,61600,0,1 S,0,61600,,0.5 F,0,72500,72700,1,0
Sprite,Background,Centre,"sb\f2\006f.png",617.8787,432.8787 F,0,61400,61600,0,1 S,0,61600,,0.5 F,0,72500,72700,1,0
Sprite,Background,Centre,"sb\f2\005d.png",627.1287,433.6287 F,0,61400,61600,0,1 S,0,61600,,0.5 F,0,72500,72700,1,0
Sprite,Background,Centre,"sb\f2\005b.png",550.8787,431.8787 F,0,78050,78250,0,1 S,0,78250,,0.5 F,0,88280,88480,1,0
Sprite,Background,Centre,"sb\f2\004b.png",565.1287,432.1287 F,0,78050,78250,0,1 S,0,78250,,0.5 F,0,88280,88480,1,0
Sprite,Background,Centre,"sb\f2\0065.png",579.6287,434.1287 F,0,78050,78250,0,1 S,0,78250,,0.5 F,0,88280,88480,1,0
Sprite,Background,Centre,"sb\f2\0072.png",590.1287,433.8787 F,0,78050,78250,0,1 S,0,78250,,0.5 F,0,88280,88480,1,0
Sprite,Background,Centre,"sb\f2\0067.png",601.1287,440.6287 F,0,78050,78250,0,1 S,0,78250,,0.5 F,0,88280,88480,1,0
Sprite,Background,Centre,"sb\f2\0069.png",610.3787,432.6287 F,0,78050,78250,0,1 S,0,78250,,0.5 F,0,88280,88480,1,0
Sprite,Background,Centre,"sb\f2\006f.png",617.8787,432.8787 F,0,78050,78250,0,1 S,0,78250,,0.5 F,0,88280,88480,1,0
Sprite,Background,Centre,"sb\f2\005d.png",627.1287,433.6287 F,0,78050,78250,0,1 S,0,78250,,0.5 F,0,88280,88480,1,0
//Storyboard Layer 1 (Fail)
//Storyboard Layer 2 (Pass)
//Storyboard Layer 3 (Foreground)
//Storyboard Sound Samples

[TimingPoints]
578,346.820809248555,4,2,0,55,1,0
578,-100,4,2,0,55,0,0
924,-100,4,2,0,55,0,0
5346,-100,4,2,0,5,0,0
5433,-100,4,2,0,55,0,0
6473,-100,4,2,0,55,0,0
9508,-100,4,2,0,5,0,0
9595,-100,4,2,0,55,0,0
10895,-100,4,2,0,5,0,0
10982,-100,4,2,0,55,0,0
11676,-76.9230769230769,4,3,0,70,0,0
12023,-90.9090909090909,4,3,0,70,0,0
13063,-83.3333333333333,4,3,0,70,0,0
14450,-76.9230769230769,4,3,0,70,0,0
14797,-76.9230769230769,4,3,0,70,0,0
15144,-76.9230769230769,4,3,0,70,0,0
15838,-71.4285714285714,4,3,0,70,0,0
17225,-80,4,1,0,90,0,0
19306,-100,4,1,0,90,0,0
19653,-80,4,1,0,90,0,0
22774,-100,4,1,0,90,0,0
31098,-125,4,3,0,60,0,0
32485,-111.111111111111,4,3,0,70,0,0
33872,-100,4,3,0,80,0,0
35433,-100,4,3,0,30,0,0
35953,-100,4,1,0,75,0,0
36300,-100,4,1,0,100,0,0
36647,-76.9230769230769,4,1,1,75,0,1
61618,-62.5,4,3,0,60,0,0
66473,-83.3333333333333,4,3,0,80,0,0
66820,-62.5,4,3,0,80,0,0
67167,-83.3333333333333,4,2,0,50,0,0
71329,-83.3333333333333,4,3,0,70,0,0
72716,-76.9230769230769,4,1,1,75,0,1
86589,-55.5555555555556,4,3,0,55,0,0
88497,-200,4,3,0,55,0,0

[Colours]
Combo1 : 128,255,255
Combo2 : 128,0,255
Combo3 : 212,212,212
Combo4 : 74,74,74

[HitObjects]
450,95,578,5,8,0:0:0:0:
299,101,924,6,0,P|226:146|230:221,1,160
266,283,1445,2,0,L|356:307,1,80
379,154,1791,1,0,0:0:0:0:
300,181,1965,1,0,0:0:0:0:
435,216,2138,1,0,0:0:0:0:
296,162,2312,2,0,P|214:169|128:203,1,160
86,329,2832,1,0,0:0:0:0:
86,329,3005,6,0,L|72:241,1,80
60,170,3352,2,0,P|68:118|104:82,1,80
244,89,3699,2,0,L|332:103,1,80
377,164,4046,2,0,P|327:183|278:169,1,80
141,158,4393,1,0,0:0:0:0:
141,158,4566,1,0,0:0:0:0:
156,236,4739,6,0,P|174:285|217:312,1,80
314,259,5086,2,0,L|300:171,1,80
249,116,5433,2,0,P|285:99|325:101,1,80
381,162,5780,1,0,0:0:0:0:
436,281,5953,2,0,L|375:271,1,40
314,259,6127,6,2,B|271:253|271:253|233:272,1,80,2|0,0:0|0:0,0:0:0:0:
74,354,6473,2,0,L|88:266,1,80
156,236,6820,2,0,L|142:148,1,80
132,77,7167,1,0,0:0:0:0:
59,118,7341,5,0,0:0:0:0:
211,104,7514,1,0,0:0:0:0:
59,37,7687,1,0,0:0:0:0:
218,86,7861,2,0,P|284:133|342:206,1,160
227,287,8381,1,0,0:0:0:0:
227,287,8554,6,0,L|315:273,1,80
388,257,8901,2,0,P|416:213|414:162,1,80
310,27,9248,2,0,L|324:115,1,80
334,192,9595,2,0,P|281:189|238:216,1,80
187,239,9942,2,0,P|138:259|89:248,1,80
145,97,10288,6,0,L|131:185,1,80
15,326,10635,2,0,L|29:238,1,80
56,86,10982,2,0,B|31:118|31:118|51:156,1,80
105,323,11329,2,0,B|130:291|130:291|111:256,1,80
156,162,11676,1,8,0:0:0:0:
257,305,12023,6,0,P|309:311|358:285,1,88.000002685547
401,235,12369,2,0,L|406:139,1,88.000002685547
363,69,12716,2,0,P|322:51|279:54,1,88.000002685547
212,184,13063,5,0,0:0:0:0:
307,169,13236,1,0,0:0:0:0:
192,92,13410,2,0,P|152:111|96:108,1,95.9999970703126
58,227,13757,2,0,P|97:207|154:211,1,95.9999970703126
240,240,14104,1,0,0:0:0:0:
240,240,14277,1,0,0:0:0:0:
333,311,14450,6,0,P|357:239|322:155,1,155.999992858887
331,165,14797,2,0,L|223:169,1,103.999995239258
157,64,15144,2,0,P|217:76|265:64,1,103.999995239258
331,165,15491,2,0,B|348:216|348:216|324:268|324:268|344:316|324:364,1,207.999990478516,0|2,0:0|0:0,0:0:0:0:
232,317,16011,5,0,0:0:0:0:
134,262,16184,2,0,P|114:206|126:146,1,111.999996582031,2|0,0:0|0:0,0:0:0:0:
95,45,16531,2,0,B|151:65|151:65|223:53,1,111.999996582031,2|0,0:0|0:0,0:0:0:0:
336,159,16878,2,0,B|280:139|280:139|208:151,1,111.999996582031,10|0,0:0|0:0,0:0:0:0:
134,262,17225,6,0,L|252:240,1,100,4|0,0:0|0:0,0:0:0:0:
328,215,17572,1,0,0:0:0:0:
426,233,17745,6,0,L|308:211,1,100,8|0,0:0|0:0,0:0:0:0:
229,194,18092,1,0,0:0:0:0:
232,97,18265,6,0,P|220:145|232:201,1,100,4|0,0:0|0:0,0:0:0:0:
257,290,18612,1,0,0:0:0:0:
348,342,18786,2,0,P|360:294|348:238,1,100,4|0,0:0|0:0,0:0:0:0:
327,148,19132,1,0,0:0:0:0:
228,193,19306,5,0,0:0:0:0:
228,193,19479,1,0,0:0:0:0:
276,72,19653,6,0,P|324:60|380:72,1,100,4|0,0:0|0:0,0:0:0:0:
436,144,19999,2,0,L|428:248,1,100,4|0,0:0|0:0,0:0:0:0:
332,273,20346,1,0,0:0:0:0:
332,273,20520,2,0,L|340:169,1,100,8|0,0:0|0:0,0:0:0:0:
249,129,20867,1,0,0:0:0:0:
249,129,21041,2,0,L|241:233,1,100,4|0,0:0|0:0,0:0:0:0:
172,301,21387,5,0,0:0:0:0:
248,364,21560,1,8,0:0:0:0:
320,292,21734,2,0,P|376:304|428:292,1,100,8|0,0:0|0:0,0:0:0:0:
375,186,22080,6,2,L|295:182,2,66.6666666666667,0|0|0,0:0|0:0|0:0,0:0:0:0:
414,93,22427,2,0,L|300:88,1,100,8|0,0:0|0:0,0:0:0:0:
173,83,22774,5,10,0:0:0:0:
173,83,22947,1,10,0:0:0:0:
223,170,23121,6,0,P|229:255|158:308,1,160,0|10,0:0|0:0,0:0:0:0:
102,329,23641,1,10,0:0:0:0:
73,206,23814,2,0,L|161:220,1,80
221,168,24161,5,10,0:0:0:0:
221,168,24335,1,10,0:0:0:0:
346,75,24508,6,0,P|412:72|378:145,1,160
422,301,25028,2,0,L|408:213,1,80,10|0,0:0|0:0,0:0:0:0:
313,348,25375,1,10,0:0:0:0:
325,268,25549,5,10,0:0:0:0:
325,268,25722,1,10,0:0:0:0:
230,346,25895,2,0,B|187:343|187:343|142:332,1,80
0,290,26242,5,10,0:0:0:0:
0,290,26416,1,10,0:0:0:0:
119,248,26589,2,0,B|161:250|161:250|207:262,1,80
313,348,26936,1,10,0:0:0:0:
424,228,27109,5,2,0:0:0:0:
300,188,27283,1,2,0:0:0:0:
377,293,27456,1,2,0:0:0:0:
377,163,27630,1,2,0:0:0:0:
300,268,27803,1,2,0:0:0:0:
424,228,27976,2,0,P|453:183|451:132,1,80,10|0,0:0|0:0,0:0:0:0:
453,48,28323,5,10,0:0:0:0:
453,48,28497,1,10,0:0:0:0:
377,163,28670,6,0,P|292:169|239:98,1,160,0|10,0:0|0:0,0:0:0:0:
213,44,29190,1,10,0:0:0:0:
340,16,29364,2,0,L|326:104,1,80
244,118,29710,5,10,0:0:0:0:
244,118,29884,1,10,0:0:0:0:
320,264,30057,2,0,B|360:332|360:332|401:264,1,160
152,288,30578,2,0,L|240:274,1,80,10|0,0:0|0:0,0:0:0:0:
108,180,30924,1,10,0:0:0:0:
187,192,31098,6,0,B|221:187|221:187|260:163,1,64
302,110,31445,2,0,P|327:149|325:196,1,64,8|0,0:0|0:0,0:0:0:0:
293,245,31791,1,0,0:0:0:0:
189,109,31965,1,0,0:0:0:0:
187,192,32138,2,0,P|141:180|110:145,1,64,8|0,0:0|0:0,0:0:0:0:
9,96,32485,6,0,L|23:184,1,71.9999978027344
25,191,32745,1,0,0:0:0:0:
29,215,32832,1,8,0:0:0:0:
107,93,33005,1,0,0:0:0:0:
187,192,33179,2,0,L|250:202,3,35.9999989013672
272,203,33525,2,0,P|317:188|345:152,1,71.9999978027344,8|0,0:0|0:0,0:0:0:0:
401,43,33872,6,0,L|407:82,3,40
413,110,34219,1,8,0:0:0:0:
418,137,34306,1,0,0:0:0:0:
423,164,34393,1,0,0:0:0:0:
428,191,34479,1,0,0:0:0:0:
433,218,34566,2,0,L|426:257,3,40
416,300,34913,2,0,P|370:285|342:249,1,80,8|0,0:0|0:0,0:0:0:0:
186,105,35433,6,0,L|98:91,2,80
239,248,35953,1,0,0:0:0:0:
266,121,36127,1,0,0:0:0:0:
353,269,36300,1,10,0:0:0:0:
373,151,36473,1,0,0:0:0:0:
239,248,36647,6,0,P|160:264|72:184,1,207.999990478516,4|8,0:0|0:0,0:0:0:0:
180,147,37167,1,0,0:0:0:0:
316,203,37341,2,0,P|328:247|312:307,1,103.999995239258
209,250,37687,2,0,L|213:146,1,103.999995239258,8|0,0:0|0:0,0:0:0:0:
188,44,38034,6,0,B|240:60|240:60|292:52,1,103.999995239258
375,111,38381,1,8,0:0:0:0:
375,111,38554,1,0,0:0:0:0:
290,172,38728,2,0,B|238:156|238:156|186:164,1,103.999995239258
103,223,39075,2,0,P|95:275|111:323,1,103.999995239258,8|0,0:0|0:0,0:0:0:0:
207,359,39421,6,0,L|311:355,1,103.999995239258,4|0,0:0|0:0,0:0:0:0:
414,369,39768,2,0,P|397:320|406:269,1,103.999995239258,8|0,0:0|0:0,0:0:0:0:
439,170,40115,1,0,0:0:0:0:
439,170,40288,1,0,0:0:0:0:
337,193,40462,2,0,P|286:203|236:190,1,103.999995239258,8|0,0:0|0:0,0:0:0:0:
141,147,40809,6,0,L|129:259,1,103.999995239258,4|0,0:0|0:0,0:0:0:0:
91,69,41156,2,0,P|142:59|192:72,1,103.999995239258,8|0,0:0|0:0,0:0:0:0:
286,113,41502,1,0,0:0:0:0:
220,196,41676,1,0,0:0:0:0:
290,272,41849,2,0,L|402:276,1,103.999995239258,8|0,0:0|0:0,0:0:0:0:
339,170,42196,6,0,B|266:167|266:167|219:200|219:200|139:197,1,207.999990478516,4|8,0:0|0:0,0:0:0:0:
96,104,42716,1,0,0:0:0:0:
176,40,42890,2,0,P|228:52|280:40,1,103.999995239258
396,141,43236,2,0,P|344:129|292:141,1,103.999995239258,8|0,0:0|0:0,0:0:0:0:
205,192,43583,5,0,0:0:0:0:
205,192,43757,1,0,0:0:0:0:
274,268,43930,2,0,B|286:320|286:320|274:372,1,103.999995239258,8|0,0:0|0:0,0:0:0:0:
182,320,44277,2,0,P|134:328|78:316,1,103.999995239258
138,226,44624,2,0,L|242:222,1,103.999995239258,8|0,0:0|0:0,0:0:0:0:
318,157,44971,6,0,P|342:229|314:301,1,155.999992858887,4|0,0:0|0:0,0:0:0:0:
314,300,45317,2,0,B|266:312|266:312|210:300,1,103.999995239258,8|0,0:0|0:0,0:0:0:0:
116,264,45664,1,0,0:0:0:0:
240,220,45838,1,0,0:0:0:0:
164,332,46011,1,8,0:0:0:0:
164,196,46184,1,0,0:0:0:0:
244,312,46358,6,0,P|300:324|356:312,1,103.999995239258,12|0,0:0|0:0,0:0:0:0:
463,213,46705,2,0,P|407:225|351:213,1,103.999995239258,8|0,0:0|0:0,0:0:0:0:
252,106,47051,1,8,0:0:0:0:
247,133,47138,1,0,0:0:0:0:
242,160,47225,1,0,0:0:0:0:
237,187,47311,1,0,0:0:0:0:
231,217,47398,2,0,P|183:229|131:217,1,103.999995239258,8|0,0:0|0:0,0:0:0:0:
183,64,47745,6,0,P|321:65|325:138,1,207.999990478516,4|8,0:0|0:0,0:0:0:0:
338,188,48265,1,0,0:0:0:0:
186,186,48439,2,0,L|251:105,1,103.999995239258
413,142,48786,2,0,P|425:201|384:271,1,103.999995239258,8|0,0:0|0:0,0:0:0:0:
257,268,49132,6,0,B|201:267|201:267|135:293,1,103.999995239258,4|0,0:0|0:0,0:0:0:0:
28,224,49479,1,8,0:0:0:0:
44,327,49653,1,0,0:0:0:0:
220,186,49826,6,0,B|276:185|276:185|341:211,1,103.999995239258,4|0,0:0|0:0,0:0:0:0:
448,248,50173,2,0,L|468:123,1,103.999995239258,8|0,0:0|0:0,0:0:0:0:
253,105,50520,6,0,B|197:104|197:104|131:130,1,103.999995239258,4|0,0:0|0:0,0:0:0:0:
70,270,50867,2,0,P|157:237|233:260,1,155.999992858887,8|0,0:0|0:0,0:0:0:0:
257,268,51213,2,0,L|391:246,1,103.999995239258
401,137,51560,1,8,0:0:0:0:
304,175,51734,1,0,0:0:0:0:
425,317,51907,6,0,B|445:264|445:264|443:216,1,103.999995239258,4|0,0:0|0:0,0:0:0:0:
417,52,52254,2,0,P|366:60|326:92,1,103.999995239258,8|0,0:0|0:0,0:0:0:0:
257,262,52601,6,0,B|313:266|313:266|358:250,1,103.999995239258,4|0,0:0|0:0,0:0:0:0:
401,137,52947,1,8,0:0:0:0:
401,137,53121,1,0,0:0:0:0:
228,109,53294,6,0,B|189:114|169:143|169:143|133:137|133:137|98:186|34:186,1,207.999990478516,4|8,0:0|0:0,0:0:0:0:
50,95,53814,1,0,0:0:0:0:
164,228,53988,2,0,L|330:253,1,155.999992858887
364,257,54335,2,0,P|404:225|424:177,1,103.999995239258,8|0,0:0|0:0,0:0:0:0:
325,92,54682,1,0,0:0:0:0:
337,173,54855,1,0,0:0:0:0:
427,76,55028,2,0,L|324:91,1,103.999995239258,8|0,0:0|0:0,0:0:0:0:
158,129,55375,2,0,P|149:179|167:227,1,103.999995239258
337,173,55722,2,0,L|231:172,1,103.999995239258,8|0,0:0|0:0,0:0:0:0:
147,332,56069,6,0,B|196:305|196:305|267:298,1,103.999995239258,4|0,0:0|0:0,0:0:0:0:
429,293,56416,1,8,0:0:0:0:
389,377,56589,1,0,0:0:0:0:
301,213,56762,1,0,0:0:0:0:
341,297,56935,1,0,0:0:0:0:
434,123,57109,1,8,0:0:0:0:
394,207,57282,1,0,0:0:0:0:
227,145,57456,6,0,B|174:133|174:133|118:135,1,103.999995239258,12|2,0:0|0:0,0:0:0:0:
238,286,57803,2,0,B|290:297|290:297|346:295,1,103.999995239258,8|2,0:0|0:0,0:0:0:0:
268,61,58150,1,8,0:0:0:0:
296,212,58323,1,2,0:0:0:0:
363,71,58497,1,8,0:0:0:0:
227,145,58670,1,2,0:0:0:0:
382,166,58843,6,0,P|388:242|273:307,1,207.999990478516,4|8,0:0|0:0,0:0:0:0:
193,306,59364,1,0,0:0:0:0:
240,152,59537,1,0,0:0:0:0:
294,211,59710,1,0,0:0:0:0:
139,247,59884,1,8,0:0:0:0:
162,171,60057,1,0,0:0:0:0:
270,286,60231,6,0,P|317:286|373:211,1,103.999995239258,6|0,0:0|0:0,0:0:0:0:
338,30,60578,2,0,L|323:133,1,103.999995239258,10|0,0:0|0:0,0:0:0:0:
139,247,60924,1,2,0:0:0:0:
154,119,61098,2,0,L|162:171,1,51.999997619629,10|0,0:0|0:0,0:0:0:0:
219,230,61271,2,0,P|264:240|336:180,1,103.999995239258,2|8,0:0|0:0,0:0:0:0:
342,139,61618,5,0,0:0:0:0:
342,139,61792,1,0,0:0:0:0:
400,206,61965,1,8,0:0:0:0:
282,71,62138,1,8,0:0:0:0:
275,200,62485,5,0,0:0:0:0:
410,81,62658,1,8,0:0:0:0:
215,132,63005,5,0,0:0:0:0:
215,132,63179,1,0,0:0:0:0:
157,65,63352,1,8,0:0:0:0:
275,200,63525,1,8,0:0:0:0:
278,73,63872,5,0,0:0:0:0:
142,190,64045,1,8,0:0:0:0:
274,261,64393,5,0,0:0:0:0:
274,261,64567,1,0,0:0:0:0:
216,194,64740,1,8,0:0:0:0:
334,329,64913,1,8,0:0:0:0:
337,202,65260,5,0,0:0:0:0:
201,319,65433,1,8,0:0:0:0:
464,293,65780,5,0,0:0:0:0:
464,293,65953,1,0,0:0:0:0:
337,202,66127,1,8,0:0:0:0:
493,201,66300,1,8,0:0:0:0:
367,292,66473,6,2,L|316:328,2,47.9999985351563,0|0|0,0:0|0:0|0:0,0:0:0:0:
415,145,66820,6,0,P|356:108|288:120,1,128,8|0,0:0|0:0,0:0:0:0:
184,168,67167,5,2,0:0:0:0:
184,168,67341,1,2,0:0:0:0:
228,272,67514,2,0,P|276:284|324:272,1,95.9999970703126
324,105,67861,2,0,P|289:140|276:188,1,95.9999970703126
419,274,68208,2,0,P|405:226|371:190,1,95.9999970703126
308,292,68554,5,2,0:0:0:0:
308,292,68728,1,2,0:0:0:0:
237,226,68901,2,0,B|205:210|205:210|133:214,1,95.9999970703126
98,129,69248,2,0,L|225:121,1,95.9999970703126
230,13,69595,2,0,B|199:31|199:31|139:33,1,95.9999970703126
287,102,69942,5,2,0:0:0:0:
287,102,70115,1,2,0:0:0:0:
249,210,70288,2,0,P|197:222|137:206,1,95.9999970703126
198,105,70635,2,0,L|302:109,1,95.9999970703126
344,213,70982,2,0,L|240:209,1,95.9999970703126
132,214,71329,5,0,0:0:0:0:
127,187,71416,1,0,0:0:0:0:
122,160,71503,1,0,0:0:0:0:
117,133,71589,1,0,0:0:0:0:
112,106,71676,2,0,L|119:59,3,47.9999985351563
159,31,72023,5,8,0:0:0:0:
159,31,72196,1,8,0:0:0:0:
251,70,72716,6,0,B|287:89|287:89|320:264,1,207.999990478516,4|8,0:0|0:0,0:0:0:0:
335,334,73236,1,0,0:0:0:0:
398,208,73410,2,0,L|372:83,1,103.999995239258
208,146,73757,1,8,0:0:0:0:
252,224,73930,1,0,0:0:0:0:
255,74,74104,6,0,P|196:62|126:103,1,103.999995239258
145,203,74450,1,8,0:0:0:0:
295,147,74624,1,0,0:0:0:0:
139,175,74797,1,0,0:0:0:0:
299,175,74971,1,0,0:0:0:0:
144,148,75144,2,0,L|19:174,1,103.999995239258,8|0,0:0|0:0,0:0:0:0:
157,322,75491,6,0,B|209:302|209:302|261:255,1,103.999995239258,4|0,0:0|0:0,0:0:0:0:
53,248,75838,2,0,L|79:373,1,103.999995239258,8|0,0:0|0:0,0:0:0:0:
144,148,76184,2,0,L|122:46,1,103.999995239258
36,163,76531,1,8,0:0:0:0:
161,229,76705,1,0,0:0:0:0:
195,76,76878,6,0,P|136:64|66:105,1,103.999995239258,4|0,0:0|0:0,0:0:0:0:
53,248,77225,1,8,0:0:0:0:
148,143,77398,1,0,0:0:0:0:
73,261,77572,1,0,0:0:0:0:
127,129,77745,1,0,0:0:0:0:
97,266,77919,2,0,L|198:287,1,103.999995239258,8|0,0:0|0:0,0:0:0:0:
331,368,78265,6,0,B|328:295|328:295|361:248|361:248|358:168,1,207.999990478516,4|8,0:0|0:0,0:0:0:0:
275,75,78786,1,0,0:0:0:0:
164,185,78959,2,0,P|220:197|272:185,1,103.999995239258
72,129,79306,2,0,P|60:185|72:237,1,103.999995239258,8|0,0:0|0:0,0:0:0:0:
218,95,79653,5,0,0:0:0:0:
75,32,79826,1,0,0:0:0:0:
164,185,79999,2,0,P|220:197|272:185,1,103.999995239258,8|0,0:0|0:0,0:0:0:0:
407,121,80346,1,0,0:0:0:0:
265,187,80520,1,0,0:0:0:0:
318,40,80693,2,0,P|262:28|210:44,1,103.999995239258,8|0,0:0|0:0,0:0:0:0:
128,168,81040,6,0,L|240:164,1,103.999995239258,4|0,0:0|0:0,0:0:0:0:
320,293,81387,2,0,P|269:304|219:292,1,103.999995239258,8|0,0:0|0:0,0:0:0:0:
412,241,81734,2,0,P|423:291|411:341,1,103.999995239258
328,208,82080,1,8,0:0:0:0:
479,169,82254,1,0,0:0:0:0:
236,256,82427,6,0,P|225:206|237:156,1,103.999995239258,12|2,0:0|0:0,0:0:0:0:
390,14,82774,2,0,P|401:64|389:114,1,103.999995239258,8|2,0:0|0:0,0:0:0:0:
267,14,83121,1,8,0:0:0:0:
363,198,83294,1,10,0:0:0:0:
390,14,83468,5,8,0:0:0:0:
237,155,83641,1,10,0:0:0:0:
467,140,83814,6,0,P|479:192|467:248,1,103.999995239258
338,150,84161,2,0,B|296:164|296:164|234:154,1,103.999995239258,8|0,0:0|0:0,0:0:0:0:
132,268,84508,2,0,B|174:254|174:254|236:264,1,103.999995239258
335,278,84855,2,0,L|226:262,1,103.999995239258,8|0,0:0|0:0,0:0:0:0:
421,227,85202,6,0,P|437:283|417:339,1,103.999995239258,2|0,0:0|0:0,0:0:0:0:
270,185,85549,2,0,P|254:129|274:73,1,103.999995239258,10|0,0:0|0:0,0:0:0:0:
340,280,85895,1,2,0:0:0:0:
307,295,85981,1,0,0:0:0:0:
271,300,86068,1,10,0:0:0:0:
235,294,86155,1,0,0:0:0:0:
203,277,86241,1,2,0:0:0:0:
112,188,86416,1,8,0:0:0:0:
291,69,86589,5,0,0:0:0:0:
291,69,86762,1,0,0:0:0:0:
380,217,86936,5,8,0:0:0:0:
380,217,87109,1,8,0:0:0:0:
399,86,87456,5,0,0:0:0:0:
263,194,87630,1,8,0:0:0:0:
146,171,87976,5,0,0:0:0:0:
146,171,88149,1,0,0:0:0:0:
127,302,88323,1,8,0:0:0:0:
263,194,88497,5,8,0:0:0:0:
