osu file format v14

[General]
AudioFilename: audio.mp3
AudioLeadIn: 0
PreviewTime: 35936
Countdown: 1
SampleSet: None
StackLeniency: 0.7
Mode: 0
LetterboxInBreaks: 0
WidescreenStoryboard: 1

[Editor]
DistanceSpacing: 1
BeatDivisor: 4
GridSize: 32
TimelineZoom: 3.3

[Metadata]
Title:Speaking
TitleUnicode:Speaking
Artist:Mrs. GREEN APPLE
ArtistUnicode:Mrs. GREEN APPLE
Creator:Mykaterasu
Version:Insane
Source:遊☆戯☆王 ARC-V
Tags:[Kergio] Ending ED Four 4 Yu-Gi-Oh! スピーキング ミセスグリーンアップル yugioh Motoki Oomori 大森元貴
BeatmapID:1374630
BeatmapSetID:633499

[Difficulty]
HPDrainRate:6
CircleSize:3.6
OverallDifficulty:7.6
ApproachRate:9
SliderMultiplier:1.6
SliderTickRate:1

[Events]
//Background and Video events
0,0,"prt.png",0,0
Video,-2,"spkn.mp4"
//Break Periods
//Storyboard Layer 0 (Background)
//Storyboard Layer 1 (Fail)
//Storyboard Layer 2 (Pass)
//Storyboard Layer 3 (Foreground)
//Storyboard Sound Samples

[TimingPoints]
578,346.820809248555,4,2,0,55,1,0
578,-133.333333333333,4,2,0,55,0,0
924,-100,4,2,0,55,0,0
5346,-100,4,2,0,5,0,0
5433,-100,4,2,0,55,0,0
6127,-133.333333333333,4,2,0,55,0,0
6473,-100,4,2,0,55,0,0
9508,-100,4,2,0,5,0,0
9595,-100,4,2,0,55,0,0
10895,-100,4,2,0,5,0,0
10982,-100,4,2,0,55,0,0
11676,-76.9230769230769,4,3,0,70,0,0
12023,-90.9090909090909,4,3,0,70,0,0
13063,-83.3333333333333,4,3,0,70,0,0
14450,-76.9230769230769,4,3,0,70,0,0
15838,-83.3333333333333,4,3,0,70,0,0
16531,-90.9090909090909,4,3,0,70,0,0
17225,-80,4,1,0,90,0,0
19306,-100,4,1,0,90,0,0
19653,-80,4,1,0,90,0,0
22774,-100,4,1,0,90,0,0
23381,-100,4,1,0,5,0,0
23468,-100,4,1,0,90,0,0
28930,-100,4,1,0,5,0,0
29017,-100,4,1,0,90,0,0
31098,-133.333333333333,4,3,0,60,0,0
32485,-111.111111111111,4,3,0,70,0,0
33872,-100,4,3,0,80,0,0
34566,-83.3333333333333,4,3,0,90,0,0
35953,-100,4,1,0,75,0,0
36300,-100,4,1,0,100,0,0
36647,-76.9230769230769,4,1,1,75,0,1
61618,-62.5,4,3,0,60,0,0
66473,-133.333333333333,4,3,0,80,0,0
66820,-62.5,4,3,0,80,0,0
67167,-83.3333333333333,4,2,0,50,0,0
71329,-83.3333333333333,4,3,0,70,0,0
72716,-76.9230769230769,4,1,1,75,0,1
86589,-55.5555555555556,4,3,0,55,0,0
88497,-200,4,3,0,55,0,0

[Colours]
Combo1 : 128,255,255
Combo2 : 128,0,255
Combo3 : 212,212,212
Combo4 : 74,74,74

[HitObjects]
43,106,578,6,0,P|88:97|117:71,1,60.0000022888184,8|0,0:0|0:0,0:0:0:0:
155,37,924,6,0,P|174:75|159:143,1,80
175,258,1271,1,0,0:0:0:0:
175,258,1445,2,0,P|156:220|171:152,1,80
240,59,1791,1,0,0:0:0:0:
310,96,1965,1,0,0:0:0:0:
243,139,2138,1,0,0:0:0:0:
379,54,2312,2,0,L|393:142,1,80
333,207,2658,2,0,L|319:295,1,80
151,334,3005,5,0,0:0:0:0:
151,255,3178,1,0,0:0:0:0:
222,294,3352,2,0,L|236:206,1,80
310,96,3699,1,0,0:0:0:0:
376,323,4046,2,0,L|288:337,1,80
221,214,4393,1,0,0:0:0:0:
221,214,4566,1,0,0:0:0:0:
221,214,4739,6,0,L|309:228,1,80
375,233,5086,2,0,P|422:210|437:140,1,120
433,108,5433,2,0,L|419:20,1,80
353,80,5780,2,0,L|365:159,1,80
479,217,6127,6,2,P|462:259|469:298,1,60.0000022888184,2|0,0:0|0:0,0:0:0:0:
478,349,6473,6,0,P|435:344|385:296,1,80
280,248,6820,1,0,0:0:0:0:
280,248,6994,2,0,P|322:252|372:300,1,80
230,376,7341,1,0,0:0:0:0:
216,299,7515,1,0,0:0:0:0:
291,325,7688,1,0,0:0:0:0:
157,350,7861,2,0,L|77:337,1,80
201,222,8208,2,0,L|121:234,1,80
46,69,8554,1,0,0:0:0:0:
46,69,8728,1,0,0:0:0:0:
46,69,8901,6,0,L|125:84,1,80
293,37,9248,2,0,P|340:60|355:130,1,120
350,161,9595,1,0,0:0:0:0:
230,376,9942,2,0,L|216:297,1,80
281,113,10288,6,0,P|239:107|179:142,1,80
31,207,10635,2,0,P|70:239|140:230,1,120
169,216,10982,2,2,L|211:193,2,40,2|0|0,0:0|0:0|0:0,0:0:0:0:
110,89,11329,2,0,L|96:168,1,80
271,162,11676,6,2,B|324:139|324:139|372:164,1,103.999995239258,12|0,0:0|0:0,0:0:0:0:
220,277,12023,6,0,P|182:296|114:281,1,88.000002685547
167,220,12369,2,0,P|131:196|110:130,1,88.000002685547
189,143,12716,2,0,P|191:100|238:49,1,88.000002685547
264,123,13063,6,0,L|361:105,1,95.9999970703126
442,199,13410,2,0,L|344:181,1,95.9999970703126
264,275,13757,2,0,L|361:257,1,95.9999970703126
442,351,14104,2,0,L|344:333,1,95.9999970703126
191,301,14450,6,0,B|137:293|137:293|84:328,1,103.999995239258
8,182,14797,2,0,B|62:174|62:174|115:209,1,103.999995239258
156,372,15144,1,0,0:0:0:0:
45,255,15317,1,0,0:0:0:0:
274,153,15491,6,2,B|278:186|278:186|272:207|272:207|275:236|275:236|264:268|264:268|282:316|248:358,1,207.999990478516,0|2,0:0|0:0,0:0:0:0:
191,301,16011,1,0,0:0:0:0:
344,342,16184,2,0,P|425:324|443:233,1,143.999995605469,2|0,0:0|0:0,0:0:0:0:
438,197,16531,2,0,L|416:83,2,88.000002685547,2|0|2,0:0|0:0|0:0,0:0:0:0:
405,30,17225,6,0,L|291:51,1,100,4|0,0:0|0:0,0:0:0:0:
227,63,17572,1,0,0:0:0:0:
353,157,17745,6,0,L|239:135,1,100,8|0,0:0|0:0,0:0:0:0:
175,124,18092,1,0,0:0:0:0:
23,234,18265,6,0,L|136:212,1,100,4|0,0:0|0:0,0:0:0:0:
201,201,18612,1,0,0:0:0:0:
87,302,18786,6,0,L|200:323,1,100,4|0,0:0|0:0,0:0:0:0:
265,335,19133,1,0,0:0:0:0:
444,292,19306,6,0,P|473:239|455:142,1,160,8|4,0:0|0:0,0:0:0:0:
208,30,19826,1,0,0:0:0:0:
208,30,19999,6,0,P|184:74|191:165,1,100,4|0,0:0|0:0,0:0:0:0:
193,202,20346,1,0,0:0:0:0:
400,251,20520,6,0,P|373:208|291:168,1,100,8|0,0:0|0:0,0:0:0:0:
258,152,20867,1,0,0:0:0:0:
117,308,21040,6,0,P|167:306|242:255,1,100,4|0,0:0|0:0,0:0:0:0:
273,234,21387,1,0,0:0:0:0:
120,175,21560,5,8,0:0:0:0:
44,201,21734,2,0,L|-38:232,2,50,8|0|0,0:0|0:0|0:0,0:0:0:0:
117,308,22080,1,0,0:0:0:0:
141,309,22166,1,0,0:0:0:0:
166,306,22253,1,0,0:0:0:0:
190,298,22340,1,0,0:0:0:0:
211,285,22427,2,0,L|240:155,1,100,8|0,0:0|0:0,0:0:0:0:
302,41,22774,5,10,0:0:0:0:
302,41,22947,1,10,0:0:0:0:
440,161,23121,2,0,P|459:218|450:313,1,120
455,317,23468,5,10,0:0:0:0:
455,317,23641,1,10,0:0:0:0:
292,283,23814,1,0,0:0:0:0:
454,240,23988,1,0,0:0:0:0:
349,342,24161,5,10,0:0:0:0:
349,342,24335,1,10,0:0:0:0:
407,179,24508,2,0,B|418:138|418:138|396:91,1,80
201,45,24855,5,0,0:0:0:0:
338,144,25028,1,10,0:0:0:0:
192,120,25202,1,0,0:0:0:0:
338,144,25375,1,10,0:0:0:0:
183,195,25549,5,10,0:0:0:0:
183,195,25722,1,10,0:0:0:0:
121,144,25895,2,0,P|119:92|159:52,1,80
255,164,26242,1,10,0:0:0:0:
255,164,26415,1,10,0:0:0:0:
317,215,26588,2,0,P|318:266|278:306,1,80
233,329,26936,5,10,0:0:0:0:
31,204,27109,1,0,0:0:0:0:
42,283,27283,1,0,0:0:0:0:
96,153,27456,1,0,0:0:0:0:
107,232,27630,1,0,0:0:0:0:
161,102,27803,1,0,0:0:0:0:
172,181,27976,2,0,P|188:243|146:308,1,120,12|0,0:0|0:0,0:0:0:0:
136,319,28323,5,10,0:0:0:0:
136,319,28497,1,10,0:0:0:0:
276,151,28670,2,0,P|336:140|428:164,1,120
432,162,29017,5,10,0:0:0:0:
432,162,29190,1,10,0:0:0:0:
398,325,29363,1,0,0:0:0:0:
355,163,29537,1,0,0:0:0:0:
457,268,29710,5,10,0:0:0:0:
457,268,29884,1,10,0:0:0:0:
293,207,30057,2,0,B|252:196|252:196|205:218,1,80
37,358,30404,5,0,0:0:0:0:
58,201,30578,1,10,0:0:0:0:
112,346,30751,1,0,0:0:0:0:
58,201,30924,1,10,0:0:0:0:
187,334,31098,5,0,0:0:0:0:
187,334,31271,1,0,0:0:0:0:
219,207,31445,1,8,0:0:0:0:
245,280,31618,1,0,0:0:0:0:
136,274,31791,5,0,0:0:0:0:
136,274,31964,1,0,0:0:0:0:
98,144,32138,1,8,0:0:0:0:
80,219,32311,1,0,0:0:0:0:
177,144,32485,6,0,P|238:134|289:176,1,107.999996704102
299,183,32832,1,8,0:0:0:0:
343,59,33005,1,0,0:0:0:0:
470,136,33179,6,0,L|436:147,3,35.9999989013672
419,154,33525,1,8,0:0:0:0:
406,166,33612,1,0,0:0:0:0:
398,182,33699,1,0,0:0:0:0:
393,199,33786,1,0,0:0:0:0:
392,218,33872,6,0,L|400:270,3,40
378,255,34219,2,0,L|370:307,3,40
350,274,34566,1,0,0:0:0:0:
331,280,34653,1,0,0:0:0:0:
312,284,34739,1,0,0:0:0:0:
292,285,34826,1,0,0:0:0:0:
272,285,34913,2,0,L|168:273,1,95.9999970703126
176,273,35953,5,0,0:0:0:0:
176,273,36127,1,0,0:0:0:0:
127,42,36300,5,8,0:0:0:0:
387,206,36647,6,0,P|302:240|283:233,1,103.999995239258,4|0,0:0|0:0,0:0:0:0:
168,107,36994,2,0,P|239:163|243:183,1,103.999995239258,8|0,0:0|0:0,0:0:0:0:
192,347,37341,2,0,P|205:256|220:243,1,103.999995239258
426,278,37687,1,8,0:0:0:0:
268,315,37861,1,0,0:0:0:0:
321,163,38034,6,0,L|438:144,1,103.999995239258
408,358,38381,1,8,0:0:0:0:
294,237,38554,1,0,0:0:0:0:
427,149,38728,1,0,0:0:0:0:
348,298,38901,1,0,0:0:0:0:
243,176,39075,2,0,L|126:195,1,103.999995239258,8|0,0:0|0:0,0:0:0:0:
9,58,39421,6,0,P|94:24|113:31,1,103.999995239258,4|0,0:0|0:0,0:0:0:0:
57,204,39768,2,0,L|76:87,1,103.999995239258,8|0,0:0|0:0,0:0:0:0:
151,274,40115,2,0,L|167:376,1,103.999995239258
40,285,40462,1,8,0:0:0:0:
140,192,40635,1,0,0:0:0:0:
219,320,40809,6,0,P|133:353|114:346,1,103.999995239258,4|0,0:0|0:0,0:0:0:0:
57,204,41156,1,8,0:0:0:0:
153,86,41329,1,0,0:0:0:0:
216,222,41502,1,0,0:0:0:0:
81,124,41676,1,0,0:0:0:0:
225,49,41849,2,0,L|327:65,1,103.999995239258,8|0,0:0|0:0,0:0:0:0:
423,210,42196,6,0,B|424:176|424:176|417:156|417:156|418:127|418:127|405:95|405:95|419:46|382:7,2,207.999990478516,4|8|0,0:0|0:0|0:0,0:0:0:0:
163,93,43063,1,0,0:0:0:0:
163,93,43236,2,0,L|179:195,1,103.999995239258,8|0,0:0|0:0,0:0:0:0:
335,321,43583,5,0,0:0:0:0:
254,181,43757,1,0,0:0:0:0:
155,308,43930,2,0,L|257:292,1,103.999995239258,8|0,0:0|0:0,0:0:0:0:
416,185,44277,1,0,0:0:0:0:
259,93,44450,1,0,0:0:0:0:
319,244,44624,2,0,L|335:142,1,103.999995239258,8|0,0:0|0:0,0:0:0:0:
140,98,44971,6,0,P|68:155|64:175,1,103.999995239258,4|0,0:0|0:0,0:0:0:0:
258,292,45317,1,8,0:0:0:0:
146,176,45491,1,0,0:0:0:0:
109,339,45664,2,0,L|211:355,1,103.999995239258
332,147,46011,1,8,0:0:0:0:
209,231,46184,1,0,0:0:0:0:
350,296,46358,5,12,0:0:0:0:
188,119,46531,1,2,0:0:0:0:
216,357,46705,5,8,0:0:0:0:
332,147,46878,1,2,0:0:0:0:
116,248,47051,5,8,0:0:0:0:
350,296,47225,1,2,0:0:0:0:
188,119,47398,5,8,0:0:0:0:
216,357,47572,1,2,0:0:0:0:
332,147,47745,6,2,P|328:122|188:120,2,207.999990478516,4|8|0,0:0|0:0|0:0,0:0:0:0:
183,296,48612,1,0,0:0:0:0:
183,296,48786,1,8,0:0:0:0:
257,146,48960,1,0,0:0:0:0:
265,303,49132,6,0,P|206:373|186:377,1,103.999995239258,4|0,0:0|0:0,0:0:0:0:
54,206,49479,1,8,0:0:0:0:
221,221,49653,1,0,0:0:0:0:
125,356,49826,1,4,0:0:0:0:
141,212,49999,1,0,0:0:0:0:
265,303,50173,2,0,L|152:288,1,103.999995239258,8|0,0:0|0:0,0:0:0:0:
163,53,50520,6,0,P|254:55|270:68,1,103.999995239258,4|0,0:0|0:0,0:0:0:0:
221,221,50867,2,0,L|206:108,1,103.999995239258,8|0,0:0|0:0,0:0:0:0:
346,261,51213,2,0,L|331:374,1,103.999995239258
141,212,51560,1,8,0:0:0:0:
288,133,51734,1,0,0:0:0:0:
267,286,51907,6,0,P|217:300|169:283,1,103.999995239258,4|0,0:0|0:0,0:0:0:0:
104,131,52254,2,0,L|217:116,1,103.999995239258,8|0,0:0|0:0,0:0:0:0:
324,234,52601,1,4,0:0:0:0:
169,283,52774,1,0,0:0:0:0:
207,117,52947,2,0,L|222:230,1,103.999995239258,8|0,0:0|0:0,0:0:0:0:
398,296,53294,6,2,B|405:229|405:229|385:87,2,207.999990478516,4|8|0,0:0|0:0|0:0,0:0:0:0:
303,356,54161,1,0,0:0:0:0:
303,356,54335,2,0,L|318:243,1,103.999995239258,8|0,0:0|0:0,0:0:0:0:
63,163,54682,1,0,0:0:0:0:
92,328,54855,1,0,0:0:0:0:
220,220,55028,2,0,L|104:241,1,103.999995239258,8|0,0:0|0:0,0:0:0:0:
303,356,55375,1,0,0:0:0:0:
351,196,55549,1,0,0:0:0:0:
219,297,55722,2,0,L|321:278,1,103.999995239258,8|0,0:0|0:0,0:0:0:0:
474,100,56069,6,0,P|422:90|376:111,1,103.999995239258,4|0,0:0|0:0,0:0:0:0:
321,278,56416,1,8,0:0:0:0:
433,168,56589,1,0,0:0:0:0:
305,61,56762,2,0,L|286:163,1,103.999995239258
495,227,57109,1,8,0:0:0:0:
376,111,57283,1,0,0:0:0:0:
321,274,57456,5,12,0:0:0:0:
501,116,57629,1,2,0:0:0:0:
263,135,57803,5,8,0:0:0:0:
470,258,57976,1,2,0:0:0:0:
376,39,58149,5,8,0:0:0:0:
321,274,58323,1,2,0:0:0:0:
501,116,58496,5,8,0:0:0:0:
263,135,58670,1,2,0:0:0:0:
470,258,58843,6,0,P|480:310|459:356,1,103.999995239258,4|0,0:0|0:0,0:0:0:0:
261,215,59190,1,8,0:0:0:0:
401,297,59364,1,0,0:0:0:0:
259,377,59537,1,0,0:0:0:0:
259,377,59710,1,0,0:0:0:0:
332,253,59884,1,8,0:0:0:0:
334,345,60057,1,0,0:0:0:0:
259,298,60231,6,0,P|209:278|181:236,1,103.999995239258,6|0,0:0|0:0,0:0:0:0:
321,138,60578,2,0,P|301:187|259:215,1,103.999995239258,10|0,0:0|0:0,0:0:0:0:
161,76,60924,2,0,P|210:95|238:137,1,103.999995239258,2|8,0:0|0:0,0:0:0:0:
99,236,61271,2,0,P|118:186|160:158,1,103.999995239258,10|0,0:0|0:0,0:0:0:0:
260,214,61618,5,0,0:0:0:0:
260,214,61791,1,0,0:0:0:0:
183,232,61965,1,8,0:0:0:0:
337,197,62138,1,8,0:0:0:0:
181,218,62485,1,0,0:0:0:0:
338,210,62658,1,8,0:0:0:0:
238,323,63005,5,0,0:0:0:0:
238,323,63178,1,0,0:0:0:0:
170,363,63352,1,8,0:0:0:0:
305,283,63525,1,8,0:0:0:0:
160,337,63872,1,0,0:0:0:0:
314,308,64045,1,8,0:0:0:0:
112,232,64393,5,0,0:0:0:0:
112,232,64566,1,0,0:0:0:0:
39,201,64740,1,8,0:0:0:0:
184,261,64913,1,8,0:0:0:0:
63,168,65260,1,0,0:0:0:0:
159,293,65433,1,8,0:0:0:0:
212,127,65780,5,0,0:0:0:0:
212,127,65953,1,0,0:0:0:0:
285,96,66127,1,8,0:0:0:0:
140,156,66300,1,8,0:0:0:0:
280,176,66473,2,2,L|309:192,2,30.0000011444092
146,78,66820,1,8,0:0:0:0:
202,206,66994,1,0,0:0:0:0:
67,181,67167,5,2,0:0:0:0:
67,181,67341,1,2,0:0:0:0:
212,127,67514,5,0,0:0:0:0:
365,134,67861,1,0,0:0:0:0:
212,141,68208,1,0,0:0:0:0:
295,270,68554,5,2,0:0:0:0:
295,270,68728,1,2,0:0:0:0:
289,116,68901,5,0,0:0:0:0:
132,166,69248,1,0,0:0:0:0:
169,16,69595,1,0,0:0:0:0:
217,161,69942,5,2,0:0:0:0:
217,161,70115,1,2,0:0:0:0:
357,68,70288,5,0,0:0:0:0:
423,206,70635,1,0,0:0:0:0:
488,344,70982,1,0,0:0:0:0:
336,332,71329,5,8,0:0:0:0:
321,330,71416,1,8,0:0:0:0:
301,330,71502,1,8,0:0:0:0:
277,333,71589,1,8,0:0:0:0:
249,342,71676,5,8,0:0:0:0:
216,350,71762,1,8,0:0:0:0:
177,352,71849,1,8,0:0:0:0:
133,346,71936,1,8,0:0:0:0:
88,326,72023,6,0,L|-16:268,1,95.9999970703126,8|8,0:0|0:0,0:0:0:0:
4,279,72716,6,0,P|82:238|184:312,1,207.999990478516,4|8,0:0|0:0,0:0:0:0:
212,370,73236,1,0,0:0:0:0:
377,345,73410,2,0,L|494:326,1,103.999995239258
274,193,73757,1,8,0:0:0:0:
295,358,73930,1,0,0:0:0:0:
428,257,74104,6,0,P|358:197|338:197,1,103.999995239258
194,188,74450,1,8,0:0:0:0:
351,276,74624,1,0,0:0:0:0:
319,113,74797,1,0,0:0:0:0:
270,272,74971,1,0,0:0:0:0:
238,109,75144,2,0,L|121:90,1,103.999995239258,8|0,0:0|0:0,0:0:0:0:
50,261,75491,6,0,P|136:230|146:213,1,103.999995239258,4|0,0:0|0:0,0:0:0:0:
58,83,75838,2,0,L|77:200,1,103.999995239258,8|0,0:0|0:0,0:0:0:0:
123,327,76184,2,0,L|142:210,1,103.999995239258
136,67,76531,1,8,0:0:0:0:
0,197,76705,1,0,0:0:0:0:
191,282,76878,6,0,P|208:192|197:174,1,103.999995239258,4|0,0:0|0:0,0:0:0:0:
58,83,77225,1,8,0:0:0:0:
139,224,77398,1,0,0:0:0:0:
221,84,77572,1,0,0:0:0:0:
96,155,77745,1,0,0:0:0:0:
220,228,77919,2,0,L|337:209,1,103.999995239258,8|0,0:0|0:0,0:0:0:0:
374,46,78265,6,0,B|373:98|373:98|400:199|400:199|398:254,2,207.999990478516,4|8|0,0:0|0:0|0:0,0:0:0:0:
453,87,79132,1,0,0:0:0:0:
318,208,79306,2,0,L|201:189,1,103.999995239258,8|0,0:0|0:0,0:0:0:0:
302,38,79653,1,0,0:0:0:0:
385,145,79826,1,0,0:0:0:0:
215,191,79999,2,0,L|196:74,1,103.999995239258,8|0,0:0|0:0,0:0:0:0:
402,233,80346,1,0,0:0:0:0:
230,269,80520,1,0,0:0:0:0:
282,115,80693,2,0,L|301:232,1,103.999995239258,8|0,0:0|0:0,0:0:0:0:
57,230,81040,6,0,P|39:140|50:122,1,103.999995239258,4|0,0:0|0:0,0:0:0:0:
215,191,81387,2,0,L|98:172,1,103.999995239258,8|0,0:0|0:0,0:0:0:0:
201,111,81734,1,0,0:0:0:0:
358,164,81907,1,0,0:0:0:0:
230,269,82080,1,8,0:0:0:0:
287,112,82254,1,0,0:0:0:0:
395,240,82427,5,12,0:0:0:0:
215,191,82601,1,2,0:0:0:0:
330,286,82774,5,8,0:0:0:0:
150,237,82948,1,2,0:0:0:0:
265,332,83121,5,8,0:0:0:0:
85,283,83295,1,2,0:0:0:0:
200,378,83468,5,8,0:0:0:0:
20,329,83642,1,2,0:0:0:0:
122,162,83814,6,0,P|210:185|222:203,1,103.999995239258,4|0,0:0|0:0,0:0:0:0:
92,363,84161,1,8,0:0:0:0:
150,237,84335,1,0,0:0:0:0:
230,350,84508,1,0,0:0:0:0:
77,281,84682,1,0,0:0:0:0:
224,269,84855,1,8,0:0:0:0:
156,316,85028,1,0,0:0:0:0:
150,237,85202,6,0,P|139:182|113:119,1,103.999995239258,6|0,0:0|0:0,0:0:0:0:
184,29,85549,2,0,P|195:84|221:147,1,103.999995239258,10|0,0:0|0:0,0:0:0:0:
312,268,85895,2,0,P|302:217|284:169,1,103.999995239258,2|8,0:0|0:0,0:0:0:0:
346,61,86242,2,0,P|355:112|373:160,1,103.999995239258,10|0,0:0|0:0,0:0:0:0:
417,232,86589,5,0,0:0:0:0:
417,232,86762,1,0,0:0:0:0:
284,169,86936,5,8,0:0:0:0:
284,169,87109,1,8,0:0:0:0:
353,278,87456,5,0,0:0:0:0:
349,124,87630,1,8,0:0:0:0:
281,314,87976,5,0,0:0:0:0:
281,314,88149,1,0,0:0:0:0:
148,251,88323,5,8,0:0:0:0:
148,251,88496,1,8,0:0:0:0:
