osu file format v14

[General]
AudioFilename: audio.mp3
AudioLeadIn: 0
PreviewTime: -1
Countdown: 1
SampleSet: None
StackLeniency: 0.7
Mode: 0
LetterboxInBreaks: 0
WidescreenStoryboard: 1

[Editor]
DistanceSpacing: 1
BeatDivisor: 4
GridSize: 32
TimelineZoom: 1

[Metadata]
Title:On My Mind (TV Size)
TitleUnicode:On My Mind (TV Size)
Artist:Mrs. GREEN APPLE
ArtistUnicode:Mrs. GREEN APPLE
Creator:Zenkito
Version:Hard
Source:Nana Maru San Batsu
Tags:
BeatmapID:1464450
BeatmapSetID:691948

[Difficulty]
HPDrainRate:7
CircleSize:3
OverallDifficulty:6
ApproachRate:7
SliderMultiplier:1.4
SliderTickRate:1

[Events]
//Background and Video events
0,0,"nana-maru-portada.png",0,0
//Break Periods
//Storyboard Layer 0 (Background)
//Storyboard Layer 1 (Fail)
//Storyboard Layer 2 (Pass)
//Storyboard Layer 3 (Foreground)
//Storyboard Sound Samples

[TimingPoints]
464.079659017151,428.283866546747,4,3,0,70,1,0
571,-55.5555555555556,4,3,0,100,0,0
2721,-100,4,3,0,69,0,0
43613,-133.333333333333,4,3,0,100,0,0
44017,-100,4,1,0,65,0,1
46436,-100,4,3,0,80,0,1
74877,-100,4,3,0,70,0,0

[Colours]
Combo1 : 255,255,40
Combo2 : 0,193,193
Combo3 : 18,124,255
Combo4 : 220,12,43

[HitObjects]
0,64,678,6,0,L|128:64,10,105
0,64,2819,1,0,0:0:0:0:
27,301,3140,2,0,L|102:190,1,105
144,137,3783,2,0,P|176:73|257:68,1,140
332,179,4532,1,0,0:0:0:0:
332,179,4746,1,0,0:0:0:0:
378,60,5282,6,0,L|208:60,1,140
152,77,6031,2,0,L|56:141,1,105
66,219,6674,2,0,L|144:219,2,70
320,224,8066,6,0,L|160:224,1,140
96,224,8708,1,0,0:0:0:0:
96,224,8922,1,0,0:0:0:0:
198,145,9243,2,0,L|326:145,1,105
389,146,9886,1,0,0:0:0:0:
301,62,10207,2,0,L|173:62,1,105
116,69,10849,2,0,P|84:101|84:141,1,70
87,228,11385,2,0,B|156:210|162:202|179:136|209:162|216:147,1,140
139,168,12777,6,0,L|197:166,3,35
263,145,13526,2,0,P|277:100|325:71,1,105
412,117,14169,1,0,0:0:0:0:
431,202,14490,2,0,L|445:313,1,105
343,321,15132,1,0,0:0:0:0:
234,261,15454,1,0,0:0:0:0:
107,328,15775,1,0,0:0:0:0:
8,211,16096,6,0,L|103:88,1,140
181,97,16845,2,0,L|325:98,1,140
186,231,17595,1,0,0:0:0:0:
262,316,17809,1,0,0:0:0:0:
383,297,18130,2,0,L|383:161,1,105
317,79,18773,1,0,0:0:0:0:
152,65,19094,1,0,0:0:0:0:
113,167,19415,1,0,0:0:0:0:
155,277,19736,2,0,L|264:225,3,105
252,175,21128,6,0,L|252:111,8,35
256,256,22154,6,0,L|320:256,8,35
170,227,23377,2,0,L|121:196,1,35
81,38,24019,2,0,L|247:101,1,175
356,73,24876,1,0,0:0:0:0:
352,160,25312,2,0,L|352:320,2,140
239,212,26482,1,0,0:0:0:0:
178,221,26682,1,0,0:0:0:0:
78,278,27124,2,0,P|81:217|78:150,1,105
132,96,28088,6,0,P|161:14|223:15,1,140
271,80,28730,1,0,0:0:0:0:
308,186,29052,2,0,P|335:300|360:303,1,140
436,297,29694,1,0,0:0:0:0:
433,207,30015,2,0,L|429:97,1,105
303,66,30765,6,0,L|146:170,1,175
181,255,31621,2,0,L|243:300,1,70
331,293,32371,1,0,0:0:0:0:
422,286,32585,1,0,0:0:0:0:
419,206,32799,2,0,L|381:170,11,35
318,210,34298,6,0,L|158:210,1,140
96,211,34940,1,0,0:0:0:0:
189,135,35369,2,0,L|317:135,1,105
380,141,36011,1,0,0:0:0:0:
332,58,36332,2,0,P|218:24|65:70,1,280
0,288,38478,6,0,L|128:288,1,105
128,192,38973,2,0,P|224:96|320:192,1,280
288,256,40080,1,0,0:0:0:0:
384,320,40294,2,0,P|480:320|512:256,1,175
428,181,41043,1,0,0:0:0:0:
423,122,41258,1,0,0:0:0:0:
320,96,41579,2,0,L|14:211,1,315
101,287,42864,2,0,L|163:286,5,35
288,224,43720,6,0,L|288:160,2,35
309,85,44363,1,0,0:0:0:0:
309,85,44470,2,0,P|160:64|128:96,1,210
128,224,45433,1,0,0:0:0:0:
128,224,45540,2,0,P|224:288|320:224,1,245
320,128,46611,6,0,L|224:128,1,70
160,128,47147,1,0,0:0:0:0:
160,128,47254,1,0,0:0:0:0:
64,160,47682,2,0,L|64:288,1,105
64,320,48217,1,0,0:0:0:0:
128,352,48431,2,0,L|256:352,1,105
320,288,48967,2,0,L|320:224,1,35
256,224,49288,1,0,0:0:0:0:
128,192,49716,1,0,0:0:0:0:
192,160,49930,1,0,0:0:0:0:
64,224,50617,5,0,0:0:0:0:
96,160,50846,2,0,P|288:96|320:128,1,280
384,64,51683,1,0,0:0:0:0:
384,64,51835,1,0,0:0:0:0:
416,160,52139,2,0,P|416:352|384:352,1,280
352,256,52977,1,0,0:0:0:0:
352,256,53129,1,0,0:0:0:0:
256,320,53433,2,0,B|160:192|256:128|192:32|160:0,1,315
32,64,54575,6,0,L|32:224,1,140
32,256,55108,1,0,0:0:0:0:
32,320,55260,2,0,B|192:288|192:224|224:224,1,210
352,256,55983,1,0,0:0:0:0:
453,125,56325,1,0,0:0:0:0:
512,222,56554,1,0,0:0:0:0:
480,160,56782,1,0,0:0:0:0:
416,224,57010,2,0,P|288:288|256:288,1,175
160,256,57695,5,0,0:0:0:0:
64,192,58000,1,0,0:0:0:0:
160,128,58304,1,0,0:0:0:0:
256,128,58608,1,0,0:0:0:0:
352,160,58913,1,0,0:0:0:0:
224,192,59217,5,0,0:0:0:0:
309,85,59522,1,0,0:0:0:0:
309,85,59750,2,0,P|160:64|128:96,1,210
128,224,60587,1,0,0:0:0:0:
128,224,60815,2,0,P|224:288|320:224,1,245
448,320,61729,2,0,L|352:320,1,70
288,352,62185,2,0,L|64:352,1,210
96,256,62946,1,0,0:0:0:0:
96,256,63137,1,0,0:0:0:0:
32,128,63555,6,0,B|160:0|256:128|416:64,1,420
242,352,65001,2,0,L|242:160,4,175
352,320,66866,1,0,0:0:0:0:
352,320,67208,1,0,0:0:0:0:
448,352,67513,2,0,L|448:160,4,175
320,288,69492,5,0,0:0:0:0:
160,224,69796,1,0,0:0:0:0:
160,224,69948,1,0,0:0:0:0:
128,96,70253,1,0,0:0:0:0:
256,192,70709,12,0,72527,0:0:0:0:
320,256,72878,6,0,L|320:192,8,35
192,224,73753,6,0,L|256:224,8,35
288,288,74667,5,0,0:0:0:0:
288,288,74819,1,0,0:0:0:0:
288,288,74971,1,0,0:0:0:0:
160,320,75276,2,0,L|160:192,1,105
160,128,75808,2,0,P|192:64|256:160,1,210
288,256,76569,2,0,L|480:256,1,175
480,64,77330,6,0,L|352:64,1,105
288,32,77863,2,0,L|192:96,1,105
128,160,78244,2,0,L|96:256,1,70
224,288,78700,2,0,P|288:288|356:292,1,105
416,224,79233,1,0,0:0:0:0:
320,224,79461,2,0,L|224:224,2,70
288,320,80184,6,0,L|64:320,1,210
32,224,80945,1,0,0:0:0:0:
256,224,81212,1,0,0:0:0:0:
132,222,81440,1,0,0:0:0:0:
32,224,81707,1,0,0:0:0:0:
256,224,81935,2,0,P|224:128|32:128,1,315
32,224,82962,2,0,L|160:224,3,105
32,224,83952,5,0,0:0:0:0:
128,224,84180,1,0,0:0:0:0:
192,320,84522,2,0,B|256:224|416:160|288:288,2,245
128,256,85854,1,0,0:0:0:0:
128,160,86083,2,0,P|224:96|256:96,1,140
352,160,86691,1,0,0:0:0:0:
256,192,87300,12,0,88717,0:0:0:0:
