osu file format v14

[General]
AudioFilename: audio.mp3
AudioLeadIn: 0
PreviewTime: -1
Countdown: 1
SampleSet: None
StackLeniency: 0.7
Mode: 0
LetterboxInBreaks: 0
WidescreenStoryboard: 0

[Editor]
DistanceSpacing: 1
BeatDivisor: 4
GridSize: 32
TimelineZoom: 1

[Metadata]
Title:On My Mind (TV SIZE)
TitleUnicode:On My Mind (TV SIZE)
Artist:Mrs. GREEN APPLE
ArtistUnicode:Mrs. GREEN APPLE
Creator:Zenkito
Version:Normal
Source:Nana Maru San Batsu
Tags:
BeatmapID:1464241
BeatmapSetID:691948

[Difficulty]
HPDrainRate:3
CircleSize:2
OverallDifficulty:6
ApproachRate:6
SliderMultiplier:1.4
SliderTickRate:1

[Events]
//Background and Video events
0,0,"nana-maru-portada.png",0,0
//Break Periods
//Storyboard Layer 0 (Background)
//Storyboard Layer 1 (Fail)
//Storyboard Layer 2 (Pass)
//Storyboard Layer 3 (Foreground)
//Storyboard Sound Samples

[TimingPoints]
2028.71676782043,428.489274232055,4,3,0,80,1,0
4385,-100,4,1,0,50,0,0
5670,-100,4,3,0,80,0,0
12848,-100,4,1,0,70,0,0
20882,-100,4,3,0,70,0,0
37271,-66.6666666666667,4,3,0,100,0,0
38450,-100,4,3,0,70,0,0
44017,-100,4,3,0,80,0,1
64481,-100,4,1,0,70,0,1
65123,-100,4,3,0,65,0,1
65873,-100,4,1,0,70,0,1
70265,-100,4,3,0,80,0,0
72193,-100,4,3,0,80,0,0
85905,-100,4,1,0,80,0,0

[HitObjects]
128,160,529,5,0,0:0:0:0:
128,160,850,1,0,0:0:0:0:
128,160,1171,1,0,0:0:0:0:
128,160,1493,1,0,0:0:0:0:
128,160,1814,1,0,0:0:0:0:
128,160,2135,1,0,0:0:0:0:
128,160,2457,1,0,0:0:0:0:
64,288,3207,6,0,P|320:288|352:256,1,315
448,160,4492,1,0,0:0:0:0:
393,43,4813,2,0,L|169:43,1,210
70,45,5777,1,0,0:0:0:0:
33,137,5992,2,0,L|65:265,1,105
116,327,6634,1,0,0:0:0:0:
116,327,6849,6,0,P|372:327|404:295,1,315
440,175,8027,1,0,0:0:0:0:
357,58,8348,2,0,L|133:58,1,210
32,96,9205,1,0,0:0:0:0:
96,192,9527,1,0,0:0:0:0:
0,288,9848,1,0,0:0:0:0:
96,352,10062,2,0,L|160:288,1,70
108,202,10705,6,0,B|172:106|332:170|396:74,1,315
413,245,11991,1,0,0:0:0:0:
308,320,12312,1,0,0:0:0:0:
192,256,12633,1,0,0:0:0:0:
96,288,13062,6,0,L|96:160,1,105
192,160,13705,1,0,0:0:0:0:
288,192,14026,2,0,L|288:320,1,105
384,288,14669,1,0,0:0:0:0:
480,288,14990,1,0,0:0:0:0:
512,256,15204,2,0,P|480:96|416:64,1,245
352,128,16275,6,0,L|352:256,1,105
256,224,16918,1,0,0:0:0:0:
160,224,17240,2,0,L|160:96,1,105
96,32,17882,1,0,0:0:0:0:
32,128,18204,1,0,0:0:0:0:
0,160,18418,2,0,P|0:288|96:352,1,245
160,256,19489,6,0,P|224:224|288:256,1,140
448,256,20132,2,0,L|384:160,1,105
288,96,20775,1,0,0:0:0:0:
256,192,21096,12,0,23346,0:0:0:0:
0,256,23667,6,0,P|64:160|160:160,1,210
150,252,24524,2,0,P|288:320|320:256,1,245
416,160,25595,1,0,0:0:0:0:
320,96,25916,1,0,0:0:0:0:
192,64,26238,1,0,0:0:0:0:
288,192,26559,2,0,P|160:256|64:224,1,245
64,96,28059,6,0,L|192:96,3,105
160,160,29237,2,0,L|288:160,1,105
256,160,29666,1,0,0:0:0:0:
384,192,29987,1,0,0:0:0:0:
352,288,30309,2,0,L|224:288,2,105
384,160,31380,5,0,0:0:0:0:
288,64,31701,1,0,0:0:0:0:
160,128,32022,1,0,0:0:0:0:
160,256,32344,1,0,0:0:0:0:
320,256,32665,1,0,0:0:0:0:
0,267,33522,6,0,B|64:171|352:107|416:11,1,490
483,110,35558,2,0,B|446:206|172:238|67:366,1,490
95,189,37379,2,0,L|96:128,9,52.5000020027161
192,64,38664,2,0,P|320:64|352:128,1,210
352,224,39521,1,0,0:0:0:0:
352,320,39842,2,0,P|288:352|128:288,1,245
96,192,41235,5,0,0:0:0:0:
192,64,41556,1,0,0:0:0:0:
256,192,41878,1,0,0:0:0:0:
352,128,42199,1,0,0:0:0:0:
352,288,42520,1,0,0:0:0:0:
448,224,42842,1,0,0:0:0:0:
352,128,43163,1,0,0:0:0:0:
0,224,44234,6,0,P|32:128|64:96,1,140
160,64,44877,1,0,0:0:0:0:
384,96,45306,2,0,P|480:160|480:192,1,140
448,288,45948,1,0,0:0:0:0:
352,192,46377,2,0,P|288:128|128:96,1,245
64,192,47341,1,0,0:0:0:0:
32,288,47769,2,0,P|224:256|192:192,1,350
202,202,49269,5,0,0:0:0:0:
45,65,49805,1,0,0:0:0:0:
45,65,50019,2,0,P|301:33|365:97,1,350
371,180,51733,2,0,L|531:180,2,140
268,175,52911,2,0,L|292:232,1,35
295,314,53340,6,0,L|167:314,1,105
190,314,53875,1,0,0:0:0:0:
77,253,54304,2,0,L|167:98,1,175
256,82,55161,1,0,0:0:0:0:
413,56,55696,2,0,P|285:56|253:88,1,175
129,174,56768,6,0,P|101:288|136:306,2,175
262,181,58160,1,0,0:0:0:0:
262,181,58375,2,0,L|422:181,1,140
0,275,59660,6,0,B|64:179|352:115|416:19,1,490
487,114,61481,2,0,B|450:210|176:242|71:370,1,490
0,219,63302,2,0,B|102:247|160:219|224:123,1,245
272,60,64373,1,0,0:0:0:0:
426,75,64695,1,0,0:0:0:0:
426,75,65016,1,0,0:0:0:0:
334,137,65338,2,0,L|256:267,1,140
384,288,66087,1,0,0:0:0:0:
384,288,66409,1,0,0:0:0:0:
244,345,66730,6,0,L|52:345,1,175
108,202,67587,6,0,B|172:106|332:170|396:74,1,315
413,245,68873,1,0,0:0:0:0:
308,320,69194,1,0,0:0:0:0:
192,256,69515,1,0,0:0:0:0:
364,175,69837,2,0,L|253:109,1,105
64,96,70479,2,0,L|192:96,5,105
256,192,72408,12,0,74871,0:0:0:0:
64,288,75408,6,0,P|320:288|352:256,1,315
448,160,76692,1,0,0:0:0:0:
361,52,77014,2,0,L|137:52,1,210
24,84,77978,2,0,L|56:244,1,140
64,320,78728,1,0,0:0:0:0:
64,320,78943,6,0,P|320:320|352:288,1,315
448,192,80228,1,0,0:0:0:0:
371,62,80549,2,0,L|147:62,1,210
32,96,81406,1,0,0:0:0:0:
96,192,81728,1,0,0:0:0:0:
0,288,82049,1,0,0:0:0:0:
96,352,82370,2,0,L|192:256,1,105
64,192,83013,6,0,B|224:192|352:96|480:192,2,420
96,64,86226,1,0,0:0:0:0:
96,64,86441,1,0,0:0:0:0:
