osu file format v14

[General]
AudioFilename: audio.mp3
AudioLeadIn: 0
PreviewTime: -1
Countdown: 1
SampleSet: Normal
StackLeniency: 0.7
Mode: 0
LetterboxInBreaks: 0
WidescreenStoryboard: 1

[Editor]
DistanceSpacing: 1
BeatDivisor: 4
GridSize: 32
TimelineZoom: 1

[Metadata]
Title:On My Mind (TV SIZE)
TitleUnicode:On My Mind (TV SIZE)
Artist:Mrs. GREEN APPLE
ArtistUnicode:Mrs. GREEN APPLE
Creator:Zenkito
Version:Easy
Source:Nana Maru San Batsu
Tags:
BeatmapID:1465799
BeatmapSetID:691948

[Difficulty]
HPDrainRate:3
CircleSize:2
OverallDifficulty:1
ApproachRate:3
SliderMultiplier:1.4
SliderTickRate:1

[Events]
//Background and Video events
0,0,"nana-maru-portada.png",0,0
//Break Periods
//Storyboard Layer 0 (Background)
//Storyboard Layer 1 (Fail)
//Storyboard Layer 2 (Pass)
//Storyboard Layer 3 (Foreground)
//Storyboard Sound Samples

[TimingPoints]
2028.71676782043,428.489274232055,4,1,0,40,1,0
2671,-100,4,3,0,60,0,0
6742,-100,4,1,0,50,0,0
7491,-100,4,3,0,60,0,0
14454,-100,4,1,0,50,0,0
16811,-100,4,3,0,80,0,0
18311,-100,4,1,0,50,0,0
23732,-100,4,3,0,60,0,0
30523,-100,4,1,0,50,0,0
33201,-100,4,3,0,80,0,0
44017,-100,4,1,0,70,0,1
67051,-100,4,3,0,60,0,1
74877,-100,4,3,0,70,0,0
84941,-100,4,3,0,70,0,0

[Colours]
Combo1 : 255,255,40
Combo2 : 0,193,193
Combo3 : 18,124,255
Combo4 : 220,12,43

[HitObjects]
0,128,743,6,0,L|64:128,16,35
96,288,2885,2,0,B|224:288|224:288|320:192,1,245
320,96,4064,2,0,P|448:128|480:160,2,175
192,96,5670,6,0,P|128:96|0:256,1,280
128,256,6956,1,0,0:0:0:0:
256,288,7277,1,0,0:0:0:0:
384,288,7706,2,0,P|384:192|320:128,2,175
288,224,9205,2,0,P|192:160|224:128,2,175
416,64,10705,6,0,P|160:64|32:128,1,385
96,224,12205,1,0,0:0:0:0:
96,224,12526,1,0,0:0:0:0:
96,224,12848,1,0,0:0:0:0:
192,256,13812,6,0,P|288:256|352:192,1,175
352,96,14669,1,0,0:0:0:0:
352,96,14990,1,0,0:0:0:0:
224,64,15311,2,0,P|64:64|0:64,1,210
0,192,16275,2,0,L|78:271,1,105
160,320,16918,2,0,P|256:256|256:192,2,175
32,256,18525,6,0,P|32:160|160:128,1,245
256,96,19596,2,0,L|416:96,2,140
224,224,20775,1,0,0:0:0:0:
256,192,21203,12,0,23560,0:0:0:0:
384,32,23881,6,0,L|256:32,1,105
160,96,24631,1,0,0:0:0:0:
64,192,24952,2,0,P|96:256|160:288,1,140
288,224,25809,1,0,0:0:0:0:
416,288,26131,2,0,L|416:160,1,105
416,96,26881,6,0,P|352:32|64:64,1,385
64,192,28487,2,0,L|64:320,1,105
192,320,29237,1,0,0:0:0:0:
288,320,29666,2,0,L|416:224,1,140
512,192,30844,6,0,P|416:96|384:96,1,175
224,96,31915,1,0,0:0:0:0:
128,192,32344,1,0,0:0:0:0:
224,288,32665,2,0,L|320:288,1,70
480,320,33951,6,0,B|480:64|480:64|288:64,1,420
192,96,35879,1,0,0:0:0:0:
64,192,36307,2,0,P|64:288|192:320,1,245
352,224,38236,2,0,L|352:352,1,105
224,192,38986,1,0,0:0:0:0:
96,128,39415,2,0,L|224:32,1,140
512,192,40699,6,0,P|416:96|384:96,1,175
224,96,41770,1,0,0:0:0:0:
128,192,42199,1,0,0:0:0:0:
224,288,42520,2,0,L|320:288,2,70
128,320,44342,6,0,L|128:128,1,175
128,64,45199,1,0,0:0:0:0:
256,64,45627,2,0,L|256:256,1,175
256,320,46484,1,0,0:0:0:0:
384,288,46805,2,0,L|384:64,1,210
288,96,47984,6,0,B|256:96|0:-32|0:32,1,280
41,185,49269,6,0,L|265:185,1,210
347,183,50233,1,0,0:0:0:0:
431,270,50662,2,0,L|175:270,1,245
83,270,51733,1,0,0:0:0:0:
96,352,52161,2,0,L|448:352,1,350
448,256,54197,6,0,P|480:192|416:96,2,175
320,256,55589,2,0,L|320:64,1,175
224,128,56446,1,0,0:0:0:0:
104,74,57196,6,0,P|21:175|96:298,2,280
281,36,59446,2,0,L|419:167,1,175
433,265,60945,2,0,P|395:320|149:334,1,315
50,132,62767,6,0,P|22:184|52:244,2,105
192,256,64052,6,0,P|288:256|352:192,1,175
352,96,64909,1,0,0:0:0:0:
352,96,65230,1,0,0:0:0:0:
224,64,65551,2,0,P|64:64|0:64,1,210
0,172,66515,2,0,L|74:254,1,105
160,320,67159,2,0,P|256:256|256:192,2,175
32,256,68765,6,0,P|32:160|160:128,1,245
256,96,69836,2,0,L|416:96,2,140
224,224,71015,1,0,0:0:0:0:
256,192,71443,12,0,74764,0:0:0:0:
30,340,75300,6,0,B|70:220|306:359|336:240,1,350
438,228,77014,2,0,P|447:166|316:50,1,245
218,52,78299,2,0,L|83:54,2,105
0,319,79906,6,0,P|-4:310|230:231,1,385
320,288,81513,2,0,L|427:288,1,105
0,169,83013,6,0,P|39:217|492:154,1,560
173,62,85155,2,0,L|174:139,1,70
307,61,85798,2,0,L|305:163,1,70
233,219,86441,1,0,0:0:0:0:
