osu file format v14

[General]
AudioFilename: audio.mp3
AudioLeadIn: 0
PreviewTime: 145398
Countdown: 0
SampleSet: Soft
StackLeniency: 0.7
Mode: 0
LetterboxInBreaks: 0
WidescreenStoryboard: 1

[Editor]
DistanceSpacing: 0.9
BeatDivisor: 4
GridSize: 4
TimelineZoom: 1.4

[Metadata]
Title:On My MiND
TitleUnicode:On My MiND
Artist:Mrs. GREEN APPLE
ArtistUnicode:Mrs. GREEN APPLE
Creator:alevi
Version:Big Sis' Insane
Source:ナナマル サンバツ
Tags:Nana Maru San Batsu anime op opening toofu neymar jr dora- doraemonelf pepekcz big sis god haachama vaporfly wanted! full version ver japanese rock jrock j-rock
BeatmapID:3917009
BeatmapSetID:1792358

[Difficulty]
HPDrainRate:5.3
CircleSize:4
OverallDifficulty:8.2
ApproachRate:9
SliderMultiplier:2.22
SliderTickRate:1

[Events]
//Background and Video events
0,0,"FBvaIoUUYBAMZFx.jpg",0,0
//Break Periods
//Storyboard Layer 0 (Background)
//Storyboard Layer 1 (Fail)
//Storyboard Layer 2 (Pass)
//Storyboard Layer 3 (Foreground)
//Storyboard Layer 4 (Overlay)
//Storyboard Sound Samples

[TimingPoints]
453,320.855614973262,4,2,1,65,1,0
773,320.855614973262,4,2,1,65,1,0
773,-142.857142857143,4,2,1,65,0,0
5585,-142.857142857143,4,2,2,65,0,0
6226,-142.857142857143,4,2,1,65,0,0
8473,-142.857142857143,4,2,2,65,0,0
8794,-142.857142857143,4,2,1,65,0,0
9275,-142.857142857143,4,2,4,65,0,0
9436,-333.333333333334,4,2,4,65,0,0
10398,-333.333333333334,4,2,4,75,0,0
11040,-125,4,2,3,75,0,0
12163,-125,4,2,3,75,0,0
12323,-125,4,2,3,75,0,0
13607,-125,4,2,3,75,0,0
13927,-125,4,2,3,75,0,0
14729,-125,4,2,3,75,0,0
14890,-125,4,2,3,75,0,0
15692,-125,4,2,4,75,0,0
16174,-125,4,2,4,75,0,0
16494,-125,4,2,5,75,0,0
16654,-125,4,2,5,75,0,0
16815,-125,4,2,5,75,0,0
16975,-125,4,2,5,75,0,0
17136,-125,4,2,5,75,0,0
17297,-125,4,2,5,75,0,0
17457,-125,4,2,5,75,0,0
17617,-125,4,2,5,75,0,0
17778,-125,4,2,5,75,0,0
17938,-125,4,2,5,75,0,0
18099,-125,4,2,5,75,0,0
18740,-125,4,2,5,75,0,0
19222,-125,4,2,5,75,0,0
20024,-125,4,2,6,75,0,0
20104,-125,4,2,3,75,0,0
20184,-125,4,2,7,75,0,0
20264,-125,4,2,5,75,0,0
20666,-125,4,2,5,75,0,0
20986,-125,4,2,2,75,0,0
21307,-166.666666666667,4,2,4,55,0,0
22270,-166.666666666667,4,2,1,55,0,0
22591,-166.666666666667,4,2,3,55,0,0
22912,-166.666666666667,4,2,1,55,0,0
23232,-166.666666666667,4,2,4,55,0,0
23553,-166.666666666667,4,2,2,55,0,0
24195,-166.666666666667,4,2,4,55,0,0
25799,-166.666666666667,4,2,2,55,0,0
26281,-166.666666666667,4,2,4,55,0,0
26762,-166.666666666667,4,2,1,55,0,0
27243,-166.666666666667,4,2,3,55,0,0
28045,-166.666666666667,4,2,1,55,0,0
28527,-166.666666666667,4,2,4,55,0,0
29008,-166.666666666667,4,2,7,55,0,0
29329,-166.666666666667,4,2,1,55,0,0
29650,-166.666666666667,4,2,3,55,0,0
30291,-166.666666666667,4,2,2,65,0,0
31093,-166.666666666667,4,2,2,70,0,0
31575,-142.857142857143,4,2,5,65,0,0
32537,-142.857142857143,4,2,1,65,0,0
32858,-142.857142857143,4,2,3,65,0,0
33179,-142.857142857143,4,2,8,65,0,0
33500,-142.857142857143,4,2,3,65,0,0
33821,-142.857142857143,4,2,9,65,0,0
34141,-142.857142857143,4,2,3,65,0,0
34783,-142.857142857143,4,2,1,65,0,0
35425,-142.857142857143,4,2,5,65,0,0
35746,-142.857142857143,4,2,5,65,0,0
35906,-142.857142857143,4,2,5,65,0,0
36067,-142.857142857143,4,2,1,65,0,0
36227,-142.857142857143,4,2,3,65,0,0
36387,-142.857142857143,4,2,9,65,0,0
36548,-142.857142857143,4,2,3,65,0,0
36708,-142.857142857143,4,2,2,65,0,0
37029,-142.857142857143,4,2,1,65,0,0
37671,-142.857142857143,4,2,3,65,0,0
38313,-142.857142857143,4,2,8,65,0,0
38633,-142.857142857143,4,2,7,65,0,0
38954,-142.857142857143,4,2,7,65,0,0
39275,-125,4,2,7,65,0,0
39596,-125,4,2,5,65,0,0
39756,-125,4,2,6,65,0,0
39917,-125,4,2,3,65,0,0
40238,-125,4,2,2,65,0,0
41200,-125,4,2,2,65,0,0
41842,-111.111111111111,4,2,10,80,0,0
42163,-111.111111111111,4,2,6,80,0,0
44409,-111.111111111111,4,2,11,80,0,0
44730,-111.111111111111,4,2,11,80,0,0
46414,-111.111111111111,4,2,2,80,0,0
46655,-111.111111111111,4,2,10,80,0,0
46976,-111.111111111111,4,2,10,80,0,0
47297,-111.111111111111,4,2,6,80,0,0
49543,-111.111111111111,4,2,11,80,0,0
49863,-111.111111111111,4,2,11,80,0,0
50024,-111.111111111111,4,2,11,80,0,0
50184,-111.111111111111,4,2,6,80,0,0
50505,-111.111111111111,4,2,6,80,0,0
51789,-111.111111111111,4,2,10,80,0,0
52109,-111.111111111111,4,2,10,80,0,0
52430,-111.111111111111,4,2,6,80,0,0
54676,-111.111111111111,4,2,11,80,0,0
54997,-111.111111111111,4,2,11,80,0,0
56601,-111.111111111111,4,2,3,80,0,0
56682,-111.111111111111,4,2,1,80,0,0
56922,-111.111111111111,4,2,4,80,0,0
57243,-111.111111111111,4,2,10,80,0,0
57564,-111.111111111111,4,2,6,80,0,0
59810,-111.111111111111,4,2,11,80,0,0
60291,-111.111111111111,4,2,11,80,0,0
60452,-111.111111111111,4,2,6,80,0,0
61735,-111.111111111111,4,2,6,80,0,0
62056,-111.111111111111,4,2,10,80,0,0
62377,-125,4,2,3,75,0,0
63660,-125,4,2,3,75,0,0
64944,-125,4,2,3,75,0,0
65264,-125,4,2,3,75,0,0
66227,-125,4,2,3,75,0,0
67029,-125,4,2,4,75,0,0
67510,-125,4,2,4,75,0,0
67831,-125,4,2,5,75,0,0
67992,-125,4,2,5,75,0,0
68152,-125,4,2,5,75,0,0
68313,-125,4,2,5,75,0,0
68473,-125,4,2,5,75,0,0
68633,-125,4,2,5,75,0,0
68794,-125,4,2,5,75,0,0
68954,-125,4,2,5,75,0,0
69115,-125,4,2,5,75,0,0
69275,-125,4,2,5,75,0,0
69436,-125,4,2,5,75,0,0
70077,-125,4,2,5,75,0,0
70559,-125,4,2,5,75,0,0
71361,-125,4,2,6,75,0,0
71441,-125,4,2,3,75,0,0
71521,-125,4,2,7,75,0,0
71601,-125,4,2,5,75,0,0
72002,-125,4,2,5,75,0,0
72323,-125,4,2,2,75,0,0
72644,-166.666666666667,4,2,4,55,0,0
73607,-166.666666666667,4,2,1,55,0,0
73928,-166.666666666667,4,2,3,55,0,0
74248,-166.666666666667,4,2,1,55,0,0
74569,-166.666666666667,4,2,4,55,0,0
74890,-166.666666666667,4,2,1,55,0,0
75051,-166.666666666667,4,2,4,55,0,0
75211,-166.666666666667,4,2,1,55,0,0
75692,-166.666666666667,4,2,3,55,0,0
76976,-166.666666666667,4,2,2,55,0,0
77938,-166.666666666667,4,2,3,55,0,0
78099,-166.666666666667,4,2,1,55,0,0
78259,-166.666666666667,4,2,3,55,0,0
79382,-166.666666666667,4,2,1,55,0,0
79703,-166.666666666667,4,2,4,55,0,0
80345,-166.666666666667,4,2,7,55,0,0
80666,-166.666666666667,4,2,1,55,0,0
80986,-166.666666666667,4,2,3,55,0,0
81628,-153.846153846154,4,2,10,55,0,0
82912,-125,4,2,12,65,0,0
83072,-125,4,2,2,65,0,0
83553,-125,4,2,3,65,0,0
83874,-125,4,2,2,65,0,0
84837,-142.857142857143,4,2,7,65,0,0
85158,-142.857142857143,4,2,3,65,0,0
85478,-125,4,2,13,65,0,0
85639,-125,4,2,2,65,0,0
85960,-125,4,2,4,65,0,0
86120,-125,4,2,2,65,0,0
86922,-142.857142857143,4,2,2,65,0,0
87404,-142.857142857143,4,2,14,65,0,0
87564,-142.857142857143,4,2,1,65,0,0
87724,-142.857142857143,4,2,3,65,0,0
88045,-125,4,2,15,65,0,0
88206,-125,4,2,10,65,0,0
89008,-125,4,2,4,65,0,0
89329,-125,4,2,2,65,0,0
89810,-125,4,2,3,65,0,0
89970,-142.857142857143,4,2,6,65,0,0
90291,-142.857142857143,4,2,3,65,0,0
90612,-125,4,2,16,65,0,0
90772,-125,4,2,2,65,0,0
91254,-125,4,2,4,65,0,0
92216,-166.666666666667,4,2,1,65,0,0
92858,-250,4,2,1,65,0,0
93179,-111.111111111111,4,2,10,80,0,0
93500,-111.111111111111,4,2,6,80,0,0
95746,-111.111111111111,4,2,11,80,0,0
96067,-111.111111111111,4,2,11,80,0,0
97751,-125,4,2,2,80,0,0
97992,-125,4,2,10,80,0,0
98313,-111.111111111111,4,2,10,80,0,0
98633,-111.111111111111,4,2,6,80,0,0
100879,-111.111111111111,4,2,11,80,0,0
101200,-111.111111111111,4,2,11,80,0,0
101361,-111.111111111111,4,2,11,80,0,0
101521,-111.111111111111,4,2,6,80,0,0
101842,-111.111111111111,4,2,6,80,0,0
103125,-111.111111111111,4,2,10,80,0,0
103446,-111.111111111111,4,2,10,80,0,0
103767,-111.111111111111,4,2,6,80,0,0
106013,-111.111111111111,4,2,11,80,0,0
106334,-111.111111111111,4,2,11,80,0,0
107136,-111.111111111111,4,2,6,80,0,0
107938,-111.111111111111,4,2,3,80,0,0
108018,-111.111111111111,4,2,1,80,0,0
108259,-111.111111111111,4,2,4,80,0,0
108580,-111.111111111111,4,2,10,80,0,0
108901,-111.111111111111,4,2,6,80,0,0
111147,-111.111111111111,4,2,11,80,0,0
111628,-111.111111111111,4,2,11,80,0,0
111789,-111.111111111111,4,2,6,80,0,0
113393,320.855614973262,4,2,1,70,1,0
113473,-100,4,2,3,70,0,0
114676,-100,4,2,1,70,0,0
114756,-100,4,2,3,70,0,0
115638,-100,4,2,2,70,0,0
116040,-100,4,2,3,70,0,0
116280,-100,4,2,3,70,0,0
117243,-100,4,2,1,70,0,0
117323,-100,4,2,3,70,0,0
117564,-100,4,2,1,70,0,0
117884,-100,4,2,5,70,0,0
117965,-100,4,2,2,70,0,0
118205,-100,4,2,10,70,0,0
118286,-100,4,2,2,70,0,0
118526,-100,4,2,1,70,0,0
118847,-100,4,2,3,70,0,0
119168,-100,4,2,1,70,0,0
119810,-100,4,2,3,70,0,0
120130,-100,4,2,1,70,0,0
120451,-100,4,2,3,70,0,0
120772,-100,4,2,2,70,0,0
120852,-100,4,2,3,70,0,0
121093,-100,4,2,2,70,0,0
121173,-100,4,2,3,70,0,0
121414,-100,4,2,3,70,0,0
122376,-105.263157894737,4,2,2,70,0,0
123660,-111.111111111111,4,2,17,70,0,0
123981,-111.111111111111,4,2,1,70,0,0
124943,-111.111111111111,4,2,1,70,0,0
126227,-111.111111111111,4,2,2,70,0,0
126548,-111.111111111111,4,2,1,70,0,0
127510,-111.111111111111,4,2,2,70,0,0
127831,-111.111111111111,4,2,1,70,0,0
130077,-111.111111111111,4,2,2,70,0,0
130398,-111.111111111111,4,2,1,70,0,0
131360,-111.111111111111,4,2,2,70,0,0
131681,-111.111111111111,4,2,1,70,0,0
132644,-111.111111111111,4,2,2,70,0,0
132965,-111.111111111111,4,2,1,70,0,0
133927,-111.111111111111,4,2,17,70,0,0
134248,-111.111111111111,4,2,1,70,0,0
135211,-111.111111111111,4,2,2,70,0,0
135532,-111.111111111111,4,2,1,70,0,0
136494,-111.111111111111,4,2,2,70,0,0
136815,-111.111111111111,4,2,1,70,0,0
137778,-111.111111111111,4,2,17,70,0,0
138098,-111.111111111111,4,2,1,70,0,0
139061,-111.111111111111,4,2,1,70,0,0
140344,-111.111111111111,4,2,2,70,0,0
140665,-111.111111111111,4,2,1,70,0,0
141628,-111.111111111111,4,2,2,70,0,0
141949,-111.111111111111,4,2,1,70,0,0
142270,-111.111111111111,4,2,1,70,0,0
142350,-111.111111111111,4,2,1,70,0,0
142911,-111.111111111111,4,2,18,70,0,0
143232,-111.111111111111,4,2,1,70,0,0
144195,-166.666666666667,4,2,1,60,0,0
144355,-166.666666666667,4,2,3,60,0,0
144515,-166.666666666667,4,2,1,60,0,0
144676,-166.666666666667,4,2,3,60,0,0
144836,-200,4,2,1,60,0,0
144997,-200,4,2,3,60,0,0
145157,-200,4,2,1,60,0,0
145318,-200,4,2,3,60,0,0
145478,-111.111111111111,4,2,10,80,0,0
145799,-111.111111111111,4,2,6,80,0,0
148045,-111.111111111111,4,2,11,80,0,0
148366,-111.111111111111,4,2,11,80,0,0
150050,-111.111111111111,4,2,2,80,0,0
150291,-111.111111111111,4,2,10,80,0,0
150612,-111.111111111111,4,2,10,80,0,0
150933,-111.111111111111,4,2,6,80,0,0
153179,-111.111111111111,4,2,11,80,0,0
153499,-111.111111111111,4,2,11,80,0,0
153660,-111.111111111111,4,2,11,80,0,0
153820,-111.111111111111,4,2,6,80,0,0
154141,-111.111111111111,4,2,6,80,0,0
155425,-111.111111111111,4,2,10,80,0,0
155745,-111.111111111111,4,2,10,80,0,0
156066,-111.111111111111,4,2,6,80,0,0
158312,-111.111111111111,4,2,11,80,0,0
158633,-111.111111111111,4,2,11,80,0,0
160237,-111.111111111111,4,2,3,80,0,0
160318,-111.111111111111,4,2,1,80,0,0
160558,-111.111111111111,4,2,4,80,0,0
160879,-111.111111111111,4,2,10,80,0,0
161200,-111.111111111111,4,2,6,80,0,0
163446,-111.111111111111,4,2,11,80,0,0
163927,-111.111111111111,4,2,11,80,0,0
164088,-111.111111111111,4,2,6,80,0,0
165371,-111.111111111111,4,2,11,80,0,0
165692,-111.111111111111,4,2,10,80,0,0
166013,-111.111111111111,4,2,10,80,0,0
166334,-111.111111111111,4,2,6,80,0,0
168580,-111.111111111111,4,2,11,80,0,0
169061,-111.111111111111,4,2,11,80,0,0
169221,-111.111111111111,4,2,6,80,0,0
169863,-222.222222222222,4,2,1,65,0,0
171147,-125,4,2,3,80,0,0
172430,-125,4,2,1,80,0,0
173713,-125,4,2,3,80,0,0
174034,-125,4,2,3,80,0,0
174676,-125,4,2,1,80,0,0
174836,-125,4,2,3,80,0,0
174997,-125,4,2,1,80,0,0
175799,-125,4,2,4,80,0,0
175959,-125,4,2,2,80,0,0
176120,-125,4,2,4,80,0,0
176280,-125,4,2,4,80,0,0
176601,-125,4,2,5,80,0,0
176761,-125,4,2,5,80,0,0
176922,-125,4,2,5,80,0,0
177082,-125,4,2,5,80,0,0
177243,-125,4,2,5,80,0,0
177403,-125,4,2,5,80,0,0
177564,-125,4,2,5,80,0,0
177724,-125,4,2,5,80,0,0
177884,-125,4,2,5,80,0,0
178045,-125,4,2,5,80,0,0
178205,-125,4,2,5,80,0,0
178687,-125,4,2,5,80,0,0
178847,-125,4,2,5,80,0,0
179328,-125,4,2,5,80,0,0
180130,-125,4,2,6,80,0,0
180211,-125,4,2,3,80,0,0
180291,-125,4,2,7,80,0,0
180371,-125,4,2,5,80,0,0
180772,-125,4,2,5,80,0,0
181093,-125,4,2,2,80,0,0
181173,-125,4,2,2,80,0,0
181414,-125,4,2,17,80,0,0
181735,-125,4,2,1,80,0,0
181895,-125,4,2,1,80,0,0
182056,-125,4,2,3,80,0,0
182216,-125,4,2,1,80,0,0
182376,-125,4,2,3,80,0,0
182537,-125,4,2,1,80,0,0
182697,-125,4,2,1,80,0,0
183339,-125,4,2,3,80,0,0
183981,-125,4,2,1,80,0,0
184141,-125,4,2,1,80,0,0
184302,-125,4,2,1,80,0,0
184462,-125,4,2,1,80,0,0
184622,-125,4,2,3,80,0,0
184783,-125,4,2,1,80,0,0
184943,-125,4,2,3,80,0,0
185104,-125,4,2,1,80,0,0
185264,-125,4,2,1,80,0,0
185425,-125,4,2,6,80,0,0
185585,-125,4,2,1,80,0,0
185906,-125,4,2,4,80,0,0
186066,-125,4,2,4,80,0,0
186548,-125,4,2,2,80,0,0
186868,-125,4,2,1,80,0,0
187029,-125,4,2,1,80,0,0
187109,-125,4,2,3,80,0,0
187189,-125,4,2,3,80,0,0
187350,-125,4,2,1,80,0,0
187510,-125,4,2,3,80,0,0
187671,-125,4,2,1,80,0,0
187831,-125,4,2,1,80,0,0
187991,-125,4,2,3,80,0,0
188152,-125,4,2,1,80,0,0
188312,-125,4,2,3,80,0,0
188473,-125,4,2,3,80,0,0
188794,-125,4,2,1,80,0,0
189114,-125,4,2,19,80,0,0
189195,-125,4,2,3,80,0,0
189275,-125,4,2,19,80,0,0
189355,-125,4,2,3,80,0,0
189435,-125,4,2,19,80,0,0
189515,-125,4,2,3,80,0,0
189596,-125,4,2,20,80,0,0
189676,-125,4,2,3,80,0,0
189917,-125,4,2,19,80,0,0
189997,-125,4,2,3,80,0,0
190077,-125,4,2,20,80,0,0
190157,-125,4,2,3,80,0,0
190398,-125,4,2,11,80,0,0
190478,-125,4,2,3,80,0,0
190558,-125,4,2,7,80,0,0
190638,-125,4,2,3,80,0,0
191040,-125,4,2,21,80,0,0
191360,-125,4,2,3,80,0,0
191681,-125,4,2,11,80,0,0
191842,-125,4,2,6,80,0,0
192002,-125,4,2,6,80,0,0
192163,-125,4,2,6,80,0,0
192564,-125,4,2,1,80,0,0
192644,-125,4,2,6,80,0,0
192804,-125,4,2,22,90,0,0
194810,-125,4,2,22,90,0,0
194890,-125,4,2,22,90,0,0
195211,-125,4,2,22,5,0,0

[Colours]
Combo1 : 192,192,192
Combo2 : 255,74,255
Combo3 : 255,128,192
Combo4 : 255,145,91
Combo5 : 255,255,17
Combo6 : 128,255,128
Combo7 : 1,254,134
Combo8 : 173,91,255

[HitObjects]
25,300,773,6,0,P|99:303|118:398,1,155.4,6|2,3:2|1:2,0:0:0:0:
281,299,1254,1,2,1:2:0:0:
281,299,1334,1,0,1:1:0:0:
281,299,1414,2,0,P|239:327|203:322,1,77.6999999999999,0|2,3:3|3:2,0:0:0:0:
115,275,1735,2,0,P|104:233|87:192,1,77.6999999999999,0|2,1:1|2:2,0:0:0:0:
73,124,1976,5,0,1:1:0:0:
73,124,2056,2,0,P|35:114|0:100,1,77.6999999999999,2|0,3:2|3:3,0:0:0:0:
193,219,2377,2,0,B|276:201|248:162|327:146,1,155.4,2|0,1:2|3:3,0:0:0:0:
327,146,2778,1,0,1:1:0:0:
327,146,2858,1,0,3:3:0:0:
267,81,3018,2,0,P|238:112|245:157,1,77.6999999999999,2|0,1:2|0:0,0:0:0:0:
426,272,3339,6,0,P|354:240|279:222,1,155.4,6|2,3:2|1:2,0:0:0:0:
428,180,3821,1,2,1:2:0:0:
428,180,3901,1,0,1:1:0:0:
428,180,3981,2,0,P|465:170|501:156,1,77.6999999999999,0|2,3:3|3:2,0:0:0:0:
343,286,4302,2,0,P|305:295|269:309,1,77.6999999999999,0|2,1:1|2:2,0:0:0:0:
211,361,4543,5,0,1:1:0:0:
211,361,4623,2,0,P|174:346|137:338,1,77.6999999999999,2|0,3:2|3:3,0:0:0:0:
54,286,4944,2,0,P|29:325|43:359,1,77.6999999999999,2|0,1:2|0:0,0:0:0:0:
169,256,5264,2,0,L|180:218,3,38.85,0|0|0|0,3:3|1:1|3:3|3:3,0:0:0:0:
116,172,5585,1,2,1:2:0:0:
116,172,5666,1,0,1:1:0:0:
116,172,5746,1,0,1:1:0:0:
116,172,5826,1,0,1:1:0:0:
116,172,5906,6,0,B|100:93|61:121|43:38,1,155.4,6|2,3:2|1:2,0:0:0:0:
193,105,6387,2,0,P|152:97|107:82,1,77.6999999999999,2|0,3:2|3:3,0:0:0:0:
29,166,6708,2,0,P|69:174|115:189,1,77.6999999999999,2|0,3:2|1:1,0:0:0:0:
179,218,7029,1,2,2:2:0:0:
279,47,7190,6,0,P|238:86|267:174,1,155.4,2|10,3:2|2:3,0:0:0:0:
394,273,7671,1,10,2:3:0:0:
423,193,7831,2,0,P|386:181|349:166,1,77.6999999999999,10|0,2:3|1:1,0:0:0:0:
449,336,8152,2,0,P|478:309|475:263,1,77.6999999999999,2|2,3:2|1:2,0:0:0:0:
309,246,8473,6,0,B|252:261|271:284|193:305,1,116.55,6|0,3:2|0:0,0:0:0:0:
207,300,8794,1,2,1:2:0:0:
58,192,8954,6,0,P|118:183|161:229,1,116.55,2|0,3:2|0:0,0:0:0:0:
156,217,9275,1,2,2:2:0:0:
112,353,9436,6,0,P|94:322|104:285,2,66.5999999999999,2|2|2,2:2|2:2|2:2,0:0:0:0:
309,246,10398,5,4,1:3:0:0:
378,283,10559,1,4,1:3:0:0:
421,219,10719,1,4,1:3:0:0:
185,178,11040,6,0,P|122:200|35:255,1,133.2,6|0,3:2|0:0,0:0:0:0:
55,229,11361,2,0,P|11:196|21:149,1,88.8,10|0,1:2|0:0,0:0:0:0:
158,24,11682,2,0,P|151:66|114:86,1,88.8,10|0,3:2|3:3,0:0:0:0:
34,53,12002,1,10,1:2:0:0:
200,190,12163,5,0,0:0:0:0:
200,190,12243,1,0,1:1:0:0:
200,190,12323,2,0,B|294:201|257:242|374:255,1,177.6,10|10,3:2|1:2,0:0:0:0:
489,118,12805,1,0,0:0:0:0:
419,164,12965,2,0,P|436:204|450:246,1,88.8,10|0,3:2|3:3,0:0:0:0:
313,357,13286,2,0,P|295:316|281:274,1,88.8,10|0,1:2|0:0,0:0:0:0:
55,273,13607,6,0,P|100:345|194:335,2,177.6,10|10|10,3:2|1:2|3:2,0:0:0:0:
146,168,14409,1,0,3:3:0:0:
87,106,14569,2,0,P|45:91|4:74,1,88.8,10|0,1:2|0:0,0:0:0:0:
156,255,14890,6,0,P|219:236|307:218,1,133.2,10|0,3:2|0:0,0:0:0:0:
349,270,15211,2,0,P|315:303|269:296,1,88.8,10|0,1:2|0:0,0:0:0:0:
146,168,15532,5,10,3:2:0:0:
318,57,15692,1,2,1:2:0:0:
153,0,15853,2,0,P|170:40|184:82,1,88.8,2|2,1:2|1:2,0:0:0:0:
264,135,16093,5,0,1:1:0:0:
264,135,16174,2,0,P|305:149|346:166,1,88.8,14|0,3:2|3:3,0:0:0:0:
478,50,16494,2,0,P|437:67|395:81,1,88.8,10|2,1:2|2:2,0:0:0:0:
427,244,16815,2,0,P|441:202|458:161,1,88.8,10|2,3:2|3:2,0:0:0:0:
198,279,17136,2,0,P|250:241|322:263,1,133.2,10|0,1:2|1:1,0:0:0:0:
313,255,17457,5,10,3:2:0:0:
241,384,17617,1,2,3:2:0:0:
106,297,17778,2,0,P|91:255|74:214,1,88.8,10|2,1:2|2:2,0:0:0:0:
165,58,18099,1,10,3:2:0:0:
47,107,18259,1,2,3:2:0:0:
47,107,18339,1,2,2:2:0:0:
47,107,18420,2,0,P|88:121|129:138,1,88.8,10|0,1:2|0:0,0:0:0:0:
274,34,18740,6,0,L|249:93,1,44.4,6|2,1:2|2:2,0:0:0:0:
212,139,18901,2,0,L|237:198,3,44.4,2|2|2|2,3:2|2:2|3:2|2:2,0:0:0:0:
299,217,19222,5,2,1:2:0:0:
309,212,19302,1,2,2:2:0:0:
319,208,19382,1,2,3:2:0:0:
329,204,19462,1,2,2:2:0:0:
340,200,19543,1,2,3:2:0:0:
350,197,19623,1,2,2:2:0:0:
361,194,19703,2,0,L|401:211,3,44.4,2|2|2|2,1:2|3:2|3:2|2:2,0:0:0:0:
477,251,20024,5,2,1:2:0:0:
477,251,20104,1,2,2:2:0:0:
477,251,20184,2,0,L|501:202,1,44.4,6|2,1:2|2:2,0:0:0:0:
408,293,20345,2,0,L|425:333,3,44.4,2|2|2|2,3:2|2:2|3:2|2:2,0:0:0:0:
367,384,20666,6,0,L|326:366,3,44.4,6|0|0|0,1:2|0:0|0:0|0:0,0:0:0:0:
292,296,20986,1,2,3:2:0:0:
265,309,21066,1,2,1:2:0:0:
239,323,21146,1,2,1:2:0:0:
211,339,21226,1,2,1:2:0:0:
187,355,21307,6,0,B|173:289|138:327|114:238,2,133.199995935059,6|2|2,3:2|3:2|3:2,0:0:0:0:
117,247,22270,2,0,P|80:230|46:240,1,66.5999979675294,2|0,3:2|0:0,0:0:0:0:
215,242,22591,6,0,P|261:223|353:210,1,133.199995935059,2|2,3:2|3:2,0:0:0:0:
343,209,23232,2,0,P|354:172|369:139,1,66.5999979675294,2|8,3:2|1:2,0:0:0:0:
321,71,23553,2,0,P|289:61|258:49,1,66.5999979675294,2|8,3:2|1:2,0:0:0:0:
434,213,23874,6,0,P|468:193|463:97,2,133.199995935059,2|2|0,3:2|3:2|3:3,0:0:0:0:
434,213,24837,2,0,P|446:243|456:275,1,66.5999979675294,2|0,3:2|0:0,0:0:0:0:
397,348,25158,6,0,B|325:341|338:391|252:372,1,133.199995935059,2|0,3:2|3:3,0:0:0:0:
163,285,25639,1,2,1:2:0:0:
231,229,25799,2,0,P|240:260|253:291,1,66.5999979675294,2|2,1:2|1:2,0:0:0:0:
103,375,26120,2,0,P|93:343|80:312,1,66.5999979675294,2|2,3:2|1:2,0:0:0:0:
24,119,26441,6,0,P|-1:173|30:217,1,99.899996951294,2|0,3:2|0:0,0:0:0:0:
23,214,26762,2,0,B|95:221|82:171|168:190,1,133.199995935059,2|0,3:2|3:3,0:0:0:0:
241,68,27243,1,2,2:2:0:0:
241,68,27404,2,0,P|228:99|219:131,1,66.5999979675294,2|0,3:2|0:0,0:0:0:0:
115,40,27724,6,0,P|127:70|137:102,1,66.5999979675294,2|0,3:2|0:0,0:0:0:0:
230,217,28045,2,0,P|209:279|194:352,1,133.199995935059,2|0,3:2|3:3,0:0:0:0:
353,268,28527,1,10,1:2:0:0:
311,381,28687,2,0,P|301:349|288:318,1,66.5999979675294,2|8,3:2|1:2,0:0:0:0:
409,211,29008,6,0,P|418:179|431:148,1,66.5999979675294,6|0,3:2|0:0,0:0:0:0:
397,69,29329,2,0,P|365:59|334:46,1,66.5999979675294,2|0,3:2|0:0,0:0:0:0:
245,131,29650,1,2,3:2:0:0:
134,11,29810,1,2,2:2:0:0:
251,45,29970,2,0,P|219:54|188:67,1,66.5999979675294,2|2,3:2|2:2,0:0:0:0:
0,153,30291,6,0,P|21:161|45:173,3,33.2999989837647,6|0|4|0,1:3|1:1|1:3|1:1,0:0:0:0:
114,96,30612,2,0,P|107:111|101:126,3,33.2999989837647,4|0|4|0,1:3|1:1|1:3|1:1,0:0:0:0:
102,209,30933,5,4,1:3:0:0:
102,209,31013,1,0,1:1:0:0:
102,209,31093,2,0,L|118:246,1,33.2999989837647,4|4,1:3|1:3,0:0:0:0:
68,307,31254,1,4,1:3:0:0:
68,307,31334,1,4,1:3:0:0:
68,307,31414,2,0,L|52:344,1,33.2999989837647,4|4,1:3|1:3,0:0:0:0:
123,382,31575,6,0,P|173:338|235:353,1,116.549996443176,6|0,3:2|0:0,0:0:0:0:
230,339,31895,2,0,P|239:298|254:253,1,77.6999976287843,2|0,1:2|0:0,0:0:0:0:
275,181,32216,1,2,3:2:0:0:
275,181,32377,1,0,1:1:0:0:
403,259,32537,2,0,P|365:267|328:279,1,77.6999976287843,2|0,3:2|1:1,0:0:0:0:
181,214,32858,6,0,P|165:156|140:83,1,116.549996443176,2|0,3:2|0:0,0:0:0:0:
146,94,33179,2,0,P|186:64|220:71,1,77.6999976287843,14|0,1:2|0:0,0:0:0:0:
424,110,33500,2,0,P|384:140|350:133,1,77.6999976287843,2|0,3:2|3:3,0:0:0:0:
292,84,33821,2,0,P|303:46|312:9,1,77.6999976287843,6|0,1:2|0:0,0:0:0:0:
271,168,34141,5,2,3:2:0:0:
271,168,34302,1,0,3:3:0:0:
329,230,34462,2,0,P|355:258|383:284,1,77.6999976287843,2|0,1:2|0:0,0:0:0:0:
191,200,34783,2,0,P|153:208|77:237,1,116.549996443176,2|0,3:2|0:0,0:0:0:0:
75,232,35104,2,0,P|43:197|47:154,1,77.6999976287843,0|0,3:3|1:1,0:0:0:0:
251,259,35425,6,0,B|231:340|182:308|164:389,1,155.399995257569,2|12,3:2|1:2,0:0:0:0:
172,294,35906,1,2,2:2:0:0:
345,361,36067,2,0,P|307:368|267:385,1,77.6999976287843,2|2,3:2|3:2,0:0:0:0:
432,281,36387,2,0,P|476:302|486:348,1,77.6999976287843,14|2,1:2|2:2,0:0:0:0:
345,270,36708,6,0,P|329:212|304:139,1,116.549996443176,6|0,3:2|0:0,0:0:0:0:
329,81,37029,2,0,P|302:124|191:134,1,155.399995257569,2|0,1:2|3:3,0:0:0:0:
97,36,37510,1,0,1:1:0:0:
97,36,37671,2,0,P|113:71|122:108,1,77.6999976287843,2|0,3:2|1:1,0:0:0:0:
52,284,37992,6,0,P|15:247|40:172,1,116.549996443176,2|0,3:2|0:0,0:0:0:0:
33,184,38313,2,0,P|99:198|190:226,1,155.399995257569,14|0,1:2|3:3,0:0:0:0:
322,278,38794,1,2,3:2:0:0:
166,320,38954,2,0,P|201:303|238:294,1,77.6999976287843,6|0,1:2|0:0,0:0:0:0:
407,301,39275,6,0,P|424:341|436:384,1,88.8,2|0,3:2|3:3,0:0:0:0:
238,294,39596,1,14,1:2:0:0:
393,178,39756,1,12,1:2:0:0:
0,0,41200,5,4,1:3:0:0:
68,34,41361,1,4,1:3:0:0:
37,103,41521,1,4,1:3:0:0:
266,47,41842,6,0,P|205:29|144:107,1,149.849995426941,6|0,3:2|0:0,0:0:0:0:
146,83,42163,1,8,1:2:0:0:
234,244,42323,1,2,1:2:0:0:
234,244,42404,1,0,1:1:0:0:
234,244,42484,2,0,P|246:195|262:148,1,99.8999969512941,10|0,3:2|3:3,0:0:0:0:
150,188,42805,2,0,P|101:206|47:226,1,99.8999969512941,8|0,1:2|0:0,0:0:0:0:
289,321,43125,6,0,P|351:296|491:262,1,199.799993902588,10|8,3:2|1:2,0:0:0:0:
345,157,43607,1,2,1:2:0:0:
417,90,43767,2,0,P|464:110|510:124,1,99.8999969512941,10|0,3:2|3:3,0:0:0:0:
234,244,44088,5,12,1:2:0:0:
234,244,44409,6,0,B|135:265|175:327|73:353,1,199.799993902588,14|8,3:2|1:2,0:0:0:0:
0,384,44890,1,2,1:2:0:0:
189,318,45051,1,10,3:2:0:0:
120,266,45211,1,0,3:3:0:0:
261,370,45371,2,0,P|333:377|387:320,1,149.849995426941,10|0,1:2|0:0,0:0:0:0:
451,369,45692,6,0,P|469:313|438:267,1,99.8999969512941,10|0,3:2|3:3,0:0:0:0:
327,192,46013,1,10,1:2:0:0:
454,101,46174,1,0,0:0:0:0:
418,187,46334,2,0,P|466:201|512:221,1,99.8999969512941,10|8,3:2|1:3,0:0:0:0:
322,101,46655,1,10,1:2:0:0:
302,111,46735,1,0,1:1:0:0:
282,119,46815,1,0,1:1:0:0:
261,126,46895,1,0,1:1:0:0:
238,131,46976,6,0,P|194:91|222:-3,1,149.849995426941,14|0,3:2|0:0,0:0:0:0:
208,8,47297,1,8,1:2:0:0:
105,150,47457,1,2,1:2:0:0:
37,97,47617,2,0,P|56:51|71:3,1,99.8999969512941,10|0,3:2|3:3,0:0:0:0:
173,210,47938,2,0,P|153:255|138:303,1,99.8999969512941,8|0,1:2|1:0,0:0:0:0:
69,350,48179,5,0,1:0:0:0:
69,350,48259,2,0,B|139:333|139:333|186:369|186:369|266:350,1,199.799993902588,10|8,3:2|1:2,0:0:0:0:
416,276,48740,1,2,1:2:0:0:
416,276,48821,1,0,1:1:0:0:
416,276,48901,2,0,P|461:296|509:311,1,99.8999969512941,10|0,3:2|3:3,0:0:0:0:
346,378,49222,5,12,1:2:0:0:
346,378,49543,6,0,P|323:277|296:175,1,199.799993902588,6|0,3:2|1:1,0:0:0:0:
298,183,50024,1,2,3:2:0:0:
137,103,50184,6,0,P|180:128|220:157,1,99.8999969512941,2|0,2:2|3:3,0:0:0:0:
418,57,50505,2,0,P|401:107|352:131,1,99.8999969512941,2|0,1:2|0:0,0:0:0:0:
362,129,50746,5,0,1:0:0:0:
363,129,50826,1,2,3:2:0:0:
252,0,50986,2,0,P|266:48|278:96,1,99.8999969512941,0|0,1:1|3:3,0:0:0:0:
278,97,51227,1,0,3:0:0:0:
278,97,51307,1,2,3:2:0:0:
223,243,51468,6,0,P|161:263|119:282,1,99.8999969512941,2|0,1:2|0:0,0:0:0:0:
299,191,51789,2,0,L|352:211,3,49.949998475647,0|0|0|0,1:1|1:1|1:1|1:1,0:0:0:0:
419,245,52109,5,6,3:2:0:0:
419,245,52270,1,0,3:3:0:0:
512,280,52430,1,8,1:2:0:0:
398,339,52591,1,2,1:2:0:0:
444,148,52751,2,0,P|430:195|418:244,1,99.8999969512941,10|0,3:2|3:3,0:0:0:0:
305,304,53072,2,0,B|227:319|249:357|162:374,1,149.849995426941,8|0,1:2|1:0,0:0:0:0:
173,371,53393,5,10,3:2:0:0:
74,252,53553,1,0,3:3:0:0:
25,333,53714,1,8,1:2:0:0:
160,281,53874,1,2,1:2:0:0:
38,158,54035,2,0,P|58:203|73:251,1,99.8999969512941,10|0,3:2|3:3,0:0:0:0:
285,54,54355,5,12,1:2:0:0:
285,54,54676,6,0,P|251:110|123:100,1,199.799993902588,14|8,3:2|1:2,0:0:0:0:
301,176,55158,1,2,1:2:0:0:
237,245,55318,2,0,P|200:203|212:154,1,99.8999969512941,10|0,3:2|3:3,0:0:0:0:
358,101,55639,2,0,P|395:143|383:192,1,99.8999969512941,10|0,1:2|0:0,0:0:0:0:
304,350,55960,6,0,P|346:296|475:310,2,199.799993902588,10|10|10,3:2|1:2|2:3,0:0:0:0:
137,275,56762,1,8,2:3:0:0:
160,280,56843,1,8,2:3:0:0:
181,287,56923,1,14,2:3:0:0:
201,295,57003,1,4,2:3:0:0:
221,305,57083,2,0,P|229:280|239:253,1,49.949998475647,4|4,2:3|2:3,0:0:0:0:
171,195,57243,6,0,B|155:114|116:137|98:47,1,149.849995426941,14|0,3:2|0:0,0:0:0:0:
102,64,57564,1,8,1:2:0:0:
255,32,57724,1,2,1:2:0:0:
255,32,57805,1,0,1:1:0:0:
255,32,57885,2,0,P|208:4|160:18,1,99.8999969512941,10|0,3:2|3:3,0:0:0:0:
6,116,58206,2,0,P|53:130|99:151,1,99.8999969512941,10|0,1:2|0:0,0:0:0:0:
245,260,58527,6,0,P|340:231|470:200,1,199.799993902588,10|8,3:2|1:2,0:0:0:0:
437,206,59008,1,2,1:2:0:0:
383,35,59168,2,0,P|368:82|347:128,1,99.8999969512941,10|0,3:2|3:3,0:0:0:0:
310,206,59489,1,8,1:2:0:0:
449,122,59650,1,2,2:2:0:0:
277,28,59810,6,0,P|205:17|115:98,1,199.799993902588,14|8,1:2|3:2,0:0:0:0:
115,96,60291,1,2,1:2:0:0:
0,56,60452,2,0,P|20:101|35:149,1,99.8999969512941,10|0,2:2|3:3,0:0:0:0:
156,208,60772,1,8,1:2:0:0:
156,208,60933,1,2,2:2:0:0:
14,330,61093,5,10,3:2:0:0:
137,285,61254,2,0,P|89:270|44:249,1,99.8999969512941,0|8,1:1|3:2,0:0:0:0:
44,249,61575,1,2,3:2:0:0:
217,351,61735,5,10,1:2:0:0:
217,351,62056,6,0,L|272:330,3,49.949998475647,2|0|0|0,1:2|1:1|1:1|1:1,0:0:0:0:
336,373,62377,6,0,P|351:325|372:280,1,88.8,6|0,3:2|3:3,0:0:0:0:
286,153,62698,2,0,P|273:195|255:236,1,88.8,10|0,1:2|0:0,0:0:0:0:
373,200,63018,2,0,P|413:182|456:169,1,88.8,10|0,3:2|3:3,0:0:0:0:
273,59,63339,2,0,P|208:50|157:98,1,133.2,10|0,1:2|1:1,0:0:0:0:
84,148,63660,6,0,P|25:108|51:-16,2,177.6,10|10|10,3:2|1:2|3:2,0:0:0:0:
159,92,64462,1,0,3:3:0:0:
94,227,64623,2,0,P|51:239|10:257,1,88.8,10|0,1:2|0:0,0:0:0:0:
167,176,64944,6,0,B|261:189|234:238|356:253,1,177.6,10|10,3:2|1:2,0:0:0:0:
398,292,65425,1,0,0:0:0:0:
493,191,65585,2,0,P|443:186|404:239,1,88.8,10|0,3:2|3:3,0:0:0:0:
309,84,65906,2,0,P|326:124|338:167,1,88.8,10|0,1:2|0:0,0:0:0:0:
323,329,66227,6,0,P|280:368|176:345,1,133.2,10|0,3:2|0:0,0:0:0:0:
195,363,66548,2,0,P|183:320|165:279,1,88.8,10|0,1:2|0:0,0:0:0:0:
120,146,66869,6,0,L|137:105,1,44.4,10|0,3:2|0:0,0:0:0:0:
54,210,67029,2,0,L|11:217,1,44.4,2|0,1:2|1:1,0:0:0:0:
139,237,67190,2,0,L|167:272,1,44.4,2|0,1:2|1:1,0:0:0:0:
39,114,67350,5,2,1:2:0:0:
39,114,67430,1,0,1:1:0:0:
39,114,67510,2,0,P|55:74|67:31,1,88.8,14|0,3:2|3:3,0:0:0:0:
203,173,67831,2,0,P|251:131|332:142,1,133.2,10|2,1:2|1:2,0:0:0:0:
317,133,68152,1,10,3:2:0:0:
468,201,68313,1,2,3:2:0:0:
380,55,68473,2,0,P|396:95|408:138,1,88.8,10|2,1:2|2:2,0:0:0:0:
500,291,68794,6,0,B|433:298|454:337|379:348,1,133.2,10|0,3:2|0:0,0:0:0:0:
380,355,69115,2,0,P|339:338|296:326,1,88.8,10|2,1:2|2:2,0:0:0:0:
142,296,69436,2,0,P|101:312|58:324,1,88.8,10|2,3:2|3:2,0:0:0:0:
227,261,69756,1,10,1:2:0:0:
227,261,69917,1,0,0:0:0:0:
88,152,70077,6,0,L|69:204,1,44.4,6|2,1:2|2:2,0:0:0:0:
130,249,70238,2,0,L|145:290,3,44.4,2|2|2|2,3:2|2:2|3:2|2:2,0:0:0:0:
227,261,70559,5,2,1:2:0:0:
227,261,70639,1,2,2:2:0:0:
227,261,70719,2,0,L|242:219,3,44.4,2|2|2|2,3:2|2:2|3:2|2:2,0:0:0:0:
312,174,71040,2,0,L|353:190,3,44.4,2|2|2|2,1:2|3:2|3:2|2:2,0:0:0:0:
416,131,71361,5,2,1:2:0:0:
436,138,71441,1,2,2:2:0:0:
457,145,71521,1,6,1:2:0:0:
479,151,71601,1,2,2:2:0:0:
500,157,71682,2,0,L|484:198,3,44.4,2|2|2|2,3:2|2:2|3:2|2:2,0:0:0:0:
411,127,72002,2,0,L|395:85,3,44.4,6|0|0|0,1:2|0:0|0:0|0:0,0:0:0:0:
363,14,72323,5,2,3:2:0:0:
325,28,72403,1,2,1:2:0:0:
292,41,72483,1,2,1:2:0:0:
260,52,72563,1,2,1:2:0:0:
231,66,72644,6,0,P|252:134|272:205,2,133.199995935059,6|2|2,3:2|3:2|3:2,0:0:0:0:
268,193,73607,2,0,P|301:199|333:208,1,66.5999979675294,2|0,3:2|0:0,0:0:0:0:
177,160,73928,6,0,P|143:203|60:210,1,133.199995935059,2|2,3:2|3:2,0:0:0:0:
68,213,74569,1,2,3:2:0:0:
166,281,74730,1,10,1:2:0:0:
95,368,74890,2,0,P|88:335|79:303,1,66.5999979675294,2|10,3:2|1:2,0:0:0:0:
254,296,75211,6,0,P|292:285|352:339,1,99.899996951294,2|0,3:2|0:0,0:0:0:0:
349,321,75532,2,0,P|396:299|404:218,1,133.199995935059,2|2,3:2|3:2,0:0:0:0:
245,57,76174,2,0,P|238:89|229:121,1,66.5999979675294,2|2,3:2|2:2,0:0:0:0:
178,188,76494,6,0,P|240:164|304:148,1,133.199995935059,2|2,3:2|3:2,0:0:0:0:
109,135,76976,1,2,1:2:0:0:
109,135,77136,2,0,P|98:100|84:63,1,66.5999979675294,2|2,1:2|1:2,0:0:0:0:
185,195,77457,2,0,P|173:226|163:258,1,66.5999979675294,2|2,3:2|1:2,0:0:0:0:
109,380,77778,6,0,P|82:348|102:272,1,99.899996951294,2|0,3:2|0:0,0:0:0:0:
93,289,78099,2,0,B|165:282|152:332|238:313,1,133.199995935059,2|2,3:2|3:2,0:0:0:0:
351,204,78580,1,2,2:2:0:0:
294,269,78740,2,0,P|305:300|315:332,1,66.5999979675294,2|0,3:2|0:0,0:0:0:0:
510,285,79061,6,0,P|479:251|408:264,1,99.899996951294,2|0,3:2|0:0,0:0:0:0:
423,245,79382,2,0,P|384:183|408:124,1,133.199995935059,2|2,3:2|3:2,0:0:0:0:
500,21,79863,1,10,1:2:0:0:
500,21,80024,2,0,P|488:52|478:84,1,66.5999979675294,2|10,3:2|1:2,0:0:0:0:
304,132,80345,6,0,P|241:108|177:92,2,133.199995935059,6|2|2,3:2|3:2|3:2,0:0:0:0:
304,132,81307,2,0,P|316:98|330:62,1,66.5999979675294,2|0,3:2|0:0,0:0:0:0:
137,167,81628,6,0,L|154:216,3,36.0749983486176,6|0|4|0,1:3|1:1|1:3|1:1,0:0:0:0:
93,256,81949,2,0,L|76:305,3,36.0749983486176,4|0|4|0,1:3|1:1|1:3|1:1,0:0:0:0:
124,356,82270,2,0,L|158:367,3,36.0749983486176,4|0|4|4,1:3|1:1|1:3|1:3,0:0:0:0:
234,320,82590,1,4,1:3:0:0:
254,289,82671,1,4,1:3:0:0:
285,272,82751,1,4,1:3:0:0:
318,274,82831,1,4,1:3:0:0:
346,296,82912,5,6,1:2:0:0:
483,236,83072,1,4,1:3:0:0:
397,230,83232,1,6,1:3:0:0:
432,306,83393,1,0,1:1:0:0:
432,306,83553,1,2,3:2:0:0:
199,93,83874,5,6,1:2:0:0:
163,165,84035,1,0,1:1:0:0:
245,160,84195,1,2,2:2:0:0:
121,99,84355,1,0,1:1:0:0:
121,99,84516,1,2,2:2:0:0:
312,342,84837,6,0,B|267:279|344:220|348:229|351:236|425:188|377:106,1,271.949991700745,14|0,3:2|0:0,0:0:0:0:
378,108,85478,5,6,1:2:0:0:
442,164,85639,1,4,1:3:0:0:
365,189,85799,1,6,1:3:0:0:
427,246,85960,1,2,1:2:0:0:
427,246,86120,1,2,3:2:0:0:
180,371,86441,5,6,1:2:0:0:
110,336,86601,1,0,1:1:0:0:
174,293,86762,1,0,1:1:0:0:
65,250,86922,2,0,L|102:260,1,38.8499988143921,2|2,1:2|2:2,0:0:0:0:
103,261,87083,2,0,L|126:181,1,77.6999976287843,2|2,2:2|2:2,0:0:0:0:
83,44,87404,6,0,B|55:70|20:72|20:72|19:108|54:171|118:184|174:127,1,271.949991700745,14|0,1:2|0:0,0:0:0:0:
165,135,88045,5,6,1:2:0:0:
302,101,88206,1,4,1:3:0:0:
224,87,88366,1,6,1:3:0:0:
338,172,88527,1,0,1:1:0:0:
338,172,88687,1,0,3:3:0:0:
203,257,89008,5,6,1:2:0:0:
245,318,89168,1,0,1:1:0:0:
196,375,89329,1,2,1:2:0:0:
252,200,89489,1,0,1:1:0:0:
52,64,89970,6,0,B|13:39|43:-24|80:-37|161:5|154:76|95:134,1,271.949991700745,12|0,3:2|0:0,0:0:0:0:
97,131,90612,5,6,1:2:0:0:
41,184,90772,1,4,1:3:0:0:
53,263,90933,1,6,1:3:0:0:
122,308,91093,1,0,1:1:0:0:
122,308,91254,1,2,3:2:0:0:
377,77,91575,5,4,1:2:0:0:
205,169,91735,1,0,1:1:0:0:
325,137,91895,1,2,1:2:0:0:
251,100,92056,1,0,1:1:0:0:
251,100,92216,6,0,L|238:60,2,33.2999989837647,2|2|2,2:2|2:2|2:2,0:0:0:0:
325,137,92537,2,0,L|300:216,1,66.5999979675294,2|0,2:2|0:0,0:0:0:0:
369,272,92858,2,0,P|395:247|429:248,1,66.6,2|0,2:2|0:0,0:0:0:0:
424,327,93179,6,0,P|318:295|225:277,1,199.799993902588,6|8,3:2|1:2,0:0:0:0:
81,374,93660,1,2,1:2:0:0:
81,374,93740,1,0,1:1:0:0:
81,374,93821,2,0,P|124:372|162:330,1,99.8999969512941,10|0,3:2|3:3,0:0:0:0:
37,151,94141,2,0,P|12:189|81:276,1,149.849995426941,8|0,1:2|1:0,0:0:0:0:
56,272,94462,5,10,3:2:0:0:
213,169,94623,1,0,3:3:0:0:
150,85,94783,2,0,P|137:130|117:186,1,99.8999969512941,8|2,1:2|1:2,0:0:0:0:
275,271,95104,2,0,P|287:225|308:170,1,99.8999969512941,10|0,3:2|3:3,0:0:0:0:
397,12,95425,5,12,1:2:0:0:
397,12,95746,6,0,P|360:70|236:57,1,199.799993902588,14|8,3:2|1:2,0:0:0:0:
374,232,96227,1,2,1:2:0:0:
305,175,96387,1,10,3:2:0:0:
393,145,96548,1,0,3:3:0:0:
275,271,96708,2,0,P|202:291|133:319,1,149.849995426941,10|0,1:2|1:0,0:0:0:0:
126,318,97029,6,0,P|78:280|100:183,1,149.849995426941,10|0,3:2|0:0,0:0:0:0:
85,198,97350,1,10,1:2:0:0:
196,111,97510,1,0,0:0:0:0:
85,30,97671,6,0,L|101:84,3,49.949998475647,10|8|8|8,3:2|1:3|1:3|1:3,0:0:0:0:
196,111,97992,1,10,1:2:0:0:
196,111,98072,1,0,1:1:0:0:
196,111,98152,1,0,1:1:0:0:
196,111,98232,1,0,1:1:0:0:
196,111,98313,6,0,B|276:138|243:176|329:201,1,149.849995426941,14|0,3:2|0:0,0:0:0:0:
315,196,98633,1,8,1:2:0:0:
422,309,98794,1,2,1:2:0:0:
422,309,98874,1,0,1:1:0:0:
422,309,98954,2,0,P|454:260|427:214,1,99.8999969512941,10|0,3:2|3:3,0:0:0:0:
280,273,99275,2,0,P|238:290|185:308,1,99.8999969512941,8|0,1:2|1:0,0:0:0:0:
121,362,99516,5,0,1:0:0:0:
121,362,99596,2,0,P|68:321|115:200,1,199.799993902588,10|8,3:2|1:2,0:0:0:0:
256,158,100077,1,2,1:2:0:0:
193,56,100238,2,0,P|177:103|158:149,1,99.8999969512941,10|0,3:2|3:3,0:0:0:0:
280,273,100559,5,12,1:2:0:0:
280,273,100879,6,0,P|373:313|474:364,1,199.799993902588,6|0,3:2|1:1,0:0:0:0:
461,356,101361,1,2,3:2:0:0:
357,254,101521,6,0,P|404:238|450:219,1,99.8999969512941,2|0,2:2|3:3,0:0:0:0:
342,333,101842,2,0,P|295:349|249:368,1,99.8999969512941,2|2,1:2|2:2,0:0:0:0:
241,383,102083,5,0,0:0:0:0:
241,383,102163,1,2,3:2:0:0:
52,289,102323,2,0,P|69:332|169:319,1,149.849995426941,2|0,1:2|0:0,0:0:0:0:
160,331,102644,1,2,3:2:0:0:
101,193,102805,6,0,P|53:176|7:157,1,99.8999969512941,2|0,1:2|0:0,0:0:0:0:
180,243,103125,2,0,L|228:226,3,49.949998475647,0|0|0|0,1:1|1:1|1:1|1:1,0:0:0:0:
290,269,103446,5,6,3:2:0:0:
326,189,103607,1,0,3:3:0:0:
204,58,103767,1,8,1:2:0:0:
240,138,103928,1,2,1:2:0:0:
384,103,104088,2,0,P|336:86|290:67,1,99.8999969512941,10|0,3:2|3:3,0:0:0:0:
154,129,104409,2,0,P|106:145|60:164,1,99.8999969512941,8|0,1:2|0:0,0:0:0:0:
179,296,104730,5,10,3:2:0:0:
179,296,104890,1,0,3:3:0:0:
126,227,105051,1,8,1:2:0:0:
265,281,105211,1,2,1:2:0:0:
145,374,105371,2,0,P|100:344|44:351,1,99.8999969512941,10|0,3:2|3:3,0:0:0:0:
265,281,105692,5,12,1:2:0:0:
265,281,106013,6,0,B|371:305|325:357|437:385,1,199.799993902588,14|8,3:2|1:2,0:0:0:0:
431,383,106494,1,2,1:2:0:0:
512,258,106655,2,0,P|444:255|420:285,1,99.8999969512941,10|0,3:2|3:3,0:0:0:0:
314,121,106976,2,0,P|334:167|350:214,1,99.8999969512941,10|2,1:2|2:2,0:0:0:0:
427,158,107297,6,0,P|443:110|478:16,1,149.849995426941,10|0,3:2|0:0,0:0:0:0:
468,10,107617,2,0,P|422:30|375:46,1,99.8999969512941,10|0,1:2|0:0,0:0:0:0:
242,166,107938,2,0,L|176:147,3,49.949998475647,10|8|8|8,2:3|2:3|2:3|2:3,0:0:0:0:
140,210,108259,2,0,L|92:230,1,49.949998475647,14|4,2:3|2:3,0:0:0:0:
46,166,108420,2,0,L|0:146,1,49.949998475647,6|4,2:3|2:3,0:0:0:0:
145,300,108580,6,0,P|201:320|294:364,1,149.849995426941,14|0,3:2|0:0,0:0:0:0:
282,358,108901,1,8,1:2:0:0:
420,233,109061,1,2,1:2:0:0:
420,233,109141,1,0,1:1:0:0:
420,233,109222,2,0,P|400:279|384:326,1,99.8999969512941,10|0,3:2|3:3,0:0:0:0:
303,270,109543,2,0,P|287:222|266:177,1,99.8999969512941,10|0,1:2|0:0,0:0:0:0:
290,97,109783,5,0,1:0:0:0:
290,97,109863,2,0,P|258:154|130:157,1,199.799993902588,10|8,3:2|1:2,0:0:0:0:
0,37,110345,1,2,1:2:0:0:
70,84,110505,2,0,P|49:129|33:176,1,99.8999969512941,10|0,3:2|3:3,0:0:0:0:
230,40,110826,2,0,P|177:44|149:97,1,99.8999969512941,8|2,1:2|2:2,0:0:0:0:
33,176,111147,6,0,B|57:282|109:236|137:348,1,199.799993902588,14|8,1:2|3:2,0:0:0:0:
135,342,111628,1,2,1:2:0:0:
211,216,111789,2,0,P|165:237|118:253,1,99.8999969512941,10|0,2:2|3:3,0:0:0:0:
287,155,112109,1,8,1:2:0:0:
194,121,112270,1,2,2:2:0:0:
302,249,112430,5,10,3:2:0:0:
229,308,112591,1,0,1:1:0:0:
287,155,112751,2,0,P|296:132|305:105,3,49.949998475647,8|0|2|0,3:2|1:0|3:2|0:0,0:0:0:0:
299,101,113393,6,0,L|238:79,3,55.5,6|2|2|2,3:2|2:2|3:2|2:2,0:0:0:0:
356,47,113713,2,0,L|408:28,3,55.5,10|2|2|2,1:2|2:2|2:2|2:2,0:0:0:0:
381,123,114034,1,10,3:2:0:0:
385,136,114114,1,2,2:2:0:0:
390,149,114194,1,2,3:2:0:0:
395,162,114274,1,2,2:2:0:0:
399,175,114355,2,0,L|451:193,3,55.5,10|2|2|2,1:2|2:2|2:2|1:2,0:0:0:0:
336,227,114676,6,0,L|283:245,3,55.5,10|2|2|2,3:2|2:2|3:2|2:2,0:0:0:0:
218,293,114997,2,0,L|165:274,3,55.5,10|2|2|2,1:2|2:2|2:2|1:2,0:0:0:0:
107,219,115318,1,10,3:2:0:0:
77,225,115398,1,2,2:2:0:0:
57,248,115478,1,2,3:2:0:0:
55,279,115558,1,2,2:2:0:0:
72,304,115638,1,0,1:1:0:0:
213,202,115959,5,6,3:2:0:0:
213,202,116040,1,2,2:2:0:0:
213,202,116120,2,0,L|194:149,1,55.5,2|2,3:2|2:2,0:0:0:0:
261,30,116280,1,10,1:2:0:0:
261,30,116361,1,2,2:2:0:0:
261,30,116441,2,0,L|243:83,1,55.5,2|2,2:2|1:2,0:0:0:0:
302,136,116601,1,10,3:2:0:0:
315,131,116681,1,2,2:2:0:0:
329,127,116761,1,2,3:2:0:0:
342,123,116841,1,2,2:2:0:0:
356,121,116922,2,0,L|409:102,3,55.5,10|2|2|2,1:2|2:2|2:2|1:2,0:0:0:0:
480,132,117243,5,10,3:2:0:0:
500,150,117323,1,2,2:2:0:0:
510,176,117403,1,2,3:2:0:0:
510,203,117483,1,2,2:2:0:0:
498,228,117564,2,0,P|448:212|379:195,1,111,10|0,1:2|0:0,0:0:0:0:
331,245,117804,5,0,1:1:0:0:
331,245,117884,2,0,L|352:301,1,55.5,14|6,2:3|2:3,0:0:0:0:
431,304,118045,2,0,L|411:355,1,55.5,6|6,2:3|2:3,0:0:0:0:
261,290,118205,1,6,1:3:0:0:
248,295,118285,1,4,2:3:0:0:
234,299,118365,1,4,2:3:0:0:
221,303,118445,1,4,1:3:0:0:
207,305,118526,6,0,B|216:239|168:200|150:232|82:182|111:101,1,222,6|10,3:2|1:2,0:0:0:0:
146,60,118927,1,2,2:2:0:0:
146,60,119007,2,0,L|197:40,1,55.5,2|2,2:2|1:2,0:0:0:0:
335,143,119168,2,0,P|380:98|326:13,1,166.5,10|0,3:2|0:0,0:0:0:0:
275,65,119489,2,0,P|264:108|239:175,1,111,10|0,1:2|0:0,0:0:0:0:
349,284,119810,6,0,L|369:233,3,55.5,10|2|2|2,3:2|2:2|3:2|2:2,0:0:0:0:
412,329,120130,2,0,P|359:319|314:350,1,111,10|0,1:2|0:0,0:0:0:0:
222,240,120451,6,0,L|171:260,3,55.5,10|2|2|2,3:2|2:2|3:2|2:2,0:0:0:0:
121,321,120772,2,0,L|141:372,1,55.5,2|2,1:2|2:2,0:0:0:0:
165,253,120933,2,0,L|145:202,1,55.5,2|2,2:2|2:2,0:0:0:0:
42,79,121093,6,0,P|83:145|219:116,1,222,6|10,3:2|1:2,0:0:0:0:
204,51,121494,1,2,2:2:0:0:
204,51,121574,2,0,L|153:31,1,55.5,2|2,2:2|1:2,0:0:0:0:
283,160,121735,2,0,L|334:140,3,55.5,10|2|2|2,3:2|2:2|3:2|2:2,0:0:0:0:
386,195,122056,2,0,L|437:215,3,55.5,10|2|2|2,1:2|2:2|2:2|2:2,0:0:0:0:
479,147,122376,6,0,P|505:75|444:8,2,158.174995776272,0|0|0,1:1|1:1|1:1,0:0:0:0:
329,252,123098,6,0,P|291:299|308:349,1,105.449997184181,0|0,1:1|0:0,0:0:0:0:
299,350,123339,2,0,P|353:389|394:380,1,105.449997184181,0|0,1:1|0:0,0:0:0:0:
249,274,123660,6,0,P|189:261|122:327,1,149.849995426941,6|0,3:2|0:0,0:0:0:0:
114,313,123981,2,0,P|66:274|76:218,1,99.8999969512941,10|0,1:2|0:0,0:0:0:0:
210,57,124302,1,10,3:2:0:0:
210,57,124462,1,0,3:3:0:0:
134,104,124622,2,0,P|151:151|169:208,1,99.8999969512941,10|0,1:2|0:0,0:0:0:0:
222,327,124943,6,0,B|323:309|286:255|398:235,1,199.799993902588,14|10,3:2|1:2,0:0:0:0:
394,235,125585,2,0,P|408:187|426:140,1,99.8999969512941,10|0,3:2|3:3,0:0:0:0:
360,61,125906,2,0,P|407:46|454:28,1,99.8999969512941,10|0,1:2|0:0,0:0:0:0:
324,147,126227,6,0,P|274:176|195:134,1,149.849995426941,14|0,3:2|0:0,0:0:0:0:
189,128,126548,2,0,P|206:81|221:33,1,99.8999969512941,10|0,1:2|0:0,0:0:0:0:
106,175,126868,1,10,3:2:0:0:
182,235,127029,1,0,3:3:0:0:
94,272,127189,2,0,P|46:286|0:304,1,99.8999969512941,10|0,1:2|0:0,0:0:0:0:
254,304,127510,6,0,P|351:341|442:380,1,199.799993902588,14|8,3:2|1:2,0:0:0:0:
439,378,128152,2,0,P|445:359|459:331,2,49.949998475647,10|0|0,3:2|1:1|3:3,0:0:0:0:
306,201,128473,2,0,P|323:248|338:296,1,99.8999969512941,10|0,1:2|0:0,0:0:0:0:
418,200,128794,6,0,B|436:99|490:136|510:24,2,199.799993902588,6|10|10,3:2|1:2|3:2,0:0:0:0:
418,200,129756,2,0,P|465:214|512:231,1,99.8999969512941,10|0,1:2|0:0,0:0:0:0:
346,108,130077,6,0,P|298:158|213:142,1,149.849995426941,14|0,3:2|0:0,0:0:0:0:
223,149,130398,1,10,1:2:0:0:
119,96,130558,1,2,2:2:0:0:
193,9,130719,2,0,L|212:64,2,49.949998475647,10|0|0,3:2|1:1|3:3,0:0:0:0:
55,179,131040,2,0,P|14:145|17:96,1,99.8999969512941,10|2,1:2|2:2,0:0:0:0:
162,212,131360,6,0,P|128:295|109:362,1,149.849995426941,14|0,3:2|0:0,0:0:0:0:
105,359,131681,2,0,P|58:341|10:327,1,99.8999969512941,10|0,1:2|0:0,0:0:0:0:
228,277,132002,2,0,P|302:274|359:342,1,149.849995426941,10|0,3:2|0:0,0:0:0:0:
363,321,132323,2,0,P|410:284|405:236,1,99.8999969512941,10|0,1:2|0:0,0:0:0:0:
321,84,132644,5,14,3:2:0:0:
321,84,132804,1,0,3:3:0:0:
406,135,132965,1,8,1:2:0:0:
292,185,133125,1,0,3:0:0:0:
226,31,133286,1,8,3:2:0:0:
321,84,133446,1,0,3:3:0:0:
190,160,133606,2,0,L|135:141,3,49.949998475647,8|0|0|0,1:2|0:0|0:0|1:1,0:0:0:0:
76,186,133927,6,0,P|27:139|77:42,1,149.849995426941,6|0,3:2|0:0,0:0:0:0:
39,53,134248,2,0,P|86:38|133:21,1,99.8999969512941,10|0,1:2|0:0,0:0:0:0:
190,160,134569,1,10,3:2:0:0:
190,160,134729,1,0,3:3:0:0:
303,101,134890,1,10,1:2:0:0:
209,63,135050,1,0,0:0:0:0:
306,200,135211,6,0,P|373:224|476:159,2,199.799993902588,14|8|10,3:2|1:2|3:2,0:0:0:0:
173,298,136013,1,0,3:3:0:0:
300,368,136173,2,0,P|282:321|268:273,1,99.8999969512941,10|0,1:2|0:0,0:0:0:0:
21,244,136494,6,0,P|88:266|167:302,1,149.849995426941,14|0,3:2|0:0,0:0:0:0:
173,298,136815,2,0,P|187:250|204:203,1,99.8999969512941,10|0,1:2|0:0,0:0:0:0:
340,86,137136,1,14,3:2:0:0:
288,229,137296,1,0,3:3:0:0:
219,14,137457,2,0,P|235:60|249:108,1,99.8999969512941,10|0,1:2|0:0,0:0:0:0:
401,201,137778,6,0,B|381:309|327:272|309:373,2,199.799993902588,14|8|10,3:2|1:2|3:2,0:0:0:0:
340,86,138580,1,0,3:3:0:0:
406,32,138740,2,0,P|456:27|495:60,1,99.8999969512941,10|0,1:2|0:0,0:0:0:0:
318,174,139061,6,0,P|249:188|120:233,1,199.799993902588,6|10,3:2|1:2,0:0:0:0:
29,160,139542,1,0,0:0:0:0:
29,160,139622,1,0,1:1:0:0:
29,160,139703,2,0,P|0:198|4:247,1,99.8999969512941,10|0,3:2|3:3,0:0:0:0:
225,86,140024,2,0,P|173:42|99:69,1,149.849995426941,10|0,1:2|1:1,0:0:0:0:
93,76,140344,6,0,P|109:122|123:170,1,99.8999969512941,14|0,3:2|3:3,0:0:0:0:
271,283,140665,1,10,1:2:0:0:
154,323,140826,1,0,0:0:0:0:
154,323,140906,1,0,1:1:0:0:
154,323,140986,2,0,P|170:276|184:228,1,99.8999969512941,10|0,3:2|3:3,0:0:0:0:
304,146,141307,2,0,P|388:176|476:196,1,149.849995426941,10|0,1:2|1:1,0:0:0:0:
446,190,141628,5,14,3:2:0:0:
357,254,141788,1,2,3:2:0:0:
424,372,141949,2,0,P|456:327|436:276,1,99.8999969512941,10|2,1:2|2:2,0:0:0:0:
293,149,142270,2,0,P|261:194|281:245,1,99.8999969512941,14|2,3:2|3:2,0:0:0:0:
395,116,142590,1,10,1:2:0:0:
311,47,142751,1,2,2:2:0:0:
415,6,142911,6,0,P|461:22|509:36,1,99.8999969512941,6|0,3:2|3:3,0:0:0:0:
293,149,143232,2,0,P|247:133|199:119,1,99.8999969512941,0|0,1:1|3:3,0:0:0:0:
94,256,143553,2,0,P|64:218|75:171,1,99.8999969512941,0|0,0:0|3:3,0:0:0:0:
293,149,143874,2,0,L|276:196,3,49.949998475647,8|8|4|4,2:3|2:3|2:3|2:3,0:0:0:0:
205,232,144195,6,0,P|217:265|232:311,3,66.5999979675294,2|2|2|2,2:2|2:2|2:2|2:2,0:0:0:0:
301,318,144836,2,0,P|287:349|278:380,3,55.5,2|2|2|2,2:2|2:2|2:2|2:2,0:0:0:0:
205,232,145478,6,0,P|145:219|76:292,1,149.849995426941,6|0,3:2|0:0,0:0:0:0:
80,271,145799,1,8,1:2:0:0:
232,146,145959,1,2,1:2:0:0:
232,146,146040,1,0,1:1:0:0:
232,146,146120,2,0,P|269:102|250:52,1,99.8999969512941,10|0,3:2|3:3,0:0:0:0:
184,6,146441,2,0,P|147:50|166:100,1,99.8999969512941,8|0,1:2|0:0,0:0:0:0:
300,206,146761,6,0,B|401:224|364:278|472:298,1,199.799993902588,10|8,3:2|1:2,0:0:0:0:
376,194,147243,1,2,1:2:0:0:
475,110,147403,2,0,L|458:161,1,49.949998475647,10|0,3:2|0:0,0:0:0:0:
464,165,147564,1,0,3:3:0:0:
260,64,147724,5,12,1:2:0:0:
260,64,148045,6,0,P|357:44|453:14,1,199.799993902588,14|8,3:2|1:2,0:0:0:0:
339,93,148526,1,2,1:2:0:0:
197,0,148687,2,0,P|160:43|170:88,1,99.8999969512941,10|0,3:2|3:3,0:0:0:0:
266,235,149007,2,0,P|292:189|266:139,1,99.8999969512941,10|0,1:2|0:0,0:0:0:0:
190,165,149248,5,0,1:0:0:0:
190,165,149328,2,0,P|148:182|95:200,1,99.8999969512941,10|0,3:2|3:3,0:0:0:0:
0,77,149649,2,0,P|45:73|85:110,1,99.8999969512941,10|0,1:2|0:0,0:0:0:0:
182,259,149970,2,0,L|165:310,3,49.949998475647,10|8|8|8,3:2|1:3|1:3|1:3,0:0:0:0:
220,365,150291,1,10,1:2:0:0:
241,378,150371,1,0,1:1:0:0:
265,382,150451,1,0,1:1:0:0:
289,376,150531,1,0,1:1:0:0:
309,362,150612,6,0,P|329:265|359:169,1,199.799993902588,14|12,3:2|1:2,0:0:0:0:
437,14,151093,1,2,1:2:0:0:
287,105,151253,1,10,3:2:0:0:
447,165,151414,1,0,3:3:0:0:
338,0,151574,2,0,P|355:42|373:95,1,99.8999969512941,12|0,1:2|1:0,0:0:0:0:
258,191,151895,6,0,P|211:240|122:223,1,149.849995426941,10|0,3:2|0:0,0:0:0:0:
134,232,152216,1,12,1:2:0:0:
14,136,152376,1,2,1:2:0:0:
14,136,152457,1,0,1:1:0:0:
14,136,152537,1,10,3:2:0:0:
164,43,152697,1,0,3:3:0:0:
114,140,152858,5,12,1:2:0:0:
114,140,153179,6,0,B|132:241|186:204|206:312,1,199.799993902588,6|0,3:2|1:1,0:0:0:0:
206,312,153660,1,2,3:2:0:0:
120,317,153820,6,0,P|119:268|151:231,1,99.8999969512941,2|0,2:2|3:3,0:0:0:0:
304,290,154141,2,0,P|304:338|272:375,1,99.8999969512941,2|0,1:2|0:0,0:0:0:0:
272,375,154382,5,0,0:0:0:0:
272,375,154462,1,2,3:2:0:0:
206,312,154622,2,0,P|224:265|240:218,1,99.8999969512941,0|0,1:1|3:3,0:0:0:0:
240,218,154863,5,0,0:0:0:0:
240,218,154943,1,2,3:2:0:0:
203,139,155104,2,0,P|155:123|109:104,1,99.8999969512941,6|0,1:2|0:0,0:0:0:0:
247,226,155425,1,0,1:1:0:0:
260,221,155505,1,0,1:1:0:0:
274,217,155585,1,0,1:1:0:0:
287,213,155665,1,0,1:1:0:0:
301,211,155745,5,6,3:2:0:0:
453,270,155906,1,0,3:3:0:0:
390,196,156066,1,8,1:2:0:0:
360,279,156227,1,2,1:2:0:0:
495,181,156387,2,0,P|475:134|460:87,1,99.8999969512941,10|0,3:2|3:3,0:0:0:0:
248,38,156708,2,0,P|295:91|373:76,1,149.849995426941,8|0,1:2|1:0,0:0:0:0:
366,81,157029,5,10,3:2:0:0:
243,176,157189,1,0,3:3:0:0:
306,251,157350,2,0,P|353:266|399:285,1,99.8999969512941,8|2,1:2|1:2,0:0:0:0:
243,176,157671,2,0,P|194:169|149:211,1,99.8999969512941,10|0,3:2|3:3,0:0:0:0:
77,145,157991,2,0,P|42:182|58:249,1,99.8999969512941,12|2,1:2|2:2,0:0:0:0:
159,343,158312,6,0,P|123:283|-3:308,2,199.799993902588,14|8|10,3:2|1:2|3:2,0:0:0:0:
324,263,159114,1,0,3:3:0:0:
262,360,159275,2,0,P|246:312|227:266,1,99.8999969512941,10|0,1:2|0:0,0:0:0:0:
258,189,159515,5,0,1:0:0:0:
258,189,159596,2,0,P|301:154|354:168,1,99.8999969512941,10|0,3:2|3:3,0:0:0:0:
413,97,159917,2,0,P|452:149|445:190,1,99.8999969512941,10|0,1:2|0:0,0:0:0:0:
297,65,160237,1,10,2:3:0:0:
297,65,160398,1,8,2:3:0:0:
353,0,160558,2,0,L|400:15,1,49.949998475647,14|4,2:3|2:3,0:0:0:0:
247,129,160719,2,0,L|199:113,1,49.949998475647,6|4,2:3|2:3,0:0:0:0:
79,19,160879,6,0,P|108:114|129:212,1,199.799993902588,14|8,3:2|1:2,0:0:0:0:
129,212,161360,1,2,1:2:0:0:
46,297,161521,2,0,P|10:259|19:196,1,99.8999969512941,10|0,3:2|3:3,0:0:0:0:
172,324,161842,2,0,P|128:372|91:369,1,99.8999969512941,8|2,1:2|2:2,0:0:0:0:
236,231,162163,6,0,B|344:251|307:305|408:323,1,199.799993902588,10|8,3:2|1:2,0:0:0:0:
318,331,162644,1,2,1:2:0:0:
462,253,162804,2,0,P|498:291|489:354,1,99.8999969512941,10|0,3:2|3:3,0:0:0:0:
332,240,163125,2,0,P|316:192|297:146,1,99.8999969512941,8|2,1:2|2:2,0:0:0:0:
495,0,163446,6,0,B|475:108|421:71|403:172,1,199.799993902588,14|8,1:2|3:2,0:0:0:0:
402,172,163927,1,2,1:2:0:0:
462,253,164088,2,0,P|498:215|496:159,1,99.8999969512941,10|0,2:2|3:3,0:0:0:0:
413,77,164409,2,0,P|365:61|319:42,1,99.8999969512941,8|2,1:2|2:2,0:0:0:0:
102,165,164729,5,10,3:2:0:0:
231,43,164890,1,4,1:2:0:0:
120,1,165050,2,0,P|139:47|154:94,1,99.8999969512941,8|2,3:2|3:2,0:0:0:0:
285,160,165371,2,0,P|265:206|250:253,1,99.8999969512941,14|2,1:2|2:2,0:0:0:0:
148,374,165692,2,0,L|131:323,3,49.949998475647,2|0|0|0,1:2|1:1|1:1|1:1,0:0:0:0:
164,252,166013,6,0,B|265:270|228:324|336:344,1,199.799993902588,14|8,3:2|1:2,0:0:0:0:
496,240,166494,1,2,1:2:0:0:
496,240,166574,1,0,1:1:0:0:
496,240,166655,2,0,P|476:286|461:333,1,99.8999969512941,10|0,3:2|3:3,0:0:0:0:
351,178,166975,2,0,P|370:224|385:271,1,99.8999969512941,8|2,1:2|2:2,0:0:0:0:
505,127,167296,6,0,P|462:61|346:98,1,199.799993902588,10|8,3:2|1:2,0:0:0:0:
198,16,167778,1,2,1:2:0:0:
247,146,167938,2,0,P|262:98|281:52,1,99.8999969512941,10|0,3:2|3:3,0:0:0:0:
162,102,168259,2,0,P|115:121|68:136,1,99.8999969512941,8|2,1:2|2:2,0:0:0:0:
229,246,168580,6,0,P|324:217|422:196,1,199.799993902588,14|8,1:2|3:2,0:0:0:0:
247,146,169061,1,2,1:2:0:0:
316,75,169221,2,0,P|362:94|409:109,1,99.8999969512941,10|0,2:2|3:3,0:0:0:0:
229,246,169542,2,0,P|182:226|135:211,1,99.8999969512941,10|0,1:2|0:0,0:0:0:0:
212,52,169863,6,0,P|229:98|246:145,3,99.8999969512941,2|2|2|2,2:2|2:2|2:2|2:2,0:0:0:0:
170,313,171147,6,0,P|106:336|-4:384,2,177.6,6|10|10,3:2|1:2|3:2,0:0:0:0:
283,371,171949,1,0,3:3:0:0:
298,219,172109,2,0,P|260:247|260:300,1,88.8,10|0,1:2|0:0,0:0:0:0:
373,380,172430,6,0,P|400:305|432:231,1,133.2,10|0,3:2|0:0,0:0:0:0:
432,249,172751,2,0,P|470:267|526:292,1,88.8,10|0,1:2|0:0,0:0:0:0:
356,80,173072,2,0,P|396:106|375:187,1,133.2,10|0,3:2|0:0,0:0:0:0:
375,187,173393,2,0,P|332:200|290:215,1,88.8,10|0,1:2|0:0,0:0:0:0:
131,97,173713,6,0,P|156:158|179:220,1,133.2,10|0,3:2|0:0,0:0:0:0:
179,220,174034,1,10,1:2:0:0:
111,384,174195,1,0,0:0:0:0:
228,336,174355,2,0,P|186:320|147:298,1,88.8,10|0,3:2|3:3,0:0:0:0:
64,226,174676,2,0,P|24:263|26:306,1,88.8,10|2,1:2|2:2,0:0:0:0:
179,220,174997,6,0,P|221:169|197:92,1,133.2,10|0,3:2|0:0,0:0:0:0:
203,98,175318,2,0,P|163:111|104:128,1,88.8,10|0,1:2|0:0,0:0:0:0:
292,203,175638,2,0,L|351:186,3,44.4,10|0|2|0,3:2|0:0|1:2|1:1,0:0:0:0:
383,254,175959,2,0,L|437:270,1,44.4,2|0,1:2|1:1,0:0:0:0:
470,200,176120,2,0,L|512:187,1,44.4,2|0,1:2|1:1,0:0:0:0:
401,344,176280,6,0,P|339:358|264:378,1,133.2,14|0,3:2|0:0,0:0:0:0:
271,375,176601,1,10,1:2:0:0:
138,224,176761,1,2,2:2:0:0:
212,271,176922,2,0,P|198:313|185:355,1,88.8,10|2,3:2|3:2,0:0:0:0:
21,263,177243,2,0,P|50:217|148:235,1,133.2,10|0,1:2|1:1,0:0:0:0:
138,224,177564,6,0,P|170:182|162:143,1,88.8,10|2,3:2|3:2,0:0:0:0:
35,86,177884,2,0,P|48:126|59:177,1,88.8,10|2,1:2|2:2,0:0:0:0:
193,52,178205,1,10,3:2:0:0:
193,52,178366,1,2,3:2:0:0:
85,16,178526,1,10,1:2:0:0:
165,148,178687,1,2,2:2:0:0:
297,70,178847,6,0,L|282:15,3,44.4,6|2|2|2,1:2|2:2|3:2|2:2,0:0:0:0:
379,74,179168,2,0,L|361:125,1,44.4,2|2,3:2|2:2,0:0:0:0:
295,177,179328,1,2,1:2:0:0:
295,177,179409,1,2,2:2:0:0:
295,177,179489,2,0,L|313:228,3,44.4,2|2|2|2,3:2|2:2|3:2|2:2,0:0:0:0:
280,288,179810,1,2,1:2:0:0:
267,303,179890,1,2,3:2:0:0:
249,312,179970,1,2,3:2:0:0:
230,314,180050,1,2,2:2:0:0:
211,307,180130,6,0,L|160:289,3,44.4,2|2|6|2,1:2|2:2|1:2|2:2,0:0:0:0:
96,334,180451,2,0,L|81:292,3,44.4,2|2|2|2,3:2|2:2|3:2|2:2,0:0:0:0:
29,229,180772,5,6,1:2:0:0:
23,213,180852,1,0,0:0:0:0:
17,200,180933,1,0,0:0:0:0:
11,187,181013,1,0,0:0:0:0:
14,169,181093,1,2,3:2:0:0:
27,154,181173,1,2,1:2:0:0:
45,145,181253,1,2,1:2:0:0:
64,143,181333,1,2,1:2:0:0:
83,150,181414,6,0,B|178:167|138:218|243:244,1,177.6,6|10,3:2|1:2,0:0:0:0:
296,327,181895,2,0,P|244:346|203:368,1,88.8,2|10,2:2|3:2,0:0:0:0:
387,258,182216,2,0,P|428:285|435:335,1,88.8,2|10,3:2|1:2,0:0:0:0:
300,216,182537,5,2,2:2:0:0:
300,216,182617,1,0,1:1:0:0:
300,216,182697,2,0,P|261:154|299:88,1,133.2,10|0,3:2|0:0,0:0:0:0:
278,95,183018,2,0,P|319:80|359:60,1,88.8,10|0,1:2|0:0,0:0:0:0:
463,113,183339,2,0,P|487:72|470:29,1,88.8,10|0,3:2|3:3,0:0:0:0:
366,171,183660,2,0,P|425:191|496:223,1,133.2,10|0,1:2|1:1,0:0:0:0:
489,219,183981,5,10,3:2:0:0:
333,325,184141,2,0,P|372:305|414:290,1,88.8,2|10,3:2|1:2,0:0:0:0:
289,219,184462,2,0,P|220:211|171:276,1,133.2,2|0,2:2|0:0,0:0:0:0:
168,255,184783,2,0,P|117:224|121:172,1,88.8,2|10,3:2|1:2,0:0:0:0:
172,48,185104,1,2,2:2:0:0:
58,94,185264,6,0,P|112:111|148:132,1,88.8,10|2,3:2|3:2,0:0:0:0:
282,14,185585,2,0,P|261:53|249:95,1,88.8,10|0,1:2|0:0,0:0:0:0:
217,175,185906,6,0,L|233:216,3,44.4,10|0|2|0,3:2|0:0|1:2|1:1,0:0:0:0:
310,245,186227,1,2,1:2:0:0:
329,233,186307,1,0,1:1:0:0:
349,223,186387,1,2,1:2:0:0:
369,215,186467,1,0,1:1:0:0:
390,209,186548,6,0,B|412:116|463:156|480:61,1,177.6,14|10,3:2|1:2,0:0:0:0:
399,32,187029,2,0,P|383:80|407:121,1,88.8,2|10,2:2|3:2,0:0:0:0:
473,240,187350,2,0,P|488:191|464:150,1,88.8,2|10,3:2|1:2,0:0:0:0:
313,138,187671,5,2,2:2:0:0:
313,138,187751,1,0,1:1:0:0:
313,138,187831,2,0,P|273:158|231:170,1,88.8,10|2,3:2|3:2,0:0:0:0:
87,279,188152,2,0,P|37:225|57:147,1,133.2,10|0,1:2|1:1,0:0:0:0:
41,169,188473,1,10,3:2:0:0:
172,62,188633,1,2,3:2:0:0:
56,10,188794,2,0,P|76:49|88:91,1,88.8,10|0,1:2|0:0,0:0:0:0:
222,233,189114,6,0,P|227:210|235:186,1,44.4,6|2,1:2|2:2,0:0:0:0:
239,183,189275,2,0,P|193:169|155:151,1,88.8,2|2,3:2|3:2,0:0:0:0:
314,245,189596,2,0,P|360:258|421:206,1,133.2,6|2,1:2|2:2,0:0:0:0:
420,207,189917,1,2,3:2:0:0:
255,314,190077,2,0,P|220:342|222:396,1,88.8,6|2,1:2|3:2,0:0:0:0:
336,345,190398,5,6,1:2:0:0:
186,256,190558,2,0,P|145:274|103:287,1,88.8,6|2,1:2|3:2,0:0:0:0:
235,98,190879,1,2,3:2:0:0:
157,156,191040,1,6,1:2:0:0:
246,194,191200,1,0,0:0:0:0:
144,61,191360,2,0,P|101:48|61:29,1,88.8,6|4,2:3|2:3,0:0:0:0:
246,194,191681,6,0,P|312:165|391:148,1,133.2,6|0,1:2|0:0,0:0:0:0:
371,150,192002,1,2,3:2:0:0:
483,46,192163,2,0,P|439:15|390:23,1,88.8,6|4,1:2|1:2,0:0:0:0:
474,209,192483,2,0,L|489:161,1,44.4,2|8,2:2|2:3,0:0:0:0:
500,164,192644,1,6,1:2:0:0:
298,278,192804,5,6,1:2:0:0:
256,192,192884,12,0,195211,0:0:0:0:
