osu file format v14

[General]
AudioFilename: audio.mp3
AudioLeadIn: 0
PreviewTime: 145398
Countdown: 0
SampleSet: Soft
StackLeniency: 0.5
Mode: 0
LetterboxInBreaks: 0
WidescreenStoryboard: 0

[Editor]
DistanceSpacing: 1
BeatDivisor: 4
GridSize: 16
TimelineZoom: 1.4

[Metadata]
Title:On My MiND
TitleUnicode:On My MiND
Artist:Mrs. GREEN APPLE
ArtistUnicode:Mrs. GREEN APPLE
Creator:alevi
Version:Affection
Source:ナナマル サンバツ
Tags:Nana Maru San Batsu anime op opening toofu neymar jr dora- doraemonelf pepekcz big sis god haachama vaporfly wanted! full version ver japanese rock jrock j-rock
BeatmapID:3672989
BeatmapSetID:1792358

[Difficulty]
HPDrainRate:6
CircleSize:4.1
OverallDifficulty:9
ApproachRate:9.4
SliderMultiplier:1.9
SliderTickRate:1

[Events]
//Background and Video events
0,0,"FBvaIoUUYBAMZFx.jpg",0,0
//Break Periods
//Storyboard Layer 0 (Background)
//Storyboard Layer 1 (Fail)
//Storyboard Layer 2 (Pass)
//Storyboard Layer 3 (Foreground)
//Storyboard Layer 4 (Overlay)
//Storyboard Sound Samples

[TimingPoints]
453,320.855614973262,4,2,1,65,1,0
453,-250,4,2,1,65,0,0
773,320.855614973262,4,2,1,65,1,0
773,-76.9230769230769,4,2,1,65,0,0
1575,-100,4,2,1,65,0,0
5585,-100,4,2,2,65,0,0
5906,-76.9230769230769,4,2,2,65,0,0
6227,-76.9230769230769,4,2,1,65,0,0
6387,-100,4,2,1,65,0,0
8473,-100,4,2,2,65,0,0
8794,-100,4,2,1,65,0,0
9275,-100,4,2,4,65,0,0
9476,-100,4,2,4,5,0,0
9756,-100,4,2,4,65,0,0
9796,-100,4,2,4,5,0,0
10077,-100,4,2,4,65,0,0
10117,-100,4,2,4,5,0,0
10398,-100,4,2,4,75,0,0
11040,-90.9090909090909,4,2,3,75,0,0
15692,-90.9090909090909,4,2,4,75,0,0
16494,-90.9090909090909,4,2,5,75,0,0
20023,-90.9090909090909,4,2,6,75,0,0
20103,-90.9090909090909,4,2,3,75,0,0
20184,-90.9090909090909,4,2,7,75,0,0
20264,-90.9090909090909,4,2,5,75,0,0
20666,-90.9090909090909,4,2,5,75,0,0
20986,-90.9090909090909,4,2,2,75,0,0
21307,-125,4,2,4,55,0,0
22270,-125,4,2,1,55,0,0
22591,-125,4,2,3,55,0,0
22912,-125,4,2,1,55,0,0
23232,-125,4,2,4,55,0,0
23553,-125,4,2,2,55,0,0
24195,-125,4,2,4,55,0,0
25799,-125,4,2,2,55,0,0
26280,-125,4,2,4,55,0,0
26761,-125,4,2,1,55,0,0
27243,-125,4,2,3,55,0,0
28045,-125,4,2,1,55,0,0
28527,-125,4,2,4,55,0,0
29008,-125,4,2,7,55,0,0
29328,-125,4,2,1,55,0,0
29649,-125,4,2,3,55,0,0
30291,-125,4,2,2,65,0,0
31093,-125,4,2,2,70,0,0
31575,-111.111111111111,4,2,5,65,0,0
32537,-111.111111111111,4,2,1,65,0,0
32858,-111.111111111111,4,2,3,65,0,0
33179,-111.111111111111,4,2,8,65,0,0
33499,-111.111111111111,4,2,3,65,0,0
33821,-111.111111111111,4,2,9,65,0,0
34141,-111.111111111111,4,2,3,65,0,0
34782,-111.111111111111,4,2,1,65,0,0
35424,-111.111111111111,4,2,5,65,0,0
36067,-111.111111111111,4,2,1,65,0,0
36227,-111.111111111111,4,2,3,65,0,0
36387,-111.111111111111,4,2,9,65,0,0
36548,-111.111111111111,4,2,3,65,0,0
36708,-111.111111111111,4,2,2,65,0,0
37028,-111.111111111111,4,2,1,65,0,0
37670,-111.111111111111,4,2,3,65,0,0
38313,-111.111111111111,4,2,8,65,0,0
38633,-111.111111111111,4,2,7,65,0,0
39596,-111.111111111111,4,2,5,65,0,0
39756,-111.111111111111,4,2,6,65,0,0
39917,-166.666666666666,4,2,3,65,0,0
40238,-166.666666666666,4,2,2,65,0,0
41200,-99.9999999999999,4,2,2,65,0,0
41842,-83.3333333333333,4,2,10,80,0,1
42162,-83.3333333333333,4,2,6,80,0,1
44409,-83.3333333333333,4,2,11,80,0,1
46414,-83.3333333333333,4,2,2,80,0,1
46655,-83.3333333333333,4,2,10,80,0,1
47296,-83.3333333333333,4,2,6,80,0,1
49543,-83.3333333333333,4,2,11,80,0,1
50184,-83.3333333333333,4,2,6,80,0,1
51789,-83.3333333333333,4,2,10,80,0,1
52429,-83.3333333333333,4,2,6,80,0,1
54355,-250.000000000001,4,2,6,80,0,1
54676,-83.3333333333333,4,2,11,80,0,1
56601,-83.3333333333333,4,2,3,80,0,1
56682,-83.3333333333333,4,2,1,80,0,1
56922,-83.3333333333333,4,2,4,80,0,1
57243,-83.3333333333333,4,2,10,80,0,1
57564,-83.3333333333333,4,2,6,80,0,1
59810,-83.3333333333333,4,2,11,80,0,1
60451,-83.3333333333333,4,2,6,80,0,1
62056,-83.3333333333333,4,2,10,80,0,1
62377,-90.9090909090909,4,2,3,75,0,0
67029,-90.9090909090909,4,2,4,75,0,0
67831,-90.9090909090909,4,2,5,75,0,0
71361,-90.9090909090909,4,2,6,75,0,0
71441,-90.9090909090909,4,2,3,75,0,0
71521,-90.9090909090909,4,2,7,75,0,0
71601,-90.9090909090909,4,2,5,75,0,0
72323,-90.9090909090909,4,2,2,75,0,0
72644,-125,4,2,4,55,0,0
73607,-125,4,2,1,55,0,0
73928,-125,4,2,3,55,0,0
74248,-125,4,2,1,55,0,0
74569,-125,4,2,4,55,0,0
74890,-125,4,2,1,55,0,0
75051,-125,4,2,4,55,0,0
75211,-125,4,2,1,55,0,0
75692,-125,4,2,3,55,0,0
76976,-125,4,2,2,55,0,0
77938,-125,4,2,3,55,0,0
78098,-125,4,2,1,55,0,0
78259,-125,4,2,3,55,0,0
79382,-125,4,2,1,55,0,0
79702,-125,4,2,4,55,0,0
80345,-125,4,2,7,55,0,0
80665,-125,4,2,1,55,0,0
80986,-125,4,2,3,55,0,0
81628,-99.9999999999999,4,2,10,55,0,0
82912,-99.9999999999999,4,2,12,65,0,0
83072,-99.9999999999999,4,2,2,65,0,0
83553,-99.9999999999999,4,2,3,65,0,0
83874,-99.9999999999999,4,2,2,65,0,0
84516,-125,4,2,2,65,0,0
84837,-125,4,2,7,65,0,0
85158,-125,4,2,3,65,0,0
85478,-125,4,2,13,65,0,0
85639,-125,4,2,2,65,0,0
85960,-125,4,2,4,65,0,0
86120,-125,4,2,2,65,0,0
87404,-125,4,2,14,65,0,0
87564,-125,4,2,1,65,0,0
87724,-125,4,2,3,65,0,0
88045,-125,4,2,15,65,0,0
88206,-125,4,2,10,65,0,0
89008,-125,4,2,4,65,0,0
89329,-125,4,2,2,65,0,0
89810,-125,4,2,3,65,0,0
89970,-125,4,2,6,65,0,0
90290,-125,4,2,3,65,0,0
90612,-125,4,2,16,65,0,0
90772,-125,4,2,2,65,0,0
91254,-125,4,2,4,65,0,0
92216,-125,4,2,1,65,0,0
92537,-166.666666666667,4,2,1,65,0,0
93179,-83.3333333333333,4,2,10,80,0,1
93499,-83.3333333333333,4,2,6,80,0,1
95746,-83.3333333333333,4,2,11,80,0,1
97751,-83.3333333333333,4,2,2,80,0,1
97992,-83.3333333333333,4,2,10,80,0,1
98633,-83.3333333333333,4,2,6,80,0,1
100879,-83.3333333333333,4,2,11,80,0,1
101521,-83.3333333333333,4,2,6,80,0,1
103125,-83.3333333333333,4,2,10,80,0,1
103766,-83.3333333333333,4,2,6,80,0,1
105692,-250.000000000001,4,2,6,80,0,1
106013,-83.3333333333333,4,2,11,80,0,1
107136,-83.3333333333333,4,2,6,80,0,1
107938,-83.3333333333333,4,2,3,80,0,1
108018,-83.3333333333333,4,2,1,80,0,1
108259,-83.3333333333333,4,2,4,80,0,1
108580,-83.3333333333333,4,2,10,80,0,1
108901,-83.3333333333333,4,2,6,80,0,1
111147,-83.3333333333333,4,2,11,80,0,1
111788,-83.3333333333333,4,2,6,80,0,1
113072,-142.857142857143,4,2,6,80,0,1
113393,320.855614973262,4,2,1,70,1,0
113473,-100,4,2,3,70,0,0
114676,-100,4,2,1,70,0,0
114756,-100,4,2,3,70,0,0
115638,-100,4,2,2,70,0,0
116040,-100,4,2,3,70,0,0
116120,-90.9090909090909,4,2,3,70,0,0
117243,-90.9090909090909,4,2,1,70,0,0
117323,-90.9090909090909,4,2,3,70,0,0
117564,-90.9090909090909,4,2,1,70,0,0
117884,-90.9090909090909,4,2,5,70,0,0
117965,-90.9090909090909,4,2,2,70,0,0
118205,-90.9090909090909,4,2,10,70,0,0
118285,-90.9090909090909,4,2,2,70,0,0
118526,-90.9090909090909,4,2,1,70,0,0
118847,-90.9090909090909,4,2,3,70,0,0
119168,-90.9090909090909,4,2,1,70,0,0
119810,-90.9090909090909,4,2,3,70,0,0
120130,-90.9090909090909,4,2,1,70,0,0
120451,-90.9090909090909,4,2,3,70,0,0
120772,-90.9090909090909,4,2,2,70,0,0
120852,-90.9090909090909,4,2,3,70,0,0
121093,-90.9090909090909,4,2,2,70,0,0
121173,-90.9090909090909,4,2,3,70,0,0
122376,-90.9090909090909,4,2,2,70,0,0
123660,-100,4,2,17,70,0,0
123981,-100,4,2,1,70,0,0
126227,-100,4,2,2,70,0,0
126548,-100,4,2,1,70,0,0
127510,-100,4,2,2,70,0,0
127831,-100,4,2,1,70,0,0
130077,-100,4,2,2,70,0,0
130398,-100,4,2,1,70,0,0
131360,-100,4,2,2,70,0,0
131681,-100,4,2,1,70,0,0
132644,-100,4,2,2,70,0,0
132965,-100,4,2,1,70,0,0
133927,-100,4,2,17,70,0,0
134248,-100,4,2,1,70,0,0
135211,-100,4,2,2,70,0,0
135532,-100,4,2,1,70,0,0
136494,-100,4,2,2,70,0,0
136815,-100,4,2,1,70,0,0
137778,-100,4,2,17,70,0,0
138098,-100,4,2,1,70,0,0
140344,-100,4,2,2,70,0,0
140665,-100,4,2,1,70,0,0
141628,-100,4,2,2,70,0,0
141949,-100,4,2,1,70,0,0
142911,-100,4,2,18,70,0,0
143232,-100,4,2,1,70,0,0
144195,-142.857142857143,4,2,1,60,0,0
144355,-142.857142857143,4,2,3,60,0,0
144515,-142.857142857143,4,2,1,60,0,0
144676,-142.857142857143,4,2,3,60,0,0
144836,-142.857142857143,4,2,1,60,0,0
144996,-142.857142857143,4,2,3,60,0,0
145156,-142.857142857143,4,2,1,60,0,0
145317,-142.857142857143,4,2,3,60,0,0
145478,-83.3333333333333,4,2,10,80,0,1
145798,-83.3333333333333,4,2,6,80,0,1
148045,-83.3333333333333,4,2,11,80,0,1
150050,-83.3333333333333,4,2,2,80,0,1
150291,-83.3333333333333,4,2,10,80,0,1
150932,-83.3333333333333,4,2,6,80,0,1
153179,-83.3333333333333,4,2,11,80,0,1
153820,-83.3333333333333,4,2,6,80,0,1
155425,-83.3333333333333,4,2,10,80,0,1
156065,-83.3333333333333,4,2,6,80,0,1
157991,-200,4,2,6,80,0,1
158312,-83.3333333333333,4,2,11,80,0,1
160237,-83.3333333333333,4,2,3,80,0,1
160318,-83.3333333333333,4,2,1,80,0,1
160558,-83.3333333333333,4,2,4,80,0,1
160879,-83.3333333333333,4,2,10,80,0,1
161200,-83.3333333333333,4,2,6,80,0,1
163446,-83.3333333333333,4,2,11,80,0,1
164087,-83.3333333333333,4,2,6,80,0,1
165371,-142.857142857143,4,2,11,80,0,1
165692,-142.857142857143,4,2,10,80,0,1
166013,-83.3333333333333,4,2,10,80,0,1
166333,-83.3333333333333,4,2,6,80,0,1
168580,-83.3333333333333,4,2,11,80,0,1
169221,-83.3333333333333,4,2,6,80,0,1
169301,-83.3333333333333,4,2,6,80,0,1
169382,-83.3333333333333,4,2,6,80,0,1
169863,-83.3333333333333,4,2,1,65,0,1
170826,-142.857142857143,4,2,1,65,0,1
171147,-90.9090909090909,4,2,3,80,0,0
172430,-90.9090909090909,4,2,1,80,0,0
173713,-90.9090909090909,4,2,3,80,0,0
174676,-90.9090909090909,4,2,1,80,0,0
174836,-90.9090909090909,4,2,3,80,0,0
174997,-90.9090909090909,4,2,1,80,0,0
175799,-90.9090909090909,4,2,4,80,0,0
175959,-90.9090909090909,4,2,2,80,0,0
176120,-90.9090909090909,4,2,4,80,0,0
176601,-90.9090909090909,4,2,5,80,0,0
180130,-90.9090909090909,4,2,6,80,0,0
180210,-90.9090909090909,4,2,3,80,0,0
180291,-90.9090909090909,4,2,7,80,0,0
180371,-90.9090909090909,4,2,5,80,0,0
180772,-90.9090909090909,4,2,5,80,0,0
181093,-90.9090909090909,4,2,2,80,0,0
181414,-100,4,2,17,80,0,1
181735,-100,4,2,1,80,0,1
182056,-100,4,2,3,80,0,1
182216,-100,4,2,1,80,0,1
182376,-100,4,2,3,80,0,1
182537,-100,4,2,1,80,0,1
183339,-100,4,2,3,80,0,1
183981,-100,4,2,1,80,0,1
184622,-100,4,2,3,80,0,1
184783,-100,4,2,1,80,0,1
184943,-100,4,2,3,80,0,1
185104,-100,4,2,1,80,0,1
185425,-100,4,2,6,80,0,1
185585,-100,4,2,1,80,0,1
185906,-100,4,2,4,80,0,1
186548,-100,4,2,2,80,0,1
186868,-100,4,2,1,80,0,1
187109,-100,4,2,3,80,0,1
187350,-100,4,2,1,80,0,1
187510,-100,4,2,3,80,0,1
187671,-100,4,2,1,80,0,1
187991,-100,4,2,3,80,0,1
188152,-100,4,2,1,80,0,1
188312,-100,4,2,3,80,0,1
188794,-100,4,2,1,80,0,1
189114,-100,4,2,19,80,0,1
189195,-100,4,2,3,80,0,1
189275,-100,4,2,19,80,0,1
189355,-100,4,2,3,80,0,1
189435,-100,4,2,19,80,0,1
189515,-100,4,2,3,80,0,1
189596,-100,4,2,20,80,0,1
189676,-100,4,2,3,80,0,1
189917,-100,4,2,19,80,0,1
189997,-100,4,2,3,80,0,1
190077,-100,4,2,20,80,0,1
190157,-100,4,2,3,80,0,1
190398,-100,4,2,11,80,0,1
190478,-100,4,2,3,80,0,1
190558,-100,4,2,7,80,0,1
190638,-100,4,2,3,80,0,1
191040,-100,4,2,21,80,0,1
191360,-100,4,2,3,80,0,1
191681,-100,4,2,11,80,0,1
191841,-100,4,2,6,80,0,1
192564,-100,4,2,1,80,0,1
192644,-100,4,2,6,80,0,1
192804,-100,4,2,22,90,0,0
195211,-100,4,2,22,5,0,0

[Colours]
Combo1 : 128,255,128
Combo2 : 255,74,255
Combo3 : 255,128,192
Combo4 : 255,145,91
Combo5 : 255,255,17

[HitObjects]
12,0,453,6,0,P|19:27|28:54,1,57,2|0,2:0|0:0,0:0:0:0:
143,52,773,6,0,P|55:65|16:146,1,185.25,6|0,3:2|0:0,0:0:0:0:
16,145,1093,1,2,1:2:0:0:
158,232,1254,1,2,1:2:0:0:
175,220,1334,1,0,1:1:0:0:
178,201,1414,1,0,3:3:0:0:
23,275,1575,2,0,P|39:319|52:373,1,95,2|0,3:2|1:1,0:0:0:0:
254,297,1895,2,0,P|259:273|267:251,1,47.5,2|0,2:2|1:1,0:0:0:0:
162,334,2056,5,2,3:2:0:0:
169,341,2216,1,0,3:3:0:0:
342,190,2377,2,0,B|401:200|401:200|406:205|406:205|482:220,1,142.5,2|0,1:2|1:1,0:0:0:0:
488,212,2698,2,0,B|497:188|497:188|485:164,1,47.5,0|0,3:3|1:1,0:0:0:0:
271,44,2858,1,0,3:3:0:0:
271,44,3018,2,0,P|256:111|233:187,1,142.5,2|0,1:2|0:0,0:0:0:0:
234,181,3339,5,6,3:2:0:0:
126,127,3500,1,2,3:2:0:0:
244,268,3660,1,2,1:2:0:0:
350,106,3821,2,0,B|394:93|394:93|399:87|399:87|453:72,1,95,2|0,1:2|3:3,0:0:0:0:
350,19,4141,1,2,3:2:0:0:
506,160,4302,1,0,1:1:0:0:
351,239,4462,2,0,P|358:214|364:189,1,47.5,2|0,2:2|1:1,0:0:0:0:
435,290,4623,5,2,3:2:0:0:
442,300,4783,1,0,3:3:0:0:
173,127,4944,2,0,P|199:195|217:272,1,142.5,2|0,1:2|0:0,0:0:0:0:
293,305,5264,1,0,3:3:0:0:
319,304,5345,1,0,1:1:0:0:
338,284,5425,2,0,P|345:259|351:234,1,47.5,0|0,3:3|3:3,0:0:0:0:
380,140,5585,1,2,1:2:0:0:
411,105,5666,1,0,1:1:0:0:
450,100,5746,1,0,1:1:0:0:
490,119,5826,1,0,1:1:0:0:
512,154,5906,6,0,B|544:204|519:247|489:230|463:273|491:325,1,185.25,6|0,3:2|0:0,0:0:0:0:
489,321,6227,1,2,1:2:0:0:
251,211,6387,2,0,P|236:160|226:115,1,95,2|0,3:2|3:3,0:0:0:0:
334,215,6708,1,2,3:2:0:0:
171,336,6869,1,0,1:1:0:0:
361,287,7029,2,0,P|350:322|343:354,1,47.5,2|0,2:2|0:0,0:0:0:0:
239,382,7190,5,2,3:2:0:0:
136,187,7350,1,0,1:1:0:0:
198,130,7510,5,10,2:3:0:0:
54,294,7671,1,10,2:3:0:0:
325,138,7831,5,10,2:3:0:0:
111,40,7992,1,0,1:1:0:0:
206,5,8152,5,2,3:2:0:0:
22,150,8313,1,2,1:2:0:0:
314,308,8473,6,0,P|299:261|288:207,1,95,6|0,3:2|0:0,0:0:0:0:
289,216,8794,1,2,1:2:0:0:
93,117,8954,2,0,P|108:164|119:218,1,95,2|0,3:2|0:0,0:0:0:0:
117,208,9275,1,2,2:2:0:0:
295,44,9436,6,0,L|304:11,1,23.75,2|0,2:2|0:0,0:0:0:0:
386,153,9756,6,0,L|395:120,1,23.75,2|0,2:2|0:0,0:0:0:0:
181,142,10077,6,0,L|190:109,1,23.75,2|0,2:2|0:0,0:0:0:0:
446,358,10398,5,4,1:3:0:0:
203,251,10559,1,4,1:3:0:0:
467,101,10719,1,4,1:3:0:0:
467,101,11040,6,0,B|370:81|410:139|307:121,1,156.75,6|0,3:2|0:0,0:0:0:0:
305,132,11361,2,0,B|255:120|255:120|249:115|249:115|191:100,1,104.5,10|0,1:2|0:0,0:0:0:0:
148,60,11601,1,0,1:1:0:0:
157,51,11682,1,10,3:2:0:0:
81,121,11842,1,0,3:3:0:0:
284,22,12002,1,10,1:2:0:0:
253,238,12163,2,0,P|243:208|237:188,1,52.25,0|0,0:0|1:1,0:0:0:0:
467,101,12323,6,0,P|449:150|434:208,1,104.5,10|0,3:2|3:3,0:0:0:0:
256,335,12644,2,0,P|197:316|134:300,1,104.5,10|0,1:2|0:0,0:0:0:0:
100,255,12885,1,0,1:1:0:0:
91,243,12965,1,10,3:2:0:0:
254,164,13125,1,0,3:3:0:0:
332,238,13286,1,10,1:2:0:0:
98,122,13446,2,0,P|108:96|117:62,1,52.25,0|0,0:0|1:1,0:0:0:0:
329,27,13607,6,0,P|378:35|411:83,1,104.5,10|0,3:2|3:3,0:0:0:0:
188,206,13928,2,0,P|170:159|195:106,1,104.5,10|0,1:2|0:0,0:0:0:0:
253,56,14248,1,10,3:2:0:0:
430,171,14409,1,0,3:3:0:0:
504,119,14569,1,10,1:2:0:0:
332,238,14730,2,0,P|324:265|315:305,1,52.25,0|0,0:0|1:1,0:0:0:0:
490,329,14890,6,0,B|415:348|415:348|408:354|408:354|323:377,1,156.75,10|0,3:2|0:0,0:0:0:0:
327,383,15211,2,0,P|266:362|208:346,1,104.5,10|0,1:2|0:0,0:0:0:0:
98,221,15532,2,0,P|110:248|117:280,1,52.25,10|0,3:2|1:0,0:0:0:0:
194,182,15692,2,0,P|200:156|211:132,1,52.25,2|0,1:2|1:1,0:0:0:0:
9,113,15853,2,0,P|19:139|28:172,1,52.25,2|0,1:2|1:1,0:0:0:0:
246,306,16013,2,0,P|253:280|262:256,1,52.25,2|0,1:2|1:1,0:0:0:0:
57,336,16174,5,14,3:2:0:0:
51,346,16334,1,0,3:3:0:0:
292,178,16494,2,0,P|345:195|400:208,1,104.5,10|2,1:2|2:2,0:0:0:0:
114,52,16815,2,0,P|63:39|13:23,1,104.5,10|2,3:2|3:2,0:0:0:0:
263,51,17136,1,10,1:2:0:0:
181,147,17297,2,0,P|194:119|204:89,1,52.25,2|0,2:2|1:1,0:0:0:0:
355,0,17457,6,0,P|382:46|364:105,1,104.5,10|2,3:2|3:2,0:0:0:0:
197,234,17778,2,0,P|143:234|101:189,1,104.5,10|2,1:2|2:2,0:0:0:0:
338,213,18099,2,0,B|431:236|381:271|478:298,1,156.75,10|2,3:2|2:2,0:0:0:0:
479,286,18420,2,0,P|490:232|507:177,1,104.5,10|0,1:2|0:0,0:0:0:0:
251,61,18740,5,6,1:2:0:0:
226,76,18821,1,2,2:2:0:0:
214,99,18901,2,0,P|222:127|228:156,1,52.25,2|2,3:2|2:2,0:0:0:0:
378,315,19061,2,0,P|383:289|391:264,1,52.25,2|2,3:2|2:2,0:0:0:0:
286,357,19222,5,2,1:2:0:0:
248,384,19302,1,2,2:2:0:0:
204,379,19382,1,2,3:2:0:0:
173,352,19462,1,2,2:2:0:0:
162,314,19543,2,0,P|170:285|176:256,1,52.25,2|2,3:2|2:2,0:0:0:0:
296,210,19703,5,2,1:2:0:0:
318,192,19783,1,2,3:2:0:0:
324,165,19863,2,0,P|315:136|309:107,3,52.25,2|2|2|2,3:2|2:2|1:2|2:2,0:0:0:0:
160,10,20184,2,0,P|154:35|146:60,1,52.25,6|2,1:2|2:2,0:0:0:0:
55,189,20345,5,2,3:2:0:0:
27,181,20425,1,2,2:2:0:0:
13,155,20505,2,0,P|7:129|0:104,1,52.25,2|2,3:2|2:2,0:0:0:0:
191,129,20666,1,6,1:2:0:0:
206,128,20746,1,0,0:0:0:0:
217,116,20826,2,0,P|222:90|230:65,1,52.25
344,4,20986,1,2,3:2:0:0:
383,9,21067,1,2,1:2:0:0:
421,43,21147,1,2,1:2:0:0:
434,96,21227,1,2,1:2:0:0:
407,158,21307,6,0,B|314:181|364:216|267:243,2,152,6|2|2,3:2|3:2|3:2,0:0:0:0:
491,221,22109,1,0,0:0:0:0:
491,221,22270,2,0,P|480:257|469:304,1,76,2|0,3:2|0:0,0:0:0:0:
324,378,22591,2,0,B|268:362|268:362|265:358|265:358|205:341,1,114,2|0,3:2|0:0,0:0:0:0:
213,331,22912,2,0,B|194:297|194:297|213:265,1,76,2|0,3:2|0:0,0:0:0:0:
282,238,23232,5,2,3:2:0:0:
153,151,23393,1,8,1:2:0:0:
83,207,23553,5,2,3:2:0:0:
282,93,23714,1,8,1:2:0:0:
84,8,23874,2,0,P|101:56|111:93,1,76,2|0,3:2|0:0,0:0:0:0:
354,130,24195,2,0,P|365:90|351:53,1,76,2|0,3:2|0:0,0:0:0:0:
163,226,24516,2,0,P|173:266|204:291,1,76,0|0,3:3|0:0,0:0:0:0:
282,93,24837,2,0,P|238:49|180:39,1,114,2|0,3:2|0:0,0:0:0:0:
181,50,25158,6,0,B|110:73|110:73|105:79|105:79|32:103,1,152,2|0,3:2|3:3,0:0:0:0:
163,226,25639,1,2,1:2:0:0:
10,314,25799,1,2,1:2:0:0:
174,230,25960,1,2,1:2:0:0:
23,175,26120,2,0,P|35:213|45:252,1,76,2|2,3:2|1:2,0:0:0:0:
225,367,26441,6,0,B|313:379|277:321|380:339,2,152,2|2|0,3:2|3:2|3:3,0:0:0:0:
155,303,27243,1,2,2:2:0:0:
155,303,27404,2,0,P|168:255|176:214,1,76,2|0,3:2|0:0,0:0:0:0:
284,120,27724,2,0,P|292:157|302:193,1,76,2|0,3:2|0:0,0:0:0:0:
365,263,28045,2,0,P|432:244|515:226,1,152,2|0,3:2|3:3,0:0:0:0:
373,138,28527,1,10,1:2:0:0:
489,46,28687,2,0,P|452:56|407:66,1,76,2|8,3:2|1:2,0:0:0:0:
213,148,29008,6,0,B|196:67|243:92|215:-1,2,152,6|2|2,3:2|3:2|3:2,0:0:0:0:
132,223,29810,1,2,2:2:0:0:
132,223,29970,2,0,P|90:213|38:199,1,76,2|2,3:2|2:2,0:0:0:0:
229,284,30291,1,6,1:3:0:0:
240,274,30371,1,0,1:1:0:0:
246,260,30452,2,0,P|240:235|235:209,1,38,4|0,1:3|1:1,0:0:0:0:
133,103,30612,2,0,P|129:121|124:140,1,38,4|0,1:3|1:1,0:0:0:0:
316,206,30772,2,0,P|310:181|305:155,1,38,4|0,1:3|1:1,0:0:0:0:
394,74,30933,5,4,1:3:0:0:
405,65,31013,1,0,1:1:0:0:
421,60,31093,1,4,1:3:0:0:
438,59,31174,1,4,1:3:0:0:
457,61,31254,5,4,1:3:0:0:
484,75,31334,1,4,1:3:0:0:
507,106,31414,1,4,1:3:0:0:
512,160,31494,1,4,1:3:0:0:
475,206,31575,6,0,P|429:195|386:183,1,85.5000000000001,6|0,3:2|3:3,0:0:0:0:
290,55,31895,2,0,B|174:43|232:114|107:101,1,171,2|2,1:2|3:2,0:0:0:0:
237,259,32377,1,0,1:1:0:0:
180,212,32537,1,2,3:2:0:0:
180,212,32617,1,2,0:0:0:0:
180,212,32698,2,0,P|188:187|193:158,1,42.75,0|0,1:1|0:0,0:0:0:0:
24,118,32858,2,0,P|37:160|49:215,1,85.5000000000001,2|0,3:2|3:3,0:0:0:0:
205,346,33179,2,0,B|280:330|280:330|286:325|286:325|373:306,1,171,14|2,1:2|3:2,0:0:0:0:
237,259,33660,1,0,3:3:0:0:
379,161,33821,1,6,1:2:0:0:
379,161,33901,1,2,0:0:0:0:
379,161,33981,2,0,P|373:185|366:215,1,42.75,2|0,0:0|0:0,0:0:0:0:
511,353,34141,6,0,P|499:308|491:270,1,85.5000000000001,2|0,3:2|3:3,0:0:0:0:
281,172,34462,2,0,B|196:190|196:190|190:195|190:195|115:211,1,171,2|2,1:2|3:2,0:0:0:0:
10,60,34944,2,0,P|54:73|107:85,1,85.5000000000001,0|0,1:1|3:3,0:0:0:0:
341,295,35264,2,0,P|297:282|244:270,1,85.5000000000001,0|2,1:1|3:2,0:0:0:0:
190,251,35585,1,0,3:3:0:0:
352,146,35746,1,12,1:2:0:0:
272,107,35906,1,2,2:2:0:0:
272,107,35986,1,2,2:2:0:0:
272,107,36067,5,2,3:2:0:0:
314,228,36227,1,2,3:2:0:0:
435,186,36387,1,14,1:2:0:0:
393,63,36548,1,2,2:2:0:0:
216,179,36708,6,0,B|100:167|158:238|33:225,1,171,6|2,3:2|1:2,0:0:0:0:
210,307,37190,1,2,0:0:0:0:
210,307,37270,1,2,0:0:0:0:
210,307,37350,2,0,P|202:282|195:260,1,42.75,2|0,3:3|0:0,0:0:0:0:
72,152,37510,2,0,P|87:112|98:70,1,85.5000000000001,0|2,1:1|3:2,0:0:0:0:
301,0,37831,6,0,B|334:99|277:64|306:171,1,171,0|0,1:1|3:3,0:0:0:0:
88,257,38313,1,14,1:2:0:0:
199,156,38473,1,2,0:0:0:0:
199,156,38553,1,2,0:0:0:0:
199,156,38633,2,0,P|207:131|214:109,1,42.75,0|0,3:3|0:0,0:0:0:0:
84,29,38794,2,0,P|90:49|97:69,1,42.75,2|0,3:2|0:0,0:0:0:0:
247,236,38954,2,0,B|319:226|293:269|380:252,1,128.25,6|0,1:2|0:0,0:0:0:0:
389,263,39275,6,0,P|416:224|404:182,1,85.5000000000001,2|0,3:2|3:3,0:0:0:0:
203,311,39596,1,14,1:2:0:0:
447,384,39756,1,12,1:2:0:0:
388,341,39917,2,0,P|359:349|330:359,1,57.0000000000002,2|0,2:2|0:0,0:0:0:0:
128,330,40238,2,0,B|115:269|150:285|128:208,2,114,2|2|2,2:2|2:2|2:2,0:0:0:0:
341,231,41200,6,0,P|347:206|361:174,1,47.5000000000001,4|0,1:3|0:0,0:0:0:0:
159,140,41361,2,0,P|153:115|139:83,1,47.5000000000001,4|0,1:3|0:0,0:0:0:0:
310,0,41521,2,0,B|385:-11|362:29|450:18,1,142.5,4|0,1:3|0:0,0:0:0:0:
460,17,41842,6,0,B|420:78|451:131|488:110|520:163|485:228,1,228,6|8,3:2|1:2,0:0:0:0:
256,339,42323,1,2,1:2:0:0:
256,339,42404,1,0,1:1:0:0:
256,339,42484,2,0,P|249:308|240:281,1,57,10|0,3:2|0:0,0:0:0:0:
399,339,42644,1,0,3:3:0:0:
162,215,42805,2,0,P|108:235|38:252,1,114,8|0,1:2|0:0,0:0:0:0:
351,51,43125,6,0,P|406:36|459:16,1,114,10|0,3:2|3:3,0:0:0:0:
314,156,43446,1,8,1:2:0:0:
190,53,43607,1,2,1:2:0:0:
190,53,43687,1,0,1:1:0:0:
190,53,43767,2,0,P|198:84|210:119,1,57,10|0,3:2|0:0,0:0:0:0:
73,96,43928,1,0,3:3:0:0:
264,259,44088,1,12,1:2:0:0:
264,259,44409,6,0,B|160:268|218:314|115:333,1,171,14|0,3:2|0:0,0:0:0:0:
116,333,44730,1,8,1:2:0:0:
23,161,44890,1,2,1:2:0:0:
23,161,44970,1,0,1:1:0:0:
23,161,45051,2,0,P|31:184|41:220,1,57,10|0,3:2|0:0,0:0:0:0:
149,118,45211,1,0,3:3:0:0:
6,302,45371,2,0,B|60:316|60:316|65:320|65:320|133:337,1,114,10|0,1:2|0:0,0:0:0:0:
334,191,45692,6,0,B|283:178|283:178|278:174|278:174|224:160,1,114,10|0,3:2|3:3,0:0:0:0:
36,0,46013,2,0,P|51:53|68:124,1,114,10|0,1:2|0:0,0:0:0:0:
245,246,46334,2,0,P|276:255|308:266,1,57,10|8,3:2|1:3,0:0:0:0:
414,137,46494,2,0,P|386:129|359:120,1,57,8|8,1:3|1:3,0:0:0:0:
254,83,46655,1,10,1:2:0:0:
215,73,46735,1,0,1:1:0:0:
177,85,46815,1,0,1:1:0:0:
149,118,46895,1,0,1:1:0:0:
145,156,46976,6,0,B|185:217|154:270|117:249|85:302|120:367,1,228,14|8,3:2|1:2,0:0:0:0:
353,224,47457,1,2,1:2:0:0:
353,224,47537,1,0,1:1:0:0:
353,224,47617,2,0,P|334:163|323:107,1,114,10|0,3:2|3:3,0:0:0:0:
122,22,47938,1,8,1:2:0:0:
41,126,48099,2,0,P|50:95|56:67,1,57,0|0,1:0|1:0,0:0:0:0:
300,37,48259,6,0,P|354:20|420:-6,1,114,10|0,3:2|3:3,0:0:0:0:
257,205,48580,1,8,1:2:0:0:
462,280,48740,1,2,1:2:0:0:
462,280,48821,1,0,1:1:0:0:
462,280,48901,2,0,P|433:290|404:300,1,57,10|0,3:2|0:0,0:0:0:0:
456,183,49061,1,0,3:3:0:0:
255,372,49222,1,12,1:2:0:0:
255,372,49543,6,0,B|234:275|294:307|253:193,1,171,6|0,3:2|0:0,0:0:0:0:
257,205,49863,5,0,1:1:0:0:
443,68,50024,1,2,3:2:0:0:
453,77,50184,1,2,2:2:0:0:
511,147,50345,5,0,3:3:0:0:
315,0,50505,1,2,1:2:0:0:
352,140,50666,2,0,P|360:115|369:80,1,57,0|0,0:0|1:0,0:0:0:0:
497,0,50826,5,2,3:2:0:0:
373,217,50986,1,0,1:1:0:0:
359,227,51147,1,0,3:3:0:0:
448,281,51307,1,2,3:2:0:0:
252,121,51468,2,0,P|239:66|222:3,1,113.999996520996,2|0,1:2|0:0,0:0:0:0:
33,129,51789,1,0,1:1:0:0:
3,170,51869,1,0,1:1:0:0:
6,221,51949,1,0,1:1:0:0:
44,252,52029,1,0,1:1:0:0:
84,265,52109,6,0,B|149:258|218:235|218:235|245:278|307:276,1,228,6|8,3:2|1:2,0:0:0:0:
448,92,52591,1,2,1:2:0:0:
448,92,52671,1,0,1:1:0:0:
448,92,52751,2,0,P|455:123|465:153,1,57,10|0,3:2|0:0,0:0:0:0:
512,253,52912,1,0,3:3:0:0:
335,143,53072,1,8,1:2:0:0:
246,235,53232,2,0,P|254:207|261:180,1,57,0|0,0:0|1:0,0:0:0:0:
164,38,53393,6,0,P|106:43|72:84,1,114,10|0,3:2|3:3,0:0:0:0:
166,256,53714,1,8,1:2:0:0:
3,128,53874,2,0,P|13:154|22:191,1,57,2|0,1:2|1:1,0:0:0:0:
71,259,54035,1,10,3:2:0:0:
0,331,54195,1,0,3:3:0:0:
196,152,54355,6,0,P|214:159|237:165,1,37.9999999999999,12|2,1:2|2:2,0:0:0:0:
166,256,54676,6,0,B|206:195|175:142|138:163|106:110|141:45,1,228,14|8,3:2|1:2,0:0:0:0:
300,0,55158,1,2,1:2:0:0:
300,0,55238,1,0,1:1:0:0:
300,0,55318,2,0,P|310:55|263:101,1,114,10|0,3:2|3:3,0:0:0:0:
96,212,55639,2,0,P|41:221|-4:174,1,114,10|0,1:2|0:0,0:0:0:0:
263,246,55960,6,0,B|355:270|300:315|403:343,1,171,10|0,3:2|0:0,0:0:0:0:
411,333,56281,2,0,P|432:280|406:230,1,114,10|0,1:2|0:0,0:0:0:0:
170,201,56601,1,10,2:3:0:0:
170,201,56682,1,8,2:3:0:0:
170,201,56762,2,0,P|179:226|189:265,1,57,8|8,2:3|2:3,0:0:0:0:
339,184,56922,1,14,2:3:0:0:
346,152,57002,1,4,2:3:0:0:
355,116,57083,1,4,2:3:0:0:
367,77,57163,1,4,2:3:0:0:
379,35,57243,6,0,P|320:19|258:-4,1,114,14|0,3:2|3:3,0:0:0:0:
88,200,57564,1,8,1:2:0:0:
258,88,57724,1,2,1:2:0:0:
258,88,57805,1,0,1:1:0:0:
258,88,57885,1,10,3:2:0:0:
346,152,58045,1,0,3:3:0:0:
41,119,58206,2,0,P|24:55|14:3,1,114,10|0,1:2|0:0,0:0:0:0:
203,197,58527,6,0,B|227:299|177:263|202:373,1,171,10|0,3:2|0:0,0:0:0:0:
200,365,58847,1,8,1:2:0:0:
73,255,59008,2,0,P|81:227|87:199,1,57,2|0,1:2|1:1,0:0:0:0:
294,236,59168,2,0,P|344:253|414:272,1,114,10|0,3:2|3:3,0:0:0:0:
138,56,59489,2,0,P|83:40|29:22,1,114,8|2,1:2|2:2,0:0:0:0:
283,113,59810,6,0,B|384:87|321:54|434:33,1,171,14|0,1:2|0:0,0:0:0:0:
442,41,60131,2,0,P|452:67|445:100,1,57,8|0,3:2|0:0,0:0:0:0:
294,236,60291,6,0,B|244:223|244:223|240:219|240:219|180:204,1,114,2|10,1:2|2:2,0:0:0:0:
75,99,60612,1,0,3:3:0:0:
11,163,60772,5,8,1:2:0:0:
238,20,60933,1,2,2:2:0:0:
283,113,61093,5,10,3:2:0:0:
7,0,61254,1,0,1:1:0:0:
104,240,61414,5,8,3:2:0:0:
136,172,61575,1,2,3:2:0:0:
0,355,61735,5,10,1:2:0:0:
0,355,62056,1,2,1:2:0:0:
44,346,62136,1,0,1:1:0:0:
88,338,62216,1,0,1:1:0:0:
133,329,62297,1,0,1:1:0:0:
174,322,62377,6,0,B|269:306|224:365|326:350,1,156.75,6|0,3:2|0:0,0:0:0:0:
333,339,62698,2,0,P|351:290|316:244,1,104.5,10|0,1:2|0:0,0:0:0:0:
267,209,62938,1,0,1:1:0:0:
259,216,63018,1,10,3:2:0:0:
358,155,63179,1,0,3:3:0:0:
163,69,63339,1,10,1:2:0:0:
266,0,63500,2,0,P|256:30|250:50,1,52.25,0|0,0:0|1:1,0:0:0:0:
152,257,63660,6,0,P|139:205|119:153,1,104.5,10|0,3:2|3:3,0:0:0:0:
326,55,63981,2,0,P|339:107|359:159,1,104.5,10|0,1:2|0:0,0:0:0:0:
415,200,64222,1,0,1:1:0:0:
428,210,64302,1,10,3:2:0:0:
313,314,64462,1,0,3:3:0:0:
500,368,64623,1,10,1:2:0:0:
457,286,64783,2,0,P|431:296|396:305,1,52.25,0|0,0:0|1:1,0:0:0:0:
229,376,64944,6,0,P|178:357|117:342,1,104.5,10|0,3:2|3:3,0:0:0:0:
344,214,65264,2,0,P|325:265|310:326,1,104.5,10|0,1:2|0:0,0:0:0:0:
167,189,65585,1,10,3:2:0:0:
239,238,65746,1,0,3:3:0:0:
345,131,65906,1,10,1:2:0:0:
101,252,66067,2,0,P|94:226|87:201,1,52.25,0|0,0:0|1:1,0:0:0:0:
233,51,66227,6,0,P|304:62|345:139,1,156.75,10|0,3:2|0:0,0:0:0:0:
357,140,66548,2,0,P|413:124|466:103,1,104.5,10|0,1:2|0:0,0:0:0:0:
317,254,66869,2,0,P|313:232|303:203,1,52.25,10|0,3:2|0:0,0:0:0:0:
486,328,67029,2,0,P|491:356|501:385,1,52.25,2|0,1:2|1:1,0:0:0:0:
451,214,67190,2,0,P|473:210|502:200,1,52.25,2|0,1:2|1:1,0:0:0:0:
343,359,67350,2,0,P|321:363|292:373,1,52.25,2|0,1:2|1:1,0:0:0:0:
398,296,67510,5,14,3:2:0:0:
407,302,67671,1,0,3:3:0:0:
224,191,67831,2,0,P|171:208|116:221,1,104.5,10|2,1:2|2:2,0:0:0:0:
359,56,68152,2,0,P|409:43|459:27,1,104.5,10|2,3:2|3:2,0:0:0:0:
241,92,68473,1,10,1:2:0:0:
333,182,68633,2,0,P|323:159|312:128,1,52.25,2|0,2:2|1:1,0:0:0:0:
194,20,68794,6,0,P|162:57|168:118,1,104.5,10|2,3:2|3:2,0:0:0:0:
301,257,69115,2,0,P|349:266|398:230,1,104.5,10|2,1:2|2:2,0:0:0:0:
148,255,69436,2,0,B|55:278|105:313|8:340,1,156.75,10|2,3:2|2:2,0:0:0:0:
8,331,69756,2,0,P|-17:291|5:243,1,104.5,10|0,1:2|0:0,0:0:0:0:
195,187,70077,5,6,1:2:0:0:
220,202,70158,1,2,2:2:0:0:
232,225,70238,2,0,P|224:253|218:282,1,52.25,2|2,3:2|2:2,0:0:0:0:
43,187,70398,2,0,P|38:161|30:136,1,52.25,2|2,3:2|2:2,0:0:0:0:
161,65,70559,5,2,1:2:0:0:
205,74,70639,1,2,2:2:0:0:
235,108,70719,1,2,3:2:0:0:
268,139,70799,1,2,2:2:0:0:
303,153,70879,2,0,P|325:145|352:138,1,52.25,2|2,3:2|2:2,0:0:0:0:
455,36,71040,5,2,1:2:0:0:
426,4,71120,1,2,3:2:0:0:
386,0,71200,2,0,P|364:8|337:15,1,52.25,2|2,3:2|2:2,0:0:0:0:
320,228,71361,6,0,P|329:252|335:277,1,52.25,2|2,1:2|2:2,0:0:0:0:
441,168,71521,2,0,P|447:141|457:117,1,52.25,6|2,1:2|2:2,0:0:0:0:
259,12,71682,5,2,3:2:0:0:
231,30,71762,1,2,2:2:0:0:
222,57,71842,2,0,P|228:83|235:108,1,52.25,2|2,3:2|2:2,0:0:0:0:
169,244,72002,1,6,1:2:0:0:
156,259,72083,1,0,0:0:0:0:
141,267,72163,2,0,P|113:257|78:246,1,52.25
254,371,72323,1,2,3:2:0:0:
288,361,72404,1,2,1:2:0:0:
319,329,72484,1,2,1:2:0:0:
333,281,72564,1,2,1:2:0:0:
298,222,72644,6,0,B|281:141|328:166|300:73,2,152,6|2|2,3:2|3:2|3:2,0:0:0:0:
410,290,73446,1,0,0:0:0:0:
410,290,73607,2,0,P|451:276|485:267,1,76,2|0,3:2|0:0,0:0:0:0:
319,329,73928,2,0,P|260:341|231:401,1,114,2|0,3:2|0:0,0:0:0:0:
220,384,74248,2,0,B|184:374|184:374|182:372|182:372|140:359,1,76,2|0,3:2|0:0,0:0:0:0:
88,303,74569,5,2,3:2:0:0:
210,223,74730,1,10,1:2:0:0:
290,245,74890,5,2,3:2:0:0:
140,132,75051,1,10,1:2:0:0:
332,45,75211,6,0,P|318:83|305:133,1,76,2|0,3:2|0:0,0:0:0:0:
132,209,75532,2,0,P|87:197|65:162,1,76,2|2,3:2|2:2,0:0:0:0:
27,113,75853,1,2,3:2:0:0:
125,50,76013,1,2,2:2:0:0:
125,50,76093,1,2,2:2:0:0:
125,50,76174,1,2,3:2:0:0:
58,0,76334,1,2,2:2:0:0:
186,104,76494,6,0,P|209:73|205:35,1,76,2|2,3:2|2:2,0:0:0:0:
268,0,76815,1,2,3:2:0:0:
113,124,76976,1,2,1:2:0:0:
290,202,77136,1,2,1:2:0:0:
102,120,77297,1,2,1:2:0:0:
346,64,77457,2,0,P|330:103|318:146,1,76,2|2,3:2|1:2,0:0:0:0:
216,218,77778,6,0,B|127:235|174:276|84:296,2,152,2|2|2,3:2|3:2|3:2,0:0:0:0:
301,326,78580,1,2,2:2:0:0:
301,326,78740,2,0,P|266:312|226:301,1,76,2|0,3:2|0:0,0:0:0:0:
273,158,79061,2,0,P|308:172|348:183,1,76,2|0,3:2|0:0,0:0:0:0:
417,297,79382,2,0,B|396:206|456:245|421:143,1,152,2|2,3:2|3:2,0:0:0:0:
287,245,79863,1,10,1:2:0:0:
196,129,80024,2,0,P|186:170|174:206,1,76,2|10,3:2|1:2,0:0:0:0:
41,304,80345,6,0,P|111:313|152:393,2,152,6|2|2,3:2|3:2|3:2,0:0:0:0:
0,234,81147,1,0,0:0:0:0:
0,234,81307,2,0,P|22:205|22:166,1,76,2|0,3:2|0:0,0:0:0:0:
188,58,81628,6,0,P|184:86|174:121,1,47.5000000000001,6|0,1:3|1:1,0:0:0:0:
260,236,81789,1,4,1:3:0:0:
260,236,81869,1,0,1:1:0:0:
260,236,81949,2,0,P|264:208|274:173,1,47.5000000000001,4|0,1:3|1:1,0:0:0:0:
99,80,82109,2,0,P|95:108|85:143,1,47.5000000000001,4|0,1:3|1:1,0:0:0:0:
159,287,82270,5,4,1:3:0:0:
159,287,82350,1,0,1:1:0:0:
159,287,82430,2,0,P|163:259|173:224,1,47.5000000000001,4|4,1:3|1:3,0:0:0:0:
259,106,82591,1,4,1:3:0:0:
299,86,82671,1,4,1:3:0:0:
343,92,82751,1,4,1:3:0:0:
380,123,82831,1,4,1:3:0:0:
389,168,82912,5,6,1:2:0:0:
236,321,83072,1,4,1:3:0:0:
460,377,83232,1,6,1:3:0:0:
363,280,83393,1,0,1:1:0:0:
363,280,83553,1,2,3:2:0:0:
166,384,83874,5,6,1:2:0:0:
1,321,84035,1,0,1:1:0:0:
64,157,84195,1,2,2:2:0:0:
229,220,84355,1,0,1:1:0:0:
114,272,84516,2,0,P|71:260|25:243,1,76,2|0,2:2|0:0,0:0:0:0:
228,124,84837,2,0,P|283:134|318:187,1,114,14|0,3:2|0:0,0:0:0:0:
330,185,85158,2,0,P|316:224|309:265,1,76,2|0,2:2|0:0,0:0:0:0:
481,369,85478,5,6,1:2:0:0:
229,220,85639,1,4,1:3:0:0:
452,127,85799,1,6,1:3:0:0:
380,253,85960,1,2,1:2:0:0:
380,253,86120,1,2,3:2:0:0:
223,37,86441,5,6,1:2:0:0:
3,95,86601,1,0,1:1:0:0:
159,235,86762,1,0,1:1:0:0:
133,138,86922,1,2,1:2:0:0:
133,138,87002,1,2,2:2:0:0:
133,138,87083,5,2,2:2:0:0:
60,168,87243,1,2,2:2:0:0:
264,295,87404,5,14,1:2:0:0:
256,221,87564,1,2,2:2:0:0:
72,304,87724,5,2,2:2:0:0:
139,345,87885,1,2,2:2:0:0:
381,165,88045,5,6,1:2:0:0:
159,235,88206,1,4,1:3:0:0:
401,309,88366,1,6,1:3:0:0:
253,123,88527,1,0,1:1:0:0:
253,123,88687,1,0,3:3:0:0:
340,10,89008,5,6,1:2:0:0:
298,243,89168,1,0,1:1:0:0:
103,103,89329,1,2,1:2:0:0:
253,123,89489,1,0,1:1:0:0:
4,332,89970,6,0,B|95:319|58:378|157:360,1,152,12|2,3:2|2:2,0:0:0:0:
385,143,90612,5,6,1:2:0:0:
220,206,90772,1,4,1:3:0:0:
283,370,90933,1,6,1:3:0:0:
448,307,91093,1,0,1:1:0:0:
448,307,91254,1,2,3:2:0:0:
335,259,91575,5,4,1:2:0:0:
167,125,91735,1,0,1:1:0:0:
88,196,91895,5,2,1:2:0:0:
308,77,92056,1,0,1:1:0:0:
255,16,92216,1,2,2:2:0:0:
255,16,92297,1,2,2:2:0:0:
255,16,92377,1,2,2:2:0:0:
384,56,92537,2,0,P|393:29|404:3,1,56.9999999999999,2|0,2:2|0:0,0:0:0:0:
404,2,92858,1,2,2:2:0:0:
199,174,93179,6,0,B|260:137|313:168|292:205|345:237|409:201,1,228,6|8,3:2|1:2,0:0:0:0:
169,332,93660,1,2,1:2:0:0:
169,332,93740,1,0,1:1:0:0:
169,332,93821,2,0,P|138:322|109:314,1,57,10|0,3:2|0:0,0:0:0:0:
239,245,93981,1,0,3:3:0:0:
36,124,94141,2,0,P|55:179|67:243,1,114,8|0,1:2|0:0,0:0:0:0:
320,349,94462,6,0,P|377:332|444:317,1,114,10|0,3:2|3:3,0:0:0:0:
239,245,94783,1,8,1:2:0:0:
410,125,94944,1,2,1:2:0:0:
410,125,95024,1,0,1:1:0:0:
410,125,95104,2,0,P|402:151|395:189,1,57,10|0,3:2|0:0,0:0:0:0:
484,270,95264,1,0,3:3:0:0:
308,109,95425,1,12,1:2:0:0:
308,109,95746,6,0,B|211:91|265:50|160:31,1,171,14|0,3:2|0:0,0:0:0:0:
161,31,96067,1,8,1:2:0:0:
93,199,96227,1,2,1:2:0:0:
93,199,96307,1,0,1:1:0:0:
93,199,96387,2,0,P|122:189|160:181,1,57,10|0,3:2|0:0,0:0:0:0:
29,86,96548,1,0,3:3:0:0:
225,123,96708,2,0,P|247:170|220:234,1,114,10|0,1:2|0:0,0:0:0:0:
90,326,97029,6,0,P|38:321|-3:266,1,114,10|0,3:2|3:3,0:0:0:0:
235,339,97350,2,0,B|289:357|289:357|293:362|293:362|361:382,1,114,10|0,1:2|0:0,0:0:0:0:
495,316,97671,2,0,P|486:289|478:251,1,57,10|8,3:2|1:3,0:0:0:0:
286,165,97831,2,0,P|295:192|303:230,1,57,8|8,1:3|1:3,0:0:0:0:
413,150,97992,1,10,1:2:0:0:
427,106,98072,1,0,1:1:0:0:
413,62,98152,1,0,1:1:0:0:
379,31,98232,1,0,1:1:0:0:
333,29,98313,6,0,B|267:23|198:1|198:1|172:44|110:43,1,228,14|8,3:2|1:2,0:0:0:0:
196,199,98794,1,2,1:2:0:0:
196,199,98874,1,0,1:1:0:0:
196,199,98954,2,0,P|209:139|223:78,1,114,10|0,3:2|3:3,0:0:0:0:
89,224,99275,1,8,1:2:0:0:
0,136,99436,2,0,P|26:147|59:155,1,57,0|0,1:0|1:0,0:0:0:0:
274,265,99596,6,0,P|303:209|279:158,1,114,10|0,3:2|3:3,0:0:0:0:
109,384,99917,1,8,1:2:0:0:
16,277,100077,1,2,1:2:0:0:
16,277,100158,1,0,1:1:0:0:
16,277,100238,2,0,P|28:303|35:338,1,57,10|0,3:2|0:0,0:0:0:0:
89,224,100398,1,0,3:3:0:0:
246,352,100559,1,12,1:2:0:0:
246,352,100879,6,0,B|348:327|288:294|398:274,1,171,6|0,3:2|0:0,0:0:0:0:
394,274,101200,5,0,1:1:0:0:
164,122,101361,1,2,3:2:0:0:
154,133,101521,1,2,2:2:0:0:
101,198,101682,5,0,3:3:0:0:
364,61,101842,1,2,1:2:0:0:
203,0,102002,2,0,P|210:26|219:54,1,57,2|0,2:2|0:0,0:0:0:0:
331,138,102163,5,2,3:2:0:0:
127,324,102323,2,0,B|80:341|80:341|77:348|77:348|24:369,1,114,2|0,1:2|3:3,0:0:0:0:
190,237,102644,1,2,3:2:0:0:
424,352,102805,2,0,P|480:338|513:279,1,114,2|0,1:2|0:0,0:0:0:0:
355,228,103125,1,0,1:1:0:0:
342,183,103206,1,0,1:1:0:0:
331,138,103286,1,0,1:1:0:0:
319,93,103366,1,0,1:1:0:0:
303,50,103446,6,0,B|242:13|189:44|210:81|157:113|93:77,1,228,6|8,3:2|1:2,0:0:0:0:
208,216,103928,1,2,1:2:0:0:
208,216,104008,1,0,1:1:0:0:
208,216,104088,2,0,P|215:184|228:144,1,57,10|0,3:2|0:0,0:0:0:0:
286,253,104248,1,0,3:3:0:0:
79,181,104409,1,8,1:2:0:0:
38,294,104569,2,0,P|32:266|24:238,1,57,0|0,0:0|1:0,0:0:0:0:
175,384,104730,6,0,P|232:367|294:352,1,114,10|0,3:2|3:3,0:0:0:0:
392,211,105051,1,8,1:2:0:0:
283,139,105211,2,0,P|310:146|337:155,1,57,2|0,1:2|1:1,0:0:0:0:
466,264,105371,1,10,3:2:0:0:
381,307,105532,1,0,3:3:0:0:
497,106,105692,6,0,P|474:98|449:88,1,37.9999999999999,12|0,1:2|0:0,0:0:0:0:
419,4,106013,6,0,B|459:65|428:118|391:97|359:150|394:215,1,228,14|8,3:2|1:2,0:0:0:0:
283,327,106494,1,2,1:2:0:0:
283,327,106575,1,0,1:1:0:0:
283,327,106655,2,0,P|233:295|220:233,1,114,10|0,3:2|3:3,0:0:0:0:
254,65,106976,2,0,P|306:38|366:58,1,114,10|2,1:2|2:2,0:0:0:0:
167,143,107297,6,0,B|94:125|94:125|86:116|86:116|3:94,1,171,10|0,3:2|0:0,0:0:0:0:
5,108,107617,2,0,P|-16:156|4:219,1,114,10|0,1:2|0:0,0:0:0:0:
193,367,107938,1,10,2:3:0:0:
193,367,108018,1,8,2:3:0:0:
193,367,108099,2,0,P|201:332|211:305,1,57,8|8,2:3|2:3,0:0:0:0:
90,246,108259,2,0,P|82:211|72:184,1,57,14|4,2:3|2:3,0:0:0:0:
257,127,108420,2,0,P|265:92|275:65,1,57,6|4,2:3|2:3,0:0:0:0:
143,3,108580,6,0,P|95:21|18:39,1,114,14|0,3:2|3:3,0:0:0:0:
297,227,108901,1,8,1:2:0:0:
173,93,109061,1,2,1:2:0:0:
173,93,109141,1,0,1:1:0:0:
173,93,109222,1,10,3:2:0:0:
94,171,109382,1,0,3:3:0:0:
376,28,109543,2,0,P|358:81|342:156,1,114,10|0,1:2|0:0,0:0:0:0:
167,302,109863,6,0,B|67:276|99:342|-5:319|-4:319,1,171,10|0,3:2|0:0,0:0:0:0:
0,319,110184,1,8,1:2:0:0:
148,185,110345,2,0,P|116:179|82:165,1,57,2|0,1:2|1:1,0:0:0:0:
235,376,110505,2,0,P|269:329|264:273,1,114,10|0,3:2|3:3,0:0:0:0:
37,95,110826,2,0,P|3:142|8:198,1,114,8|2,1:2|2:2,0:0:0:0:
240,132,111147,6,0,B|343:107|284:69|388:49,1,171,14|0,1:2|0:0,0:0:0:0:
392,62,111468,2,0,P|422:74|460:84,1,57,8|0,3:2|0:0,0:0:0:0:
424,243,111628,6,0,P|374:223|311:206,1,114,2|10,1:2|2:2,0:0:0:0:
148,283,111949,1,0,3:3:0:0:
381,138,112109,5,8,1:2:0:0:
187,41,112270,1,2,2:2:0:0:
296,8,112430,5,10,3:2:0:0:
53,150,112591,1,0,1:1:0:0:
256,311,112751,5,8,3:2:0:0:
220,237,112912,1,2,3:2:0:0:
1,384,113072,6,0,P|13:347|21:308,1,66.4999999999999,10|0,1:2|0:0,0:0:0:0:
150,177,113393,5,6,3:2:0:0:
150,177,113473,1,2,2:2:0:0:
150,177,113553,2,0,P|179:169|211:157,1,47.5,2|2,3:2|2:2,0:0:0:0:
75,62,113713,2,0,P|52:69|29:75,3,47.5,10|2|2|2,1:2|2:2|2:2|2:2,0:0:0:0:
224,0,114034,5,10,3:2:0:0:
265,5,114114,1,2,2:2:0:0:
296,32,114195,1,2,3:2:0:0:
309,75,114275,1,2,2:2:0:0:
298,107,114355,2,0,P|290:130|283:162,3,47.5,10|2|2|2,1:2|2:2|2:2|1:2,0:0:0:0:
181,246,114676,6,0,P|188:268|192:291,1,47.5,10|2,3:2|2:2,0:0:0:0:
301,331,114836,2,0,P|293:353|289:376,1,47.5,2|2,3:2|2:2,0:0:0:0:
371,243,114997,1,10,1:2:0:0:
358,231,115077,1,2,2:2:0:0:
339,225,115157,2,0,P|317:235|285:243,1,47.5,2|2,2:2|1:2,0:0:0:0:
122,352,115318,5,10,3:2:0:0:
79,342,115398,1,2,2:2:0:0:
49,311,115478,1,2,3:2:0:0:
34,272,115558,1,2,2:2:0:0:
44,226,115638,1,0,1:1:0:0:
354,40,115959,5,6,3:2:0:0:
395,54,116040,1,2,2:2:0:0:
406,94,116120,2,0,P|396:122|390:155,1,52.25,2|2,3:2|2:2,0:0:0:0:
250,243,116280,2,0,P|244:217|235:193,3,52.25,10|2|2|2,1:2|2:2|2:2|1:2,0:0:0:0:
332,341,116601,5,10,3:2:0:0:
377,346,116681,1,2,2:2:0:0:
415,324,116761,1,2,3:2:0:0:
434,285,116842,1,2,2:2:0:0:
428,239,116922,2,0,P|394:231|359:220,1,52.25,10|2,1:2|2:2,0:0:0:0:
209,106,117082,2,0,P|243:98|278:87,1,52.25,2|2,2:2|1:2,0:0:0:0:
131,195,117243,5,10,3:2:0:0:
81,177,117323,1,2,2:2:0:0:
55,133,117403,1,2,3:2:0:0:
61,87,117483,1,2,2:2:0:0:
89,48,117564,2,0,P|140:36|199:17,1,104.5,10|0,1:2|0:0,0:0:0:0:
428,239,117884,5,14,2:3:0:0:
453,189,117965,1,6,2:3:0:0:
444,139,118045,1,6,2:3:0:0:
400,106,118125,1,6,2:3:0:0:
349,97,118205,2,0,P|339:128|332:159,1,52.25,6|4,1:3|2:3,0:0:0:0:
168,301,118366,2,0,P|177:269|184:238,1,52.25,4|4,2:3|1:3,0:0:0:0:
407,328,118526,6,0,P|354:312|299:297,1,104.5,6|0,3:2|3:3,0:0:0:0:
78,183,118847,2,0,P|87:206|95:236,1,52.25,10|2,1:2|2:2,0:0:0:0:
251,219,119007,1,2,2:2:0:0:
251,219,119088,1,2,1:2:0:0:
251,219,119168,2,0,P|232:167|218:117,1,104.5,10|0,3:2|3:3,0:0:0:0:
16,42,119489,2,0,B|110:26|75:87|169:64,1,156.75,10|0,1:2|1:1,0:0:0:0:
242,51,119810,5,10,3:2:0:0:
242,51,119890,1,2,2:2:0:0:
242,51,119970,2,0,P|252:21|257:-13,1,52.25,2|2,3:2|2:2,0:0:0:0:
344,7,120130,2,0,P|327:56|319:112,1,104.5,10|0,1:2|0:0,0:0:0:0:
440,240,120451,5,10,3:2:0:0:
471,213,120532,1,2,2:2:0:0:
462,166,120612,2,0,P|434:159|401:146,1,52.25,2|2,3:2|2:2,0:0:0:0:
268,228,120772,2,0,P|275:245|283:277,1,52.25,2|2,1:2|2:2,0:0:0:0:
363,297,120933,2,0,P|353:321|347:346,1,52.25,2|2,2:2|2:2,0:0:0:0:
182,374,121093,5,6,3:2:0:0:
140,366,121173,1,2,2:2:0:0:
99,357,121253,1,2,3:2:0:0:
57,346,121334,1,2,2:2:0:0:
16,335,121414,2,0,P|9:307|-7:272,3,52.25,10|2|2|2,1:2|2:2|2:2|1:2,0:0:0:0:
113,246,121735,2,0,P|120:218|136:183,3,52.25,10|2|2|2,3:2|2:2|3:2|2:2,0:0:0:0:
24,125,122056,1,10,1:2:0:0:
37,84,122136,1,2,2:2:0:0:
77,74,122216,2,0,P|102:83|133:90,1,52.25,2|2,2:2|2:2,0:0:0:0:
212,182,122376,6,0,P|251:173|219:194,1,104.5,0|0,1:1|0:0,0:0:0:0:
469,77,122617,6,0,P|430:86|462:65,1,104.5,0|0,1:1|0:0,0:0:0:0:
271,12,122858,6,0,P|302:34|286:0,1,104.5,0|0,1:1|0:0,0:0:0:0:
400,244,123098,6,0,P|368:221|384:256,1,104.5,0|0,1:1|0:0,0:0:0:0:
335,127,123339,5,0,1:1:0:0:
148,281,123660,6,0,P|99:295|47:318,1,95,6|0,3:2|3:3,0:0:0:0:
199,168,123981,1,10,1:2:0:0:
59,139,124141,1,0,0:0:0:0:
59,139,124221,1,0,1:1:0:0:
59,139,124302,2,0,P|108:125|160:102,1,95,10|0,3:2|3:3,0:0:0:0:
351,217,124622,2,0,P|374:169|361:128,1,95,10|0,1:2|0:0,0:0:0:0:
246,0,124943,6,0,P|238:49|219:103,1,95,14|0,3:2|3:3,0:0:0:0:
429,85,125264,2,0,P|388:50|345:52,1,95,10|0,1:2|0:0,0:0:0:0:
349,51,125505,1,0,1:1:0:0:
349,51,125585,1,10,3:2:0:0:
446,158,125745,1,0,3:3:0:0:
272,235,125906,1,10,1:2:0:0:
192,141,126066,2,0,P|201:160|211:195,1,47.5,0|0,0:0|1:1,0:0:0:0:
345,282,126227,6,0,P|365:236|344:189,1,95,14|0,3:2|3:3,0:0:0:0:
237,339,126548,1,10,1:2:0:0:
367,375,126708,1,0,0:0:0:0:
367,375,126788,1,0,1:1:0:0:
367,375,126868,2,0,P|414:361|473:347,1,95,10|0,3:2|3:3,0:0:0:0:
272,235,127189,2,0,P|225:249|166:263,1,95,10|0,1:2|0:0,0:0:0:0:
400,155,127510,5,14,3:2:0:0:
344,277,127671,1,0,3:3:0:0:
400,155,127831,2,0,P|383:105|372:57,1,95,8|0,1:2|0:0,0:0:0:0:
373,63,128072,1,0,1:1:0:0:
373,63,128152,2,0,P|349:58|314:47,1,47.5,10|0,3:2|1:1,0:0:0:0:
252,119,128312,2,0,P|228:124|193:135,1,47.5,0|0,3:3|0:0,0:0:0:0:
103,9,128473,2,0,P|153:15|182:63,1,95,10|0,1:2|0:0,0:0:0:0:
37,181,128794,6,0,P|55:131|65:84,1,95,6|0,3:2|3:3,0:0:0:0:
219,200,129114,2,0,P|202:244|191:290,1,95,10|0,1:2|0:0,0:0:0:0:
190,290,129355,1,0,1:1:0:0:
190,290,129435,1,10,3:2:0:0:
94,364,129596,1,0,3:3:0:0:
289,271,129756,2,0,P|338:286|386:296,1,95,10|0,1:2|0:0,0:0:0:0:
128,156,130077,6,0,P|79:171|31:181,1,95,14|0,3:2|3:3,0:0:0:0:
231,54,130398,1,10,1:2:0:0:
74,0,130558,1,2,2:2:0:0:
74,0,130638,1,0,1:1:0:0:
74,0,130719,2,0,P|61:48|75:92,1,95,10|0,3:2|3:3,0:0:0:0:
298,189,131040,2,0,P|310:143|297:98,1,95,10|2,1:2|2:2,0:0:0:0:
0,129,131360,6,0,P|35:164|80:174,1,95,14|0,3:2|3:3,0:0:0:0:
308,8,131681,2,0,P|262:19|230:53,1,95,10|0,1:2|0:0,0:0:0:0:
230,53,131922,1,0,1:1:0:0:
230,53,132002,1,10,3:2:0:0:
383,168,132163,1,0,3:3:0:0:
191,251,132323,2,0,P|207:202|217:156,1,95,10|0,1:2|0:0,0:0:0:0:
216,159,132564,1,0,1:1:0:0:
216,159,132644,5,14,3:2:0:0:
298,195,132804,1,0,3:3:0:0:
464,23,132965,5,8,1:2:0:0:
393,53,133125,1,0,3:0:0:0:
493,234,133286,5,8,3:2:0:0:
283,116,133446,1,0,3:3:0:0:
331,308,133606,1,8,1:2:0:0:
331,308,133687,1,0,0:0:0:0:
331,308,133767,2,0,P|338:281|346:255,1,47.5,0|0,0:0|1:1,0:0:0:0:
405,135,133927,6,0,B|394:83|374:70|354:81|329:68|323:18,1,142.5,6|0,3:2|0:0,0:0:0:0:
313,19,134248,2,0,P|264:36|212:48,1,95,10|0,1:2|0:0,0:0:0:0:
147,206,134569,1,10,3:2:0:0:
283,116,134729,1,0,3:3:0:0:
106,45,134890,1,10,1:2:0:0:
289,191,135050,2,0,P|310:197|344:206,1,47.5,0|0,0:0|1:1,0:0:0:0:
119,296,135211,6,0,P|134:254|146:206,1,95,14|0,3:2|3:3,0:0:0:0:
266,283,135532,1,8,1:2:0:0:
161,123,135692,1,0,0:0:0:0:
161,123,135772,1,0,1:1:0:0:
161,123,135852,2,0,P|115:128|78:163,1,95,10|0,3:2|3:3,0:0:0:0:
342,344,136173,2,0,P|360:301|348:252,1,95,10|0,1:2|0:0,0:0:0:0:
350,255,136414,1,0,1:1:0:0:
350,255,136494,6,0,P|400:238|451:224,1,95,14|0,3:2|3:3,0:0:0:0:
182,325,136815,2,0,P|132:308|81:294,1,95,10|0,1:2|0:0,0:0:0:0:
316,82,137136,2,0,P|347:113|346:169,1,95,14|0,3:2|3:3,0:0:0:0:
6,320,137457,2,0,P|0:276|31:236,1,95,10|0,1:2|0:0,0:0:0:0:
346,371,137778,5,14,3:2:0:0:
149,228,137938,1,0,3:3:0:0:
93,307,138098,5,8,1:2:0:0:
333,157,138259,1,0,0:0:0:0:
333,157,138339,1,0,1:1:0:0:
333,157,138419,2,0,P|383:141|428:126,1,95,10|0,3:2|3:3,0:0:0:0:
165,6,138740,2,0,P|105:40|146:103,1,142.5,10|0,1:2|1:1,0:0:0:0:
186,152,139061,6,0,B|180:211|150:232|131:217|100:236|92:306,1,190,6|10,3:2|1:2,0:0:0:0:
276,358,139542,1,0,0:0:0:0:
276,358,139622,1,0,1:1:0:0:
276,358,139703,2,0,P|263:306|254:262,1,95,10|0,3:2|3:3,0:0:0:0:
103,155,140024,1,10,1:2:0:0:
276,65,140184,5,0,0:0:0:0:
276,65,140264,1,0,1:1:0:0:
276,65,140344,1,14,3:2:0:0:
366,178,140505,1,0,3:3:0:0:
197,105,140665,2,0,P|184:53|172:4,1,95,10|0,1:2|0:0,0:0:0:0:
174,12,140906,1,0,1:1:0:0:
174,12,140986,2,0,P|127:27|76:42,1,95,10|0,3:2|3:3,0:0:0:0:
263,143,141307,1,10,1:2:0:0:
130,243,141467,1,0,0:0:0:0:
130,243,141548,1,0,1:1:0:0:
130,243,141628,6,0,P|177:228|228:213,1,95,14|2,3:2|3:2,0:0:0:0:
421,137,141949,1,10,1:2:0:0:
274,283,142109,1,2,2:2:0:0:
462,348,142270,1,14,3:2:0:0:
323,219,142430,1,2,3:2:0:0:
394,291,142590,1,10,1:2:0:0:
503,157,142751,1,2,2:2:0:0:
503,157,142831,1,0,0:0:0:0:
503,157,142911,6,0,P|489:109|478:64,1,95,6|0,3:2|3:3,0:0:0:0:
450,222,143232,1,0,1:1:0:0:
321,0,143393,2,0,P|335:48|346:93,1,95,0|0,3:3|0:0,0:0:0:0:
227,116,143713,1,0,3:3:0:0:
193,113,143794,1,8,2:3:0:0:
164,130,143874,1,8,2:3:0:0:
144,162,143954,1,8,2:3:0:0:
146,200,144034,1,4,2:3:0:0:
165,233,144114,1,4,2:3:0:0:
196,255,144195,6,0,P|231:245|269:233,3,66.4999999999999,2|2|2|2,2:2|2:2|2:2|2:2,0:0:0:0:
315,173,144836,2,0,P|346:182|378:191,3,66.4999999999999,2|2|2|2,2:2|2:2|2:2|2:2,0:0:0:0:
104,384,145478,6,0,B|64:323|95:270|132:291|164:238|129:173,1,228,6|8,3:2|1:2,0:0:0:0:
305,38,145959,1,2,1:2:0:0:
305,38,146040,1,0,1:1:0:0:
305,38,146120,2,0,P|311:66|320:96,1,57,10|0,3:2|0:0,0:0:0:0:
203,12,146280,1,0,3:3:0:0:
410,122,146441,2,0,P|380:167|308:179,1,114,8|0,1:2|0:0,0:0:0:0:
107,72,146761,6,0,B|52:57|52:57|43:49|43:49|-13:33,1,114,10|0,3:2|3:3,0:0:0:0:
186,153,147082,1,8,1:2:0:0:
39,217,147243,1,2,1:2:0:0:
39,217,147323,1,0,1:1:0:0:
39,217,147403,2,0,P|49:188|58:157,1,57,10|0,3:2|0:0,0:0:0:0:
192,301,147564,1,0,3:3:0:0:
15,384,147724,1,12,1:2:0:0:
15,384,148045,6,0,B|51:375|51:375|88:278|88:278|132:268,1,171,14|0,3:2|0:0,0:0:0:0:
117,271,148366,1,8,1:2:0:0:
324,175,148526,1,2,1:2:0:0:
324,175,148606,1,0,1:1:0:0:
324,175,148687,2,0,P|346:182|388:194,1,57,10|0,3:2|0:0,0:0:0:0:
284,84,148847,1,0,3:3:0:0:
93,191,149007,2,0,P|81:138|67:71,1,114,10|0,1:2|0:0,0:0:0:0:
330,260,149328,6,0,P|315:318|297:382,1,114,10|0,3:2|3:3,0:0:0:0:
190,126,149649,2,0,P|231:84|291:87,1,114,10|0,1:2|0:0,0:0:0:0:
100,278,149970,2,0,P|73:269|35:258,1,57,10|8,3:2|1:3,0:0:0:0:
201,205,150130,2,0,P|228:196|266:185,1,57,8|8,1:3|1:3,0:0:0:0:
85,139,150291,1,10,1:2:0:0:
62,109,150371,1,0,1:1:0:0:
65,67,150451,1,0,1:1:0:0:
95,38,150532,1,0,1:1:0:0:
133,29,150612,6,0,B|195:47|268:53|268:53|276:103|333:126,1,228,14|12,3:2|1:2,0:0:0:0:
512,250,151093,1,2,1:2:0:0:
512,250,151173,1,0,1:1:0:0:
512,250,151253,2,0,P|455:266|390:287,1,114,10|0,3:2|3:3,0:0:0:0:
239,177,151574,1,12,1:2:0:0:
416,61,151735,2,0,P|408:94|398:127,1,57,0|0,1:0|1:0,0:0:0:0:
201,242,151895,6,0,P|162:211|166:149,1,114,10|0,3:2|3:3,0:0:0:0:
389,204,152216,1,12,1:2:0:0:
250,368,152376,1,2,1:2:0:0:
250,368,152457,1,0,1:1:0:0:
250,368,152537,2,0,P|260:333|268:306,1,57,10|0,3:2|0:0,0:0:0:0:
375,366,152697,1,0,3:3:0:0:
239,177,152858,1,12,1:2:0:0:
239,177,153179,6,0,B|233:122|205:103|188:117|160:99|152:35,1,171,6|0,3:2|0:0,0:0:0:0:
153,38,153499,5,0,1:1:0:0:
322,175,153660,1,2,3:2:0:0:
333,184,153820,1,2,2:2:0:0:
376,105,153981,5,0,3:3:0:0:
157,243,154141,1,2,1:2:0:0:
37,170,154302,2,0,P|61:178|99:186,1,56.9999982604981
241,291,154462,5,2,3:2:0:0:
34,369,154622,1,0,1:1:0:0:
25,379,154783,1,0,3:3:0:0:
110,314,154943,1,2,3:2:0:0:
13,59,155104,2,0,B|26:112|26:112|23:122|23:122|37:170,1,113.999996520996,6|0,1:2|0:0,0:0:0:0:
293,361,155425,1,0,1:1:0:0:
338,381,155505,1,0,1:1:0:0:
381,370,155585,1,0,1:1:0:0:
408,335,155665,1,0,1:1:0:0:
403,290,155745,6,0,B|363:229|394:176|431:197|463:144|428:79,1,228,6|8,3:2|1:2,0:0:0:0:
200,6,156227,1,2,1:2:0:0:
200,6,156307,1,0,1:1:0:0:
200,6,156387,2,0,P|209:38|216:78,1,57,10|0,3:2|0:0,0:0:0:0:
280,228,156548,1,0,3:3:0:0:
200,160,156708,1,8,1:2:0:0:
352,101,156868,2,0,P|344:128|338:156,1,57,0|0,0:0|1:0,0:0:0:0:
120,246,157029,6,0,P|64:229|34:176,1,114,10|0,3:2|3:3,0:0:0:0:
200,6,157350,1,8,1:2:0:0:
22,105,157510,2,0,P|49:112|76:120,1,57,2|0,1:2|1:1,0:0:0:0:
200,160,157671,1,10,3:2:0:0:
149,83,157831,1,0,3:3:0:0:
349,12,157991,6,0,P|342:40|331:75,1,47.5,12|2,1:2|2:2,0:0:0:0:
200,160,158312,6,0,B|208:234|246:260|269:241|306:265|317:352,1,228,14|8,3:2|1:2,0:0:0:0:
168,380,158794,1,2,1:2:0:0:
168,380,158874,1,0,1:1:0:0:
168,380,158954,2,0,P|112:377|74:337,1,114,10|0,3:2|3:3,0:0:0:0:
302,172,159275,2,0,P|359:159|418:143,1,114,10|0,1:2|0:0,0:0:0:0:
150,2,159596,2,0,P|79:35|107:120,1,171,10|0,3:2|0:0,0:0:0:0:
162,155,159917,2,0,P|175:210|190:272,1,114,10|0,1:2|0:0,0:0:0:0:
358,384,160237,5,10,2:3:0:0:
387,369,160318,1,8,2:3:0:0:
405,335,160398,1,8,2:3:0:0:
398,300,160478,1,8,2:3:0:0:
372,270,160558,2,0,P|348:263|314:252,1,57,14|4,2:3|2:3,0:0:0:0:
458,171,160719,2,0,P|485:162|512:154,1,57,6|4,2:3|2:3,0:0:0:0:
319,73,160879,6,0,P|265:92|252:151,1,114,14|0,3:2|3:3,0:0:0:0:
72,325,161200,1,8,1:2:0:0:
191,198,161360,1,2,1:2:0:0:
191,198,161441,1,0,1:1:0:0:
191,198,161521,1,10,3:2:0:0:
297,287,161681,1,0,3:3:0:0:
106,176,161842,2,0,P|90:124|73:62,1,114,8|2,1:2|2:2,0:0:0:0:
344,0,162163,6,0,B|338:55|310:74|293:60|265:78|257:142,1,171,10|0,3:2|0:0,0:0:0:0:
257,137,162483,1,8,1:2:0:0:
389,272,162644,2,0,P|382:247|373:212,1,57,2|0,1:2|1:1,0:0:0:0:
231,332,162804,2,0,P|173:351|112:374,1,114,10|0,3:2|3:3,0:0:0:0:
419,151,163125,2,0,P|474:162|504:216,1,114,8|2,1:2|2:2,0:0:0:0:
208,203,163446,6,0,B|109:178|174:138|64:110,1,171,14|0,1:2|0:0,0:0:0:0:
64,100,163767,2,0,P|60:71|85:47,1,57,8|0,3:2|0:0,0:0:0:0:
270,108,163927,6,0,P|281:165|297:229,1,114,2|10,1:2|2:2,0:0:0:0:
202,321,164248,1,0,3:3:0:0:
61,204,164409,5,8,1:2:0:0:
298,331,164569,1,2,2:2:0:0:
128,384,164729,5,10,3:2:0:0:
376,206,164890,1,4,1:2:0:0:
150,93,165050,5,8,3:2:0:0:
186,161,165211,1,2,3:2:0:0:
367,66,165371,6,0,P|380:22|388:-11,1,66.4999999999999,14|2,1:2|2:2,0:0:0:0:
385,2,165612,1,2,2:2:0:0:
403,5,165692,1,2,1:2:0:0:
430,15,165772,1,0,1:1:0:0:
458,47,165852,1,0,1:1:0:0:
450,94,165933,1,0,1:1:0:0:
392,132,166013,6,0,B|331:95|278:126|299:163|246:195|182:159,1,228,14|8,3:2|1:2,0:0:0:0:
381,319,166494,1,2,1:2:0:0:
381,319,166574,1,0,1:1:0:0:
381,319,166655,2,0,P|364:263|351:199,1,114,10|0,3:2|3:3,0:0:0:0:
174,383,166975,1,8,1:2:0:0:
236,283,167136,2,0,P|265:291|296:300,1,57,2|0,2:2|0:0,0:0:0:0:
166,232,167296,6,0,B|160:163|123:139|96:163|55:134|41:50,1,228,10|8,3:2|1:2,0:0:0:0:
223,0,167778,1,2,1:2:0:0:
223,0,167858,1,0,1:1:0:0:
223,0,167938,2,0,P|200:49|143:66,1,114,10|0,3:2|3:3,0:0:0:0:
310,236,168259,2,0,P|372:255|431:276,1,114,8|2,1:2|2:2,0:0:0:0:
495,138,168580,6,0,P|409:111|327:82,1,171,14|0,1:2|0:0,0:0:0:0:
326,71,168901,2,0,P|324:47|346:26,1,57,8|0,3:2|0:0,0:0:0:0:
242,180,169061,6,0,P|156:206|74:235,1,171,2|0,1:2|0:0,0:0:0:0:
81,244,169382,2,0,P|79:268|101:289,1,57,0|0,3:3|0:0,0:0:0:0:
231,276,169542,1,10,1:2:0:0:
56,150,169703,1,0,0:0:0:0:
0,384,169863,5,2,2:2:0:0:
53,331,170184,1,2,2:2:0:0:
120,366,170505,1,2,2:2:0:0:
176,320,170826,2,0,P|196:315|220:309,3,33.25,2|0|0|0,2:2|0:0|0:0|0:0,0:0:0:0:
276,347,171147,6,0,P|339:306|303:235,1,156.75,6|0,3:2|0:0,0:0:0:0:
303,243,171467,2,0,P|287:186|275:133,1,104.5,10|0,1:2|0:0,0:0:0:0:
223,88,171708,1,0,1:1:0:0:
211,81,171788,1,10,3:2:0:0:
348,8,171949,1,0,3:3:0:0:
202,170,172109,1,10,1:2:0:0:
96,62,172270,2,0,P|86:35|78:1,1,52.25,0|0,0:0|1:1,0:0:0:0:
310,78,172430,6,0,P|358:95|423:113,1,104.5,10|0,3:2|3:3,0:0:0:0:
173,255,172751,2,0,P|124:269|73:286,1,104.5,10|0,1:2|0:0,0:0:0:0:
368,379,173072,1,10,3:2:0:0:
368,379,173152,1,2,0:0:0:0:
368,379,173232,2,0,P|356:339|349:305,1,52.25,0|0,3:3|0:0,0:0:0:0:
254,257,173393,2,0,P|269:208|283:148,1,104.5,10|0,1:2|0:0,0:0:0:0:
442,41,173713,6,0,P|506:70|493:153,1,156.75,10|0,3:2|0:0,0:0:0:0:
490,153,174034,2,0,P|439:140|389:125,1,104.5,10|0,1:2|0:0,0:0:0:0:
337,68,174275,1,0,1:1:0:0:
330,60,174355,1,10,3:2:0:0:
415,210,174515,1,0,3:3:0:0:
254,257,174676,1,10,1:2:0:0:
420,343,174836,2,0,P|413:312|407:279,1,52.25,2|0,2:2|1:1,0:0:0:0:
257,165,174997,6,0,P|189:193|172:279,1,156.75,10|0,3:2|0:0,0:0:0:0:
161,278,175318,2,0,B|115:291|115:291|111:298|111:298|60:312,1,104.5,10|0,1:2|0:0,0:0:0:0:
256,384,175638,6,0,P|249:354|243:323,1,52.25,10|0,3:2|0:0,0:0:0:0:
161,278,175799,2,0,P|168:248|174:217,1,52.25,2|0,1:2|1:1,0:0:0:0:
341,194,175959,2,0,P|334:164|328:133,1,52.25,2|0,1:2|1:1,0:0:0:0:
137,92,176120,2,0,P|144:62|150:31,1,52.25,2|0,1:2|1:1,0:0:0:0:
223,140,176280,5,14,3:2:0:0:
230,149,176441,1,0,3:3:0:0:
98,198,176601,2,0,P|41:177|-15:159,1,104.5,10|2,1:2|2:2,0:0:0:0:
280,35,176922,2,0,P|337:56|393:74,1,104.5,10|2,3:2|3:2,0:0:0:0:
512,204,177243,1,10,1:2:0:0:
326,244,177403,2,0,P|335:219|341:191,1,52.25,2|0,2:2|1:1,0:0:0:0:
430,304,177564,6,0,P|399:348|341:352,1,104.5,10|2,3:2|3:2,0:0:0:0:
169,238,177884,2,0,P|146:189|172:137,1,104.5,10|2,1:2|2:2,0:0:0:0:
226,364,178205,1,10,3:2:0:0:
226,364,178286,1,2,0:0:0:0:
226,364,178366,2,0,P|237:336|247:305,1,52.25,2|2,3:2|2:2,0:0:0:0:
326,244,178526,2,0,B|323:210|304:198|291:210|272:196|264:150,1,104.5,10|2,1:2|2:2,0:0:0:0:
397,3,178847,5,6,1:2:0:0:
418,16,178927,1,2,2:2:0:0:
427,38,179007,2,0,P|419:63|407:93,1,52.25,2|2,3:2|2:2,0:0:0:0:
255,86,179168,2,0,P|230:80|198:72,1,52.25,2|2,3:2|2:2,0:0:0:0:
76,162,179328,5,2,1:2:0:0:
48,195,179409,1,2,2:2:0:0:
51,232,179489,1,2,3:2:0:0:
79,263,179569,1,2,2:2:0:0:
115,276,179649,2,0,P|137:268|164:261,1,52.25,2|2,3:2|2:2,0:0:0:0:
356,315,179810,5,2,1:2:0:0:
365,358,179890,1,2,3:2:0:0:
331,384,179970,2,0,P|309:376|282:369,1,52.25,2|2,3:2|2:2,0:0:0:0:
270,286,180130,6,0,P|263:262|249:226,1,52.25,2|2,1:2|2:2,0:0:0:0:
419,200,180291,2,0,P|425:173|435:149,1,52.25,6|2,1:2|2:2,0:0:0:0:
340,0,180451,5,2,3:2:0:0:
305,11,180532,1,2,2:2:0:0:
295,40,180612,2,0,P|301:66|308:91,1,52.25,2|2,3:2|2:2,0:0:0:0:
188,202,180772,1,6,1:2:0:0:
179,213,180852,1,0,0:0:0:0:
166,222,180933,2,0,P|138:212|103:201,1,52.25
0,80,181093,1,2,3:2:0:0:
4,54,181173,1,2,1:2:0:0:
28,29,181253,1,2,1:2:0:0:
72,16,181334,1,2,1:2:0:0:
134,53,181414,6,0,B|220:69|164:110|274:131,1,142.5,6|0,3:2|0:0,0:0:0:0:
251,125,181735,1,10,1:2:0:0:
396,221,181895,1,2,2:2:0:0:
408,211,181975,1,0,1:1:0:0:
411,196,182056,1,10,3:2:0:0:
230,280,182216,2,0,P|245:326|261:385,1,95,2|10,3:2|1:2,0:0:0:0:
45,240,182537,2,0,P|42:218|62:201,1,47.5,2|0,2:2|1:1,0:0:0:0:
170,171,182697,5,10,3:2:0:0:
178,178,182858,1,0,3:3:0:0:
63,0,183018,2,0,P|81:68|102:146,1,142.5,10|0,1:2|1:1,0:0:0:0:
90,147,183339,2,0,B|72:159|72:159|32:148,1,47.5,10|0,3:2|0:0,0:0:0:0:
161,80,183499,1,0,3:3:0:0:
45,240,183660,2,0,B|128:259|79:301|173:324,1,142.5,10|0,1:2|1:1,0:0:0:0:
157,319,183981,5,10,3:2:0:0:
314,250,184141,1,2,3:2:0:0:
395,377,184302,1,10,1:2:0:0:
237,238,184462,2,0,P|223:180|213:135,1,95,2|10,2:2|3:2,0:0:0:0:
110,0,184783,1,2,3:2:0:0:
295,115,184943,1,10,1:2:0:0:
95,216,185104,2,0,P|70:208|35:198,1,47.5,2|0,2:2|1:1,0:0:0:0:
233,46,185264,5,10,3:2:0:0:
242,39,185425,1,2,3:2:0:0:
419,288,185585,2,0,B|415:245|391:230|375:245|351:227|341:170,1,142.5,10|0,1:2|0:0,0:0:0:0:
295,115,185906,1,10,3:2:0:0:
295,115,185986,1,2,0:0:0:0:
295,115,186066,2,0,B|303:87|309:56,1,47.5,2|0,1:2|1:1,0:0:0:0:
430,0,186227,2,0,P|436:25|448:57,1,47.5,2|0,1:2|1:1,0:0:0:0:
223,175,186387,2,0,B|219:156|211:128,1,47.5,2|0,1:2|1:1,0:0:0:0:
425,206,186548,6,0,P|487:227|505:300,1,142.5,14|0,3:2|0:0,0:0:0:0:
506,295,186868,1,10,1:2:0:0:
335,384,187029,1,2,2:2:0:0:
325,371,187109,1,2,1:2:0:0:
326,357,187189,1,10,3:2:0:0:
510,197,187350,2,0,P|495:141|486:103,1,95,2|10,3:2|1:2,0:0:0:0:
305,202,187671,2,0,P|299:227|289:259,1,47.5,2|0,2:2|1:1,0:0:0:0:
384,128,187831,5,10,3:2:0:0:
389,122,187991,1,2,3:2:0:0:
248,12,188152,2,0,P|190:32|88:60,1,142.5,10|0,1:2|1:1,0:0:0:0:
102,64,188473,2,0,B|83:58|83:58|79:53|79:53|58:48,1,47.5,10|0,3:2|0:0,0:0:0:0:
157,140,188633,1,2,3:2:0:0:
2,207,188794,2,0,B|45:220|45:220|70:291|70:291|101:300,1,142.5,10|0,1:2|0:0,0:0:0:0:
91,297,189114,5,6,1:2:0:0:
293,158,189275,1,2,3:2:0:0:
143,225,189435,1,2,3:2:0:0:
410,377,189596,2,0,P|397:327|386:278,1,95,6|2,1:2|3:2,0:0:0:0:
143,225,189917,2,0,P|151:203|158:173,1,47.5,2|2,3:2|2:2,0:0:0:0:
226,117,190077,2,0,B|222:74|198:59|182:74|158:56|148:-1,1,142.5,6|2,1:2|2:2,0:0:0:0:
149,5,190398,5,6,1:2:0:0:
382,67,190558,2,0,B|339:80|339:80|314:151|314:151|283:160,1,142.5,6|2,1:2|2:2,0:0:0:0:
292,157,190879,1,2,3:2:0:0:
410,324,191040,5,6,1:2:0:0:
206,195,191200,1,0,0:0:0:0:
121,339,191360,5,6,2:3:0:0:
277,236,191521,1,4,2:3:0:0:
51,65,191681,6,0,P|65:123|77:170,1,95,6|4,1:2|1:2,0:0:0:0:
338,350,192002,5,2,3:2:0:0:
163,73,192163,1,6,1:2:0:0:
26,300,192323,5,4,1:2:0:0:
247,44,192483,1,2,2:2:0:0:
247,44,192564,1,8,2:3:0:0:
247,44,192644,2,0,P|255:24|264:-6,1,47.5,6|0,1:2|0:0,0:0:0:0:
190,264,192804,5,6,1:2:0:0:
256,192,192884,12,0,195211,0:0:0:0:
