osu file format v14

[General]
AudioFilename: audio.mp3
AudioLeadIn: 0
PreviewTime: 43328
Countdown: 0
SampleSet: Soft
StackLeniency: 0.3
Mode: 0
LetterboxInBreaks: 0
WidescreenStoryboard: 1

[Editor]
Bookmarks: 11072,21339,31606,41874,62408,72676,88719
DistanceSpacing: 1.2
BeatDivisor: 4
GridSize: 32
TimelineZoom: 2.599999

[Metadata]
Title:On My MiND (TV Size)
TitleUnicode:On My MiND (TV Size)
Artist:Mrs. GREEN APPLE
ArtistUnicode:Mrs. GREEN APPLE
Creator:Haruto
Version:AFFECTiON
Source:ナナマル サンバツ
Tags:Ensemble ミセスグリーンアップル 7O3X Nana Maru San Batsu fastest finger first anime japanese jp jrock j-rock male vocalist kieg yogurtt bakugo- kujinn reform haruto_aizawa Motoki Omori 大森元貴 Hiroto Wakai 若井滉斗 Ayaka Yamanaka 山中綾華 Ryoka Fujisawa 藤澤涼架 Kiyokatsu Kiyokazu Takano 髙野清宗 right wrong seven right three wrong
BeatmapID:3078491
BeatmapSetID:1502590

[Difficulty]
HPDrainRate:6
CircleSize:4.2
OverallDifficulty:9
ApproachRate:9.3
SliderMultiplier:1.7
SliderTickRate:1

[Events]
//Background and Video events
0,0,"91447132_p00.jpg",0,0
Video,0,"7O3X.mp4"
//Break Periods
//Storyboard Layer 0 (Background)
//Storyboard Layer 1 (Fail)
//Storyboard Layer 2 (Pass)
//Storyboard Layer 3 (Foreground)
//Storyboard Layer 4 (Overlay)
//Storyboard Sound Samples

[TimingPoints]
334,320.855614973262,4,2,1,70,1,0
4826,-83.3333333333333,4,2,1,70,0,0
5388,-83.3333333333333,4,2,1,20,0,0
5468,-100,4,2,1,70,0,0
7072,-90.9090909090909,4,2,1,70,0,0
8035,-83.3333333333333,4,2,1,70,0,0
8997,-100,4,2,1,70,0,0
11083,-111.111111111111,4,2,1,70,0,0
11564,-400,4,2,1,70,0,0
11725,-400,4,2,1,20,0,0
11885,-400,4,2,1,70,0,0
12046,-400,4,2,1,20,0,0
12206,-400,4,2,1,70,0,0
12366,-400,4,2,1,20,0,0
12527,-400,4,2,1,70,0,0
13168,-90.9090909090909,4,2,1,70,0,0
13408,-90.9090909090909,4,2,1,20,0,0
13488,-100,4,2,1,70,0,0
14692,-100,4,2,1,20,0,0
14772,-100,4,2,1,70,0,0
15975,-100,4,2,1,20,0,0
16055,-100,4,2,1,70,0,0
17258,-100,4,2,1,20,0,0
17339,-100,4,2,1,70,0,0
17659,-83.3333333333333,4,2,1,70,0,0
18301,-100,4,2,1,70,0,0
19825,-100,4,2,1,20,0,0
19905,-100,4,2,1,70,0,0
23435,-133.333333333333,4,2,1,40,0,0
27927,-117.647058823529,4,2,1,40,0,0
28569,-133.333333333333,4,2,1,40,0,0
30654,-117.647058823529,4,2,1,40,0,0
31136,-133.333333333333,4,2,1,40,0,0
32419,-133.333333333333,4,2,1,50,0,0
33061,-90.9090909090909,4,2,1,60,0,0
33702,-125,4,2,1,70,0,0
43007,-166.666666666667,4,2,1,70,0,0
43248,-166.666666666667,4,2,1,20,0,0
43328,-83.3333333333333,4,2,1,70,0,0
43408,-83.3333333333333,4,2,1,20,0,0
43489,-83.3333333333333,4,2,1,70,0,0
43569,-83.3333333333333,4,2,1,20,0,0
43649,-83.3333333333333,4,2,1,70,0,0
43889,-83.3333333333333,4,2,1,20,0,0
43970,-100,4,2,1,70,0,0
46216,-66.6666666666667,4,2,1,70,0,0
46256,-66.6666666666667,4,2,1,20,0,0
46536,-100,4,2,1,70,0,0
48782,-83.3333333333333,4,2,1,70,0,0
49103,-100,4,2,1,70,0,0
49344,-100,4,2,1,20,0,0
49424,-100,4,2,1,70,0,0
54478,-100,4,2,1,20,0,0
54558,-100,4,2,1,70,0,0
55440,-100,4,2,1,20,0,0
55520,-100,4,2,1,70,0,0
56483,-66.6666666666667,4,2,1,70,0,0
56523,-66.6666666666667,4,2,1,20,0,0
56804,-100,4,2,1,70,0,0
58328,-100,4,2,1,20,0,0
58408,-100,4,2,1,70,0,0
60895,-100,4,2,1,20,0,0
60975,-100,4,2,1,70,0,0
64745,-100,4,2,1,20,0,0
64825,-100,4,2,1,70,0,0
65708,-100,4,2,1,20,0,0
65788,-100,4,2,1,70,0,0
66991,-100,4,2,1,20,0,0
67071,-100,4,2,1,70,0,0
68996,-83.3333333333333,4,2,1,70,0,0
69317,-71.4285714285714,4,2,1,70,0,0
69638,-100,4,2,1,70,0,0
71162,-100,4,2,1,20,0,0
71242,-100,4,2,1,70,0,0
79264,-83.3333333333333,4,2,1,70,0,0
79585,-71.4285714285714,4,2,1,70,0,0
79905,-100,4,2,1,70,0,0
86162,-125,4,2,1,70,0,0
88729,-100,4,2,1,20,0,0

[Colours]
Combo1 : 215,200,96
Combo2 : 141,189,199
Combo3 : 98,183,96

[HitObjects]
256,192,334,12,0,2259,0:0:0:0:
218,144,2580,5,2,0:0:0:0:
218,144,2901,1,6,0:0:0:0:
403,187,3062,1,0,3:0:0:0:
301,110,3221,2,0,P|286:70|281:27,1,85,10|0,0:0|3:0,0:0:0:0:
282,20,3463,1,0,3:0:0:0:
285,11,3543,5,0,3:2:0:0:
158,216,3703,1,2,3:2:0:0:
29,145,3864,2,0,P|69:130|112:125,1,85,8|2,0:0|3:2,0:0:0:0:
119,126,4105,1,0,3:0:0:0:
128,129,4185,1,2,3:2:0:0:
253,232,4345,1,0,3:0:0:0:
423,106,4505,2,0,P|408:146|403:189,1,85,10|0,0:0|3:0,0:0:0:0:
404,203,4746,1,0,3:0:0:0:
408,217,4826,6,0,L|330:203,1,50.9999984436036,0|0,3:0|3:0,0:0:0:0:
180,175,4986,1,0,3:0:0:0:
288,379,5147,2,0,P|278:300|250:227,1,152.999995330811,10|0,0:0|0:0,0:0:0:0:
288,151,5468,6,0,P|294:97|313:46,1,85,14|2,0:0|3:2,0:0:0:0:
423,106,5789,1,10,0:0:0:0:
204,87,5949,2,0,B|111:67|131:129|39:112,1,170,2|2,3:2|0:2,0:0:0:0:
372,12,6431,2,0,P|412:23|455:27,1,85,8|2,0:0|3:2,0:0:0:0:
465,27,6671,1,0,3:0:0:0:
477,26,6751,1,0,3:0:0:0:
305,242,6912,1,2,3:2:0:0:
305,242,7072,2,0,P|300:194|287:148,1,93.5000028533936,10|0,0:0|0:0,0:0:0:0:
49,66,7393,5,0,3:2:0:0:
45,89,7473,1,0,3:0:0:0:
41,112,7553,1,0,3:0:0:0:
84,92,7634,1,0,3:0:0:0:
130,98,7714,1,10,0:0:0:0:
161,132,7794,1,8,0:0:0:0:
192,166,7874,1,8,0:0:0:0:
238,172,7955,1,8,0:0:0:0:
278,160,8035,6,0,L|264:82,3,50.9999984436036,2|2|2|2,0:0|0:0|0:0|0:0,0:0:0:0:
337,54,8356,2,0,L|415:68,1,50.9999984436036,10|0,0:0|0:0,0:0:0:0:
396,269,8516,6,0,L|382:191,3,50.9999984436036,2|2|2|2,0:0|0:0|3:2|0:0,0:0:0:0:
455,163,8837,2,0,L|533:177,1,50.9999984436036,2|0,3:2|0:0,0:0:0:0:
323,332,8997,6,0,P|280:335|239:347,1,85,8|2,0:0|0:0,0:0:0:0:
489,306,9318,1,2,3:2:0:0:
268,109,9479,2,0,P|308:120|351:124,1,85,8|2,0:0|3:2,0:0:0:0:
473,75,9800,1,2,3:2:0:0:
396,269,9960,5,10,0:0:0:0:
249,22,10120,1,8,0:0:0:0:
455,163,10281,1,2,3:2:0:0:
229,270,10441,1,10,0:0:0:0:
23,129,10602,5,2,0:0:0:0:
29,108,10682,1,2,0:0:0:0:
34,88,10762,1,2,0:0:0:0:
36,66,10842,1,2,0:0:0:0:
38,45,10922,1,10,0:0:0:0:
120,87,11083,2,0,B|199:69|182:122|267:108,1,152.999995330811,2|0,3:2|0:2,0:0:0:0:
144,184,11564,6,0,P|141:194|140:204,1,21.25,2|0,0:0|0:0,0:0:0:0:
65,229,11885,2,0,P|67:239|68:249,1,21.25,2|0,0:0|0:0,0:0:0:0:
131,299,12206,2,0,P|128:309|127:319,1,21.25,2|0,0:0|0:0,0:0:0:0:
120,87,12527,5,8,0:0:0:0:
283,284,12687,1,8,0:0:0:0:
31,326,12848,1,8,0:0:0:0:
283,284,13168,6,0,P|362:262|447:254,1,140.25000428009,6|0,0:0|0:0,0:0:0:0:
436,268,13488,2,0,P|460:234|453:187,1,85,10|0,0:0|0:0,0:0:0:0:
274,113,13809,2,0,P|250:147|257:194,1,85,2|0,3:2|3:0,0:0:0:0:
437,107,14130,2,0,P|403:83|356:90,1,85,10|0,0:0|0:0,0:0:0:0:
131,299,14451,6,0,P|121:229|102:162,1,127.5,2|0,3:2|0:0,0:0:0:0:
101,165,14772,2,0,P|57:176|10:181,1,85,10|0,0:0|0:0,0:0:0:0:
267,296,15093,2,0,P|255:252|250:205,1,85,2|2,3:2|3:2,0:0:0:0:
251,200,15333,1,2,0:0:0:0:
254,188,15413,1,10,0:0:0:0:
412,231,15574,5,0,3:0:0:0:
412,231,15654,1,0,3:0:0:0:
412,231,15734,2,0,P|421:161|440:94,1,127.5,4|0,3:2|0:0,0:0:0:0:
442,94,16055,2,0,P|408:70|361:77,1,85,10|0,0:0|3:0,0:0:0:0:
280,108,16296,1,0,3:0:0:0:
273,112,16376,2,0,P|249:146|256:193,1,85,2|0,3:2|3:0,0:0:0:0:
483,296,16697,2,0,P|507:262|500:215,1,85,10|0,0:0|0:0,0:0:0:0:
206,348,17018,6,0,B|136:332|151:378|83:367,1,127.5,2|0,3:2|0:2,0:0:0:0:
68,376,17339,2,0,P|62:333|51:292,1,85,10|0,0:0|0:0,0:0:0:0:
139,194,17660,2,0,P|136:219|131:244,1,50.9999984436036,2|0,3:2|3:0,0:0:0:0:
206,348,17820,2,0,P|208:322|213:297,1,50.9999984436036,2|0,3:2|3:0,0:0:0:0:
252,136,17980,6,0,P|254:161|259:186,1,50.9999984436036,10|0,0:0|3:0,0:0:0:0:
68,376,18141,2,0,P|65:350|60:325,1,50.9999984436036,2|0,3:2|3:0,0:0:0:0:
295,268,18301,6,0,B|359:287|411:302|411:302|455:278,1,170,6|10,3:2|0:0,0:0:0:0:
252,136,18782,1,2,0:0:0:0:
362,111,18943,2,0,P|350:152|345:194,1,85,2|0,3:2|3:0,0:0:0:0:
228,380,19264,2,0,P|222:337|211:296,1,85,10|0,0:0|0:0,0:0:0:0:
16,225,19585,6,0,P|58:219|149:189,1,127.5,2|0,3:2|0:0,0:0:0:0:
138,193,19905,2,0,P|126:151|121:109,1,85,10|0,0:0|3:0,0:0:0:0:
42,27,20226,2,0,P|30:68|25:110,1,85,2|2,3:2|3:2,0:0:0:0:
26,121,20467,1,2,0:0:0:0:
28,132,20547,1,10,0:0:0:0:
113,324,20708,1,2,0:0:0:0:
252,136,20868,5,10,3:2:0:0:
292,125,20948,1,0,0:0:0:0:
333,136,21028,1,2,3:2:0:0:
362,166,21109,1,0,3:0:0:0:
373,206,21189,2,0,P|367:226|365:247,1,42.5,2|0,3:2|0:0,0:0:0:0:
229,352,21349,5,10,0:0:0:0:
200,342,21429,1,0,3:0:0:0:
172,334,21510,1,2,3:2:0:0:
142,328,21589,1,0,3:0:0:0:
113,324,21670,2,0,P|111:302|105:282,1,42.5,2|0,3:2|0:0,0:0:0:0:
42,27,21831,5,10,0:0:0:0:
74,37,21911,1,2,0:0:0:0:
107,42,21991,2,0,P|128:42|149:38,1,42.5,2|2,3:2|3:2,0:0:0:0:
263,29,22151,5,2,3:2:0:0:
252,61,22231,1,2,0:0:0:0:
248,93,22311,2,0,P|247:114|251:135,1,42.5,10|0,0:2|0:0,0:0:0:0:
373,206,22472,5,2,3:2:0:0:
384,174,22552,1,2,3:2:0:0:
388,141,22632,2,0,P|388:119|384:98,1,42.5,2|0,3:2|0:0,0:0:0:0:
138,193,22793,5,8,3:2:0:0:
125,195,22873,1,0,3:2:0:0:
112,197,22953,1,0,3:2:0:0:
100,199,23033,1,0,3:2:0:0:
86,202,23114,5,10,0:0:0:0:
48,229,23194,5,10,0:0:0:0:
35,278,23274,5,10,0:0:0:0:
57,329,23355,5,10,0:0:0:0:
109,355,23435,6,0,B|174:360|164:325|232:334,2,127.500004863739,2|2|2,3:2|3:2|3:2,0:0:0:0:
228,245,24237,1,0,0:0:0:0:
228,245,24397,2,0,P|258:252|290:258,1,63.7500024318696,2|0,3:2|0:0,0:0:0:0:
401,330,24718,2,0,P|383:259|370:188,1,127.500004863739,2|2,3:2|3:2,0:0:0:0:
445,152,25200,1,2,0:0:0:0:
445,152,25360,1,2,3:2:0:0:
495,275,25520,2,0,P|503:244|509:213,1,63.7500024318696,8|2,0:0|3:2,0:0:0:0:
360,121,25841,5,8,0:0:0:0:
290,258,26002,2,0,P|274:196|261:133,2,127.500004863739,2|2|0,3:2|3:2|3:0,0:0:0:0:
445,152,26804,1,2,0:0:0:0:
445,152,26964,2,0,P|475:144|507:138,1,63.7500024318696,2|0,3:2|0:0,0:0:0:0:
296,39,27285,6,0,B|228:30|238:65|173:60,1,127.500004863739,2|0,3:2|3:2,0:0:0:0:
28,6,27766,1,8,0:0:0:0:
161,225,27927,2,0,P|168:186|177:147,1,72.2500013780594,10|8,0:0|0:0,0:0:0:0:
70,88,28248,2,0,P|77:126|86:165,1,72.2500013780594,8|8,3:3|0:0,0:0:0:0:
264,316,28569,6,0,B|231:298|231:298|197:331|144:323,2,127.500004863739,2|2|0,3:2|3:2|3:0,0:0:0:0:
341,373,29371,1,2,0:0:0:0:
223,212,29531,2,0,P|191:219|160:224,1,63.7500024318696,2|0,3:2|0:2,0:0:0:0:
341,373,29852,6,0,P|372:365|403:360,1,63.7500024318696,2|0,3:2|0:0,0:0:0:0:
491,381,30173,2,0,B|500:313|465:323|470:258,1,127.500004863739,2|0,3:2|3:2,0:0:0:0:
354,160,30654,2,0,P|312:152|270:142,1,72.2500013780594,8|2,0:0|3:2,0:0:0:0:
68,269,30975,5,8,0:0:0:0:
68,269,31136,2,0,P|104:216|171:235,2,127.500004863739,4|2|2,3:2|3:2|3:2,0:0:0:0:
264,316,31938,1,2,0:0:0:0:
264,316,32098,2,0,P|256:280|249:245,1,63.7500024318696,2|0,3:2|0:0,0:0:0:0:
347,43,32419,5,8,3:1:0:0:
363,46,32499,1,8,3:1:0:0:
380,50,32579,1,8,3:1:0:0:
396,53,32659,1,8,3:1:0:0:
427,38,32740,1,8,3:1:0:0:
457,73,32820,1,8,3:1:0:0:
460,119,32900,1,8,3:1:0:0:
434,158,32980,1,8,3:1:0:0:
389,173,33061,6,0,P|353:165|318:158,1,46.7500014266968,8|8,0:0|0:0,0:0:0:0:
231,89,33221,2,8,P|253:93|276:98,1,46.7500014266968
353,306,33381,6,0,P|347:283|343:260,1,46.7500014266968,8|8,0:0|0:0,0:0:0:0:
241,207,33542,2,0,P|245:229|250:252,1,46.7500014266968,8|8,0:0|0:0,0:0:0:0:
148,323,33702,6,0,B|74:313|85:351|14:345,1,136,4|10,0:2|0:2,0:0:0:0:
174,194,34184,2,0,P|208:201|240:206,1,68,0|2,0:0|3:2,0:0:0:0:
353,306,34504,1,8,0:0:0:0:
353,306,34665,1,2,3:2:0:0:
353,168,34825,5,8,1:2:0:0:
353,168,34905,1,0,1:2:0:0:
353,168,34986,1,2,1:2:0:0:
260,295,35146,1,0,3:0:0:0:
441,261,35307,2,0,P|474:253|507:248,1,68,10|0,0:0|0:0,0:0:0:0:
269,123,35627,2,0,P|235:117|202:110,1,68,2|0,0:0|3:0,0:0:0:0:
30,252,35948,5,10,1:2:0:0:
46,248,36028,1,0,1:0:0:0:
63,244,36108,1,0,1:0:0:0:
79,241,36188,1,0,1:0:0:0:
96,239,36269,2,0,P|90:205|83:172,1,68,2|0,3:2|3:0,0:0:0:0:
213,31,36590,2,0,P|271:58|268:122,1,136,10|2,0:0|3:2,0:0:0:0:
31,88,37071,2,0,P|64:82|97:75,1,68,8|2,0:0|1:2,0:0:0:0:
225,239,37392,5,8,0:0:0:0:
311,255,37553,2,0,P|382:266|453:282,1,136,2|8,0:0|0:0,0:0:0:0:
270,379,38034,1,0,1:0:0:0:
270,379,38114,1,0,1:0:0:0:
270,379,38194,2,0,P|263:335|232:314,1,68,2|2,1:2|3:2,0:0:0:0:
179,125,38515,2,0,P|172:169|141:190,1,68,10|0,0:0|0:0,0:0:0:0:
6,292,38836,6,0,B|74:297|63:259|137:269,2,136,2|10|0,3:2|0:2|3:0,0:0:0:0:
280,164,39638,2,0,P|313:171|346:176,1,68,8|0,0:0|1:0,0:0:0:0:
444,279,39959,2,0,P|457:196|475:114,1,136,8|0,0:0|3:0,0:0:0:0:
272,72,40440,2,0,P|213:65|185:146,1,136,10|0,0:0|3:0,0:0:0:0:
178,124,40841,1,0,1:0:0:0:
178,124,40922,1,2,1:2:0:0:
334,242,41082,2,0,P|341:208|346:175,1,68,10|0,0:0|0:0,0:0:0:0:
102,61,41403,5,2,3:2:0:0:
6,292,41563,1,0,3:0:0:0:
225,239,41724,1,10,0:0:0:0:
103,199,41884,1,8,0:0:0:0:
203,366,42045,6,0,P|236:371|269:378,1,68,2|0,0:0|0:0,0:0:0:0:
334,242,42365,2,0,P|404:231|473:216,1,136,2|2,0:0|0:0,0:0:0:0:
467,218,42847,1,2,0:0:0:0:
512,305,43007,2,0,P|502:350|495:396,1,76.4999976654053,2|0,0:0|0:0,0:0:0:0:
497,380,43328,6,0,P|472:374|447:369,1,50.9999984436036,8|0,0:0|0:0,0:0:0:0:
279,146,43488,2,0,P|304:141|328:135,1,50.9999984436036,8|0,0:0|0:0,0:0:0:0:
127,309,43649,2,0,P|80:281|121:192,1,152.999995330811,8|0,0:0|0:0,0:0:0:0:
116,114,43970,6,0,B|205:101|183:157|278:145,1,170,4|8,0:2|0:2,0:0:0:0:
395,83,44451,1,2,3:2:0:0:
395,83,44531,1,0,3:0:0:0:
395,83,44611,2,0,P|385:38|378:-8,1,85,2|0,3:2|3:0,0:0:0:0:
225,239,44932,2,0,P|235:284|242:330,1,85,8|0,0:0|0:0,0:0:0:0:
459,375,45253,6,0,B|477:312|492:260|492:260|467:217,1,170,2|8,0:2|0:0,0:0:0:0:
349,325,45734,1,2,3:2:0:0:
349,325,45815,1,0,3:2:0:0:
349,325,45894,2,0,P|342:283|332:241,1,85,2|0,3:2|3:0,0:0:0:0:
479,50,46216,2,0,P|494:52|510:55,1,31.8750012159348,8|0,0:0|0:0,0:0:0:0:
225,239,46537,6,0,B|136:226|158:282|57:270,1,170,4|8,0:2|0:2,0:0:0:0:
115,114,47018,1,2,3:2:0:0:
115,114,47098,1,0,3:0:0:0:
115,114,47178,2,0,P|156:123|198:130,1,85,2|0,3:2|3:0,0:0:0:0:
349,325,47499,6,0,P|355:283|365:241,1,85,10|0,0:0|3:0,0:0:0:0:
312,80,47820,2,0,P|305:121|295:163,1,85,2|0,3:2|3:0,0:0:0:0:
426,368,48141,2,0,P|467:374|509:384,1,85,10|0,0:0|0:0,0:0:0:0:
458,131,48462,5,0,3:0:0:0:
415,130,48542,1,8,3:1:0:0:
376,147,48622,1,8,3:1:0:0:
343,159,48702,1,0,3:0:0:0:
295,162,48782,2,0,P|300:128|306:91,1,50.9999984436036,10|8,0:0|0:0,0:0:0:0:
493,7,48943,2,0,P|496:32|501:57,1,50.9999984436036,10|8,0:0|0:0,0:0:0:0:
349,325,49103,6,0,P|281:318|263:253,1,127.5,6|0,0:0|0:0,0:0:0:0:
262,257,49424,2,0,P|220:266|177:275,1,85,8|2,0:0|3:2,0:0:0:0:
30,380,49745,2,0,B|12:317|-3:265|-3:265|22:222,1,170,2|8,3:2|0:0,0:0:0:0:
220,93,50226,5,2,3:2:0:0:
220,93,50307,1,0,3:2:0:0:
220,93,50387,2,0,P|262:104|305:111,1,85,2|0,3:2|3:0,0:0:0:0:
123,197,50708,2,0,P|116:155|105:114,1,85,8|2,0:0|0:0,0:0:0:0:
272,215,51028,2,0,P|263:246|258:279,1,42.5,2|0,3:2|3:0,0:0:0:0:
120,378,51189,2,0,P|115:357|109:336,1,42.5,0|0,3:0|3:0,0:0:0:0:
33,56,51349,5,8,0:0:0:0:
33,56,51670,5,6,3:2:0:0:
272,215,51831,1,0,3:0:0:0:
22,221,51991,1,0,3:0:0:0:
220,93,52151,5,10,0:0:0:0:
120,378,52312,1,2,0:2:0:0:
33,56,52472,1,8,3:1:0:0:
355,263,52633,5,10,0:0:0:0:
123,197,52793,1,0,3:2:0:0:
123,197,52873,1,0,3:2:0:0:
123,197,52954,1,2,3:2:0:0:
286,19,53114,2,0,B|375:6|353:62|454:50,1,170,8|2,0:2|0:2,0:0:0:0:
372,180,53595,2,0,P|360:221|354:262,1,85,10|0,0:0|0:0,0:0:0:0:
456,339,53916,5,8,3:1:0:0:
478,320,53996,1,8,3:1:0:0:
491,293,54076,1,8,3:1:0:0:
491,264,54156,1,8,3:1:0:0:
478,237,54237,6,0,P|405:247|335:268,1,127.5,4|0,0:0|0:0,0:0:0:0:
273,228,54558,2,0,P|266:185|254:145,1,85,8|2,0:0|3:2,0:0:0:0:
249,133,54799,1,0,3:0:0:0:
241,119,54879,1,2,3:2:0:0:
123,197,55039,1,0,3:0:0:0:
0,6,55200,2,0,P|61:22|124:30,1,127.5,10|0,0:0|0:0,0:0:0:0:
141,114,55520,6,0,P|129:154|122:196,1,85,2|0,3:2|3:0,0:0:0:0:
348,115,55841,2,0,P|341:73|328:32,1,85,8|2,0:0|3:2,0:0:0:0:
328,32,56082,1,0,3:0:0:0:
328,32,56162,1,0,3:2:0:0:
182,273,56323,1,0,3:0:0:0:
456,151,56483,2,0,P|471:154|487:156,1,31.8750012159348,8|0,0:0|0:2,0:0:0:0:
510,340,56804,6,0,B|407:324|440:386|342:371,1,170,4|8,1:2|0:2,0:0:0:0:
298,298,57285,1,2,3:2:0:0:
298,298,57365,1,0,3:0:0:0:
298,298,57446,2,0,P|310:258|317:216,1,85,2|0,3:2|3:0,0:0:0:0:
475,68,57766,2,0,P|463:108|456:150,1,85,10|0,0:0|0:0,0:0:0:0:
244,158,58087,6,0,B|223:123|223:123|234:82|246:31,1,127.5,2|0,3:2|1:0,0:0:0:0:
247,28,58408,2,0,P|287:40|329:47,1,85,10|0,0:0|0:0,0:0:0:0:
182,273,58729,1,2,3:2:0:0:
182,273,58809,2,0,P|143:239|146:191,1,85,8|0,0:1|3:0,0:0:0:0:
90,141,59050,5,2,3:2:0:0:
44,152,59130,1,2,3:2:0:0:
11,185,59210,1,2,3:2:0:0:
2,230,59290,1,2,3:2:0:0:
20,308,59371,6,0,B|106:320|90:262|183:273,1,170,6|8,3:2|0:2,0:0:0:0:
97,55,59852,1,2,3:2:0:0:
97,55,59932,1,0,3:2:0:0:
97,55,60012,2,0,P|55:48|14:35,1,85,2|0,3:2|3:0,0:0:0:0:
244,158,60333,2,0,P|251:116|264:75,1,85,10|0,0:0|0:0,0:0:0:0:
403,0,60654,6,0,P|417:40|427:132,1,127.5,2|0,0:0|0:0,0:0:0:0:
427,135,60975,2,0,P|469:142|510:155,1,85,10|0,0:0|0:0,0:0:0:0:
264,253,61296,2,0,P|223:265|181:272,1,85,2|0,3:2|0:0,0:0:0:0:
440,384,61617,2,0,P|433:342|420:301,1,85,8|2,0:0|0:0,0:0:0:0:
244,158,61938,5,14,1:2:0:0:
214,157,62018,1,0,1:2:0:0:
184,153,62098,1,0,1:2:0:0:
155,146,62178,1,0,1:2:0:0:
127,136,62258,5,0,3:2:0:0:
75,284,62419,2,0,P|62:243|55:201,1,85,10|2,0:0|0:0,0:0:0:0:
300,19,62740,5,0,3:0:0:0:
300,19,62900,2,0,P|313:59|320:101,1,85,8|2,0:0|0:0,0:0:0:0:
151,373,63221,1,2,3:2:0:0:
358,291,63381,1,8,0:0:0:0:
184,153,63542,1,2,3:2:0:0:
184,153,63702,1,0,3:0:0:0:
222,266,63863,6,0,B|308:255|277:203|370:190,1,170,8|8,1:2|0:2,0:0:0:0:
441,224,64264,1,8,0:0:0:0:
479,205,64344,1,8,0:0:0:0:
493,165,64424,1,8,0:0:0:0:
484,123,64504,6,0,P|420:117|359:98,1,127.5,6|0,0:0|0:0,0:0:0:0:
348,90,64825,2,0,P|361:50|368:8,1,85,10|0,0:0|3:0,0:0:0:0:
495,291,65146,2,0,P|481:331|474:373,1,85,2|0,3:2|3:0,0:0:0:0:
222,266,65467,2,0,B|155:250|181:220|110:208,1,127.5,10|0,0:2|0:2,0:0:0:0:
97,206,65788,6,0,P|102:160|133:136,1,85,2|0,3:2|3:0,0:0:0:0:
0,37,66109,2,0,P|38:12|77:20,1,85,10|0,0:0|0:0,0:0:0:0:
101,302,66430,2,0,P|63:327|24:319,1,85,2|0,3:2|0:0,0:0:0:0:
169,135,66750,2,0,P|233:126|294:110,1,127.5,10|0,0:0|0:0,0:0:0:0:
304,106,67071,5,4,0:0:0:0:
503,20,67232,1,0,3:0:0:0:
410,103,67392,2,0,P|398:53|391:2,1,85,10|0,0:0|0:0,0:0:0:0:
152,51,67713,2,0,P|163:100|170:151,1,85,2|0,3:2|0:0,0:0:0:0:
288,299,68034,2,0,P|299:249|306:198,1,85,10|0,0:0|0:0,0:0:0:0:
202,232,68355,6,0,B|110:221|126:279|40:267,1,170,2|10,0:2|0:2,0:0:0:0:
118,126,68836,1,0,3:0:0:0:
118,126,68916,1,0,3:0:0:0:
118,126,68996,2,0,P|142:131|168:134,1,50.9999984436036,2|0,3:2|0:0,0:0:0:0:
345,255,69157,2,0,P|321:250|295:247,1,50.9999984436036,2|0,3:2|3:0,0:0:0:0:
117,344,69317,6,0,P|123:312|127:280,1,59.4999981842042,10|8,3:2|3:2,0:0:0:0:
279,101,69478,2,0,P|273:133|269:165,1,59.4999981842042,10|8,3:2|3:2,0:0:0:0:
500,341,69638,6,0,B|519:277|534:225|534:225|510:181,1,170,6|10,1:2|0:0,0:0:0:0:
510,181,70119,1,0,0:0:0:0:
345,255,70280,2,0,P|394:244|445:237,1,85,2|0,3:2|3:0,0:0:0:0:
512,91,70601,2,0,P|470:84|428:74,1,85,10|0,0:0|0:0,0:0:0:0:
196,0,70922,6,0,P|178:74|166:150,1,127.5,2|0,0:0|0:0,0:0:0:0:
168,133,71242,2,0,P|126:123|84:116,1,85,10|0,0:0|0:0,0:0:0:0:
215,301,71563,2,0,P|224:259|231:217,1,85,2|2,3:2|3:2,0:0:0:0:
231,209,71804,1,2,3:2:0:0:
230,201,71884,1,10,3:2:0:0:
88,12,72045,1,2,0:0:0:0:
263,110,72205,5,10,3:2:0:0:
302,135,72285,1,0,0:0:0:0:
348,136,72365,1,2,3:2:0:0:
390,115,72446,1,0,0:0:0:0:
411,73,72526,2,0,P|402:36|396:-1,1,42.5,8|0,3:2|0:0,0:0:0:0:
491,136,72686,5,8,3:2:0:0:
481,165,72766,1,0,0:0:0:0:
473,193,72846,1,2,3:2:0:0:
467,223,72926,1,0,0:0:0:0:
462,252,73007,2,0,P|453:289|447:327,1,42.5,2|0,3:2|0:0,0:0:0:0:
347,335,73168,5,10,3:2:0:0:
341,305,73248,1,2,0:0:0:0:
336,276,73327,2,0,P|327:239|321:201,1,42.5,2|0,3:2|0:0,0:0:0:0:
188,32,73488,5,2,3:2:0:0:
182,62,73568,1,2,0:0:0:0:
177,91,73649,2,0,P|168:128|162:166,1,42.5,10|0,3:2|0:0,0:0:0:0:
83,228,73809,5,2,3:2:0:0:
61,223,73889,1,2,0:0:0:0:
41,220,73970,2,0,P|14:213|-12:209,1,42.5,2|0,3:2|0:0,0:0:0:0:
68,350,74130,5,10,3:2:0:0:
84,358,74210,1,0,3:0:0:0:
111,361,74290,1,0,3:0:0:0:
155,347,74371,1,0,3:0:0:0:
186,312,74451,1,10,0:0:0:0:
200,260,74531,1,10,0:0:0:0:
246,231,74611,1,10,0:0:0:0:
299,236,74692,1,10,0:0:0:0:
336,276,74772,6,0,P|351:191|372:107,1,170,6|10,0:0|0:0,0:0:0:0:
269,133,75253,2,0,P|211:127|189:29,1,170,2|2,3:2|0:0,0:0:0:0:
445,0,75734,2,0,P|466:58|444:101,1,85,8|2,0:0|3:2,0:0:0:0:
336,276,76055,6,0,P|351:336|362:397,1,85,2|0,3:2|3:0,0:0:0:0:
442,170,76376,1,10,0:0:0:0:
442,170,76536,1,0,3:0:0:0:
269,133,76697,2,0,B|177:122|193:180|107:168,1,170,2|10,3:2|0:2,0:0:0:0:
32,19,77178,5,0,1:0:0:0:
32,19,77258,1,0,1:0:0:0:
31,19,77339,2,0,P|72:29|113:38,1,85,6|2,1:2|3:2,0:0:0:0:
269,133,77659,1,10,0:0:0:0:
107,168,77820,2,0,P|83:257|64:347,1,170,2|2,0:0|0:0,0:0:0:0:
363,123,78301,2,0,P|348:72|305:48,1,85,10|0,0:0|3:0,0:0:0:0:
251,249,78622,6,0,P|302:234|326:191,1,85,0|0,3:0|3:0,0:0:0:0:
434,53,78943,2,0,P|485:68|509:111,1,85,10|0,0:0|0:0,0:0:0:0:
224,50,79264,6,0,P|231:13|258:-13,1,50.9999984436036,2|8,3:2|0:1,0:0:0:0:
414,205,79424,2,0,P|412:230|400:252,1,50.9999984436036,2|0,3:2|3:0,0:0:0:0:
265,305,79585,6,0,P|252:277|251:248,1,59.4999981842042,2|0,3:2|3:2,0:0:0:0:
349,66,79745,2,0,P|361:93|363:122,1,59.4999981842042,2|0,3:2|3:2,0:0:0:0:
269,133,79906,6,0,B|191:147|191:147|180:152|180:152|102:167,1,170,6|10,0:0|0:0,0:0:0:0:
265,305,80387,2,0,P|306:315|347:324,1,85,2|0,0:0|3:0,0:0:0:0:
494,269,80708,2,0,B|517:225|517:225|502:173|483:109,1,170,2|0,0:2|3:0,0:0:0:0:
408,97,81109,1,0,3:0:0:0:
333,82,81189,6,0,P|343:40|352:0,1,85,8|0,3:0|3:0,0:0:0:0:
512,186,81510,2,0,P|501:227|492:268,1,85,10|0,0:0|0:0,0:0:0:0:
347,324,81831,2,0,P|297:319|261:214,1,170,2|10,3:2|0:0,0:0:0:0:
434,23,82312,1,0,0:0:0:0:
193,12,82472,6,0,P|158:36|143:75,1,85,10|0,0:0|3:0,0:0:0:0:
258,218,82793,1,2,3:2:0:0:
0,209,82954,2,0,B|84:221|70:163|162:174,1,170,10|2,0:2|3:2,0:0:0:0:
221,335,83435,2,0,P|186:310|171:271,1,85,10|0,0:0|0:0,0:0:0:0:
333,82,83756,5,2,0:0:0:0:
488,296,83916,1,8,0:0:0:0:
244,128,84077,1,2,3:2:0:0:
512,0,84237,1,2,3:2:0:0:
349,269,84397,1,8,0:0:0:0:
252,33,84558,1,2,1:2:0:0:
161,173,84718,1,10,0:0:0:0:
84,114,84879,5,2,3:2:0:0:
84,114,84959,1,2,3:2:0:0:
84,114,85039,1,2,3:2:0:0:
320,181,85200,1,8,0:0:0:0:
101,257,85360,1,2,3:2:0:0:
333,82,85520,1,2,3:2:0:0:
233,328,85681,5,8,0:0:0:0:
167,77,85841,1,2,3:2:0:0:
416,146,86002,1,14,0:0:0:0:
159,175,86162,6,0,B|50:159|-26:-34|160:-99|268:-84|412:38|261:153|294:277|112:131|32:295|126:409|197:445|323:409|313:335|303:285|303:285|298:280|298:280|303:274|303:274|297:269|297:269|288:217|316:198|361:197|379:233|372:254,1,1088,12|0,0:0|0:0,0:0:0:0:
