osu file format v14

[General]
AudioFilename: audio.mp3
AudioLeadIn: 0
PreviewTime: 42273
Countdown: 0
SampleSet: Soft
StackLeniency: 0.3
Mode: 0
LetterboxInBreaks: 0
WidescreenStoryboard: 1

[Editor]
DistanceSpacing: 1
BeatDivisor: 4
GridSize: 4
TimelineZoom: 1.7

[Metadata]
Title:On My MiND (TV Size)
TitleUnicode:On My MiND (TV Size)
Artist:Mrs. GREEN APPLE
ArtistUnicode:Mrs. GREEN APPLE
Creator:Aro
Version:WildCry's Insane
Source:
Tags:
BeatmapID:1413042
BeatmapSetID:665820

[Difficulty]
HPDrainRate:6
CircleSize:4
OverallDifficulty:7
ApproachRate:9
SliderMultiplier:1.6
SliderTickRate:1

[Events]
//Background and Video events
0,0,"image.png",0,0
//Break Periods
//Storyboard Layer 0 (Background)
//Storyboard Layer 1 (Fail)
//Storyboard Layer 2 (Pass)
//Storyboard Layer 3 (Foreground)
//Storyboard Sound Samples

[TimingPoints]
562,320.855614973262,4,2,1,50,1,0
562,-125,4,2,1,50,0,0
2807,-166.666666666667,4,2,1,50,0,0
3128,-111.111111111111,4,2,1,50,0,0
12754,-62.5,4,2,1,50,0,0
13075,-142.857142857143,4,2,1,50,0,0
13396,-100,4,2,1,50,0,0
23663,-125,4,2,1,50,0,0
33930,-111.111111111111,4,2,1,50,0,0
38743,-142.857142857143,4,2,1,50,0,0
39064,-111.111111111111,4,2,1,50,0,0
41952,-200,4,2,1,50,0,0
43556,-62.5,4,2,1,50,0,0
43877,-200,4,2,1,50,0,0
44198,-90.9090909090909,4,2,1,50,0,0
44679,-125,4,2,1,50,0,0
45481,-90.9090909090909,4,2,1,50,0,0
45963,-125,4,2,1,50,0,0
46444,-200,4,2,1,50,0,0
46765,-90.9090909090909,4,2,1,50,0,0
47246,-125,4,2,1,50,0,0
47727,-90.9090909090909,4,2,1,50,0,0
49813,-125,4,2,1,50,0,0
50615,-90.9090909090909,4,2,1,50,0,0
51096,-125,4,2,1,50,0,0
51578,-200,4,2,1,50,0,0
51898,-83.3333333333334,4,2,1,50,0,0
52380,-71.4285714285714,4,2,1,50,0,0
52861,-83.3333333333334,4,2,1,50,0,0
53342,-71.4285714285714,4,2,1,50,0,0
53824,-200,4,2,1,50,0,0
54465,-90.9090909090909,4,2,1,50,0,0
54947,-125,4,2,1,50,0,0
55749,-90.9090909090909,4,2,1,50,0,0
56230,-125,4,2,1,50,0,0
56711,-200,4,2,1,50,0,0
57032,-90.9090909090909,4,2,1,50,0,0
57513,-125,4,2,1,50,0,0
57995,-90.9090909090909,4,2,1,50,0,0
60080,-125,4,2,1,50,0,0
60561,-90.9090909090909,4,2,1,50,0,0
62487,-142.857142857143,4,2,1,50,0,0
64091,-100,4,2,1,50,0,0
75000,-90.9090909090909,4,2,1,50,0,0
82380,-200,4,2,1,50,0,0
82701,-125,4,2,1,50,0,0
84626,-90.9090909090909,4,2,1,50,0,0
86390,-166.666666666667,4,2,1,50,0,0

[HitObjects]
448,144,562,6,0,L|448:104,3,32
352,160,882,2,0,L|332:124,3,32
312,248,1203,2,0,L|276:232,3,32
344,336,1524,2,0,L|300:344,3,32
400,256,1845,6,0,L|444:248,3,32
324,171,2166,2,0,L|332:136,3,32
213,204,2487,2,0,L|200:164,1,32
208,144,2807,6,0,P|224:112|228:88,1,47.9999985351563
136,236,3128,6,0,P|108:216|60:208,1,71.9999978027344
0,288,3449,1,0,0:0:0:0:
188,340,3610,1,0,0:0:0:0:
184,336,3690,1,0,0:0:0:0:
180,332,3770,2,0,P|216:312|252:308,1,71.9999978027344
276,180,4091,2,0,P|312:188|340:212,1,71.9999978027344
352,232,4332,1,0,0:0:0:0:
348,256,4412,6,0,B|388:240|388:240|444:248,1,71.9999978027344
508,276,4733,2,0,P|468:244|456:176,1,107.999996704102
424,116,5053,2,0,L|436:76,2,35.9999989013672
280,48,5374,2,0,L|292:160,1,107.999996704102
296,160,5695,6,0,P|264:188|228:192,1,71.9999978027344
136,104,6016,1,0,0:0:0:0:
168,264,6176,1,0,0:0:0:0:
172,268,6257,1,0,0:0:0:0:
176,272,6337,2,0,L|160:200,1,71.9999978027344
24,132,6658,2,0,L|32:52,1,71.9999978027344
36,32,6898,1,0,0:0:0:0:
48,12,6979,6,0,P|80:12|120:36,1,71.9999978027344
24,144,7299,2,0,P|68:160|136:128,1,107.999996704102
184,64,7620,2,0,L|176:28,2,35.9999989013672
264,100,7941,5,0,0:0:0:0:
244,120,8021,1,0,0:0:0:0:
236,152,8102,1,0,0:0:0:0:
248,188,8182,1,0,0:0:0:0:
264,212,8262,6,0,B|248:252|248:252|252:284,1,71.9999978027344
344,360,8583,2,0,L|416:348,1,71.9999978027344
256,300,8904,2,0,L|172:312,1,71.9999978027344
72,356,9225,2,0,P|44:324|36:288,1,71.9999978027344
80,128,9545,5,0,0:0:0:0:
32,248,9706,1,0,0:0:0:0:
0,76,9866,1,0,0:0:0:0:
152,232,10027,5,0,0:0:0:0:
152,232,10187,2,0,P|192:232|224:212,1,71.9999978027344
340,88,10508,1,0,0:0:0:0:
452,184,10668,1,0,0:0:0:0:
372,60,10829,6,0,P|324:40|304:112,1,143.999995605469
304,216,11310,2,0,P|328:188|364:176,1,71.9999978027344
480,256,11631,5,0,0:0:0:0:
512,136,11791,1,0,0:0:0:0:
340,296,12754,6,0,P|353:324|379:343,1,64
468,297,12914,2,0,P|470:265|457:236,1,64
388,156,13075,2,0,P|348:160|316:188,1,83.9999974365235
304,216,13396,6,0,P|268:196|228:192,1,80
56,280,13717,2,0,P|96:276|132:252,1,80
136,216,13957,1,0,0:0:0:0:
144,224,14037,2,0,L|128:144,1,80
68,24,14358,2,0,P|20:20|20:80,1,120
36,88,14679,6,0,P|72:68|116:64,1,80
236,24,15000,2,0,P|276:24|320:44,1,80
496,80,15321,2,0,P|456:80|412:96,1,80
256,192,15642,2,0,P|316:192|348:144,1,120
352,132,15963,6,0,L|360:228,1,80
492,260,16283,2,0,L|476:344,1,80
456,344,16524,1,0,0:0:0:0:
460,352,16604,2,0,P|420:360|380:348,1,80
256,192,16925,2,0,P|308:212|336:280,1,120
320,300,17246,6,0,P|284:280|244:280,1,80
88,360,17567,2,0,P|52:376|4:376,1,80
40,224,17888,1,0,0:0:0:0:
200,304,18048,1,0,0:0:0:0:
32,300,18209,1,0,0:0:0:0:
168,192,18369,5,0,0:0:0:0:
172,196,18449,1,0,0:0:0:0:
176,200,18529,2,0,P|136:180|100:176,1,80
28,8,18850,2,0,L|48:88,1,80
88,96,19091,1,0,0:0:0:0:
80,92,19171,2,0,P|120:72|168:68,1,80
292,8,19492,6,0,P|336:20|364:48,1,80
260,192,19813,2,0,P|220:176|196:144,1,80
284,96,20134,1,0,0:0:0:0:
348,248,20294,1,0,0:0:0:0:
380,72,20455,1,0,0:0:0:0:
496,180,20615,5,0,0:0:0:0:
500,184,20695,1,0,0:0:0:0:
504,188,20775,2,0,B|456:180|456:180|424:196,1,80
360,292,21096,6,0,L|376:352,4,40
328,164,21578,2,0,P|276:132|216:148,1,120
196,164,21898,2,0,L|180:100,4,40
132,328,22380,6,0,B|156:300|156:300|144:248,1,80
44,188,22701,2,0,P|8:148|32:80,1,120
112,28,23021,2,0,L|196:40,1,80
296,108,23342,2,0,L|344:96,3,40
392,32,23663,6,0,P|416:56|424:96,1,64
372,176,23984,2,0,P|356:204|356:240,1,64
416,320,24305,1,0,0:0:0:0:
416,320,24626,2,0,B|460:312|460:312|472:296,1,64
264,348,24947,6,0,L|332:336,1,64
354,235,25267,2,0,P|326:215|290:211,1,64
200,240,25588,1,0,0:0:0:0:
328,344,25749,6,0,L|264:355,1,64
168,336,26070,2,0,L|104:347,1,64
12,368,26390,5,0,0:0:0:0:
12,368,26551,2,0,P|32:344|40:308,1,64
8,216,26872,2,0,L|12:148,1,64
96,48,27193,2,0,B|144:56|144:56|168:108,1,96
176,120,27513,2,0,P|200:104|240:96,1,64
348,120,27834,5,0,0:0:0:0:
252,12,27995,1,0,0:0:0:0:
236,196,28155,5,0,0:0:0:0:
240,192,28316,1,0,0:0:0:0:
176,120,28476,1,0,0:0:0:0:
80,112,28636,1,0,0:0:0:0:
4,180,28797,6,0,P|28:204|64:216,1,64
148,160,29118,2,0,P|176:144|208:140,1,64
304,180,29439,1,0,0:0:0:0:
304,180,29759,2,0,L|296:244,1,64
388,96,30080,6,0,B|412:120|412:120|424:152,1,64
476,240,30401,2,0,L|460:308,1,64
372,352,30722,1,0,0:0:0:0:
304,180,30882,6,0,B|336:196|336:196|356:224,1,64
408,304,31203,2,0,L|400:352,1,32
396,368,31364,6,0,P|428:380|460:376,1,64
304,312,31684,2,0,P|272:300|236:300,1,64
88,352,32005,2,0,P|120:348|152:328,1,64
152,184,32326,2,0,P|152:216|172:252,1,64
264,376,32647,6,0,L|220:368,3,32
184,292,32968,2,0,L|148:304,3,32
68,336,33289,5,0,0:0:0:0:
60,328,33369,1,0,0:0:0:0:
52,316,33449,1,0,0:0:0:0:
48,304,33529,1,0,0:0:0:0:
48,292,33610,1,0,0:0:0:0:
52,276,33690,1,0,0:0:0:0:
60,264,33770,1,0,0:0:0:0:
72,256,33850,1,0,0:0:0:0:
88,252,33930,6,0,B|72:216|72:216|76:176,1,71.9999978027344
208,284,34251,1,0,0:0:0:0:
208,284,34572,1,0,0:0:0:0:
88,292,34733,2,0,B|40:300|40:300|24:320,1,71.9999978027344
244,280,35053,6,0,P|252:208|212:148,1,143.999995605469
8,104,35535,2,0,B|48:124|48:124|156:100,1,143.999995605469
208,32,36016,1,0,0:0:0:0:
292,116,36176,2,0,P|332:136|368:136,1,71.9999978027344
440,32,36497,6,0,P|476:16|516:16,1,71.9999978027344
376,128,36818,1,0,0:0:0:0:
376,128,37139,1,0,0:0:0:0:
304,0,37299,2,0,B|336:16|336:16|352:60,1,71.9999978027344
456,240,37620,6,0,B|424:224|424:224|408:180|408:180|412:160|412:160|400:116,1,143.999995605469
412,108,38021,1,0,0:0:0:0:
412,108,38102,1,0,0:0:0:0:
500,172,38262,1,0,0:0:0:0:
320,220,38422,2,0,P|284:204|256:152,1,71.9999978027344
196,64,38743,6,0,L|200:8,1,55.9999982910157
176,184,39064,2,0,P|144:200|96:196,1,71.9999978027344
12,92,39385,1,0,0:0:0:0:
12,92,39706,1,0,0:0:0:0:
128,124,39866,2,0,P|100:100|60:96,1,71.9999978027344
36,228,40187,6,0,L|64:372,1,143.999995605469
63,370,40668,2,0,P|96:344|128:336,1,71.9999978027344
236,256,40989,1,0,0:0:0:0:
232,248,41070,1,0,0:0:0:0:
228,240,41150,1,0,0:0:0:0:
224,232,41230,1,0,0:0:0:0:
220,224,41310,2,0,P|272:212|320:248,1,107.999996704102
360,296,41631,6,0,P|396:308|432:300,1,71.9999978027344
496,224,41952,2,0,L|488:192,1,20
472,124,42112,5,0,0:0:0:0:
464,92,43556,6,0,P|432:72|400:68,1,64
336,128,43717,2,0,P|309:145|278:152,1,64
192,108,43877,6,0,P|164:96|132:96,1,60
64,112,44198,6,0,P|140:92|144:4,1,176.000005371094
12,176,44679,1,0,0:0:0:0:
8,184,44759,1,0,0:0:0:0:
8,192,44840,2,0,P|36:208|68:216,1,64
252,168,45160,6,0,P|216:176|192:192,1,64
156,372,45481,2,0,L|128:188,1,176.000005371094
260,184,45963,1,0,0:0:0:0:
256,176,46043,1,0,0:0:0:0:
252,168,46123,2,0,L|244:240,1,64
344,336,46444,2,0,L|332:280,1,40
348,352,46765,6,0,P|432:340|444:248,1,176.000005371094
496,156,47246,1,0,0:0:0:0:
496,156,47326,1,0,0:0:0:0:
496,156,47406,2,0,P|472:128|440:116,1,64
252,168,47727,2,0,P|296:160|328:128,1,88.000002685547
304,0,48048,5,0,0:0:0:0:
432,192,48209,1,0,0:0:0:0:
496,32,48369,2,0,B|448:12|448:12|404:20,1,88.000002685547
164,68,48690,2,0,L|251:78,1,88.000002685547
60,152,49011,5,0,0:0:0:0:
62,183,49091,1,0,0:0:0:0:
79,211,49171,1,0,0:0:0:0:
110,231,49251,1,0,0:0:0:0:
144,242,49332,6,0,P|64:260|42:355,1,176.000005371094
236,224,49813,1,0,0:0:0:0:
236,224,49893,1,0,0:0:0:0:
236,224,49973,2,0,P|224:188|201:165,1,64
296,300,50294,2,0,P|320:276|332:244,1,64
156,352,50615,6,0,L|336:364,1,176.000005371094
472,288,51096,1,0,0:0:0:0:
476,292,51176,1,0,0:0:0:0:
480,296,51257,2,0,L|416:300,1,64
304,372,51578,2,0,L|348:376,1,40
332,192,51898,6,0,B|320:116|376:68|376:68|352:92|356:144,1,191.999994140625
440,212,52380,6,0,P|528:230|490:148,1,223.999993164063
356,348,52861,6,0,B|280:352|240:292|240:292|216:316|164:308,1,191.999994140625
248,60,53342,2,0,B|148:64|152:160|152:160|192:184|184:244,1,223.999993164063
20,384,53824,2,0,L|8:344,1,40
100,228,54144,2,0,L|116:276,1,40
192,328,54385,1,0,0:0:0:0:
179,317,54465,6,0,P|227:253|327:261,1,176.000005371094
454,206,54947,1,0,0:0:0:0:
454,206,55027,1,0,0:0:0:0:
454,206,55107,2,0,P|445:231|420:256,1,64
356,100,55428,2,0,L|364:164,1,64
264,340,55749,6,0,B|378:305|378:305|438:321,1,176.000005371094
288,192,56230,1,0,0:0:0:0:
288,192,56310,1,0,0:0:0:0:
288,192,56390,2,0,P|255:208|234:232,1,64
104,328,56711,2,0,L|144:336,1,40
258,335,57032,6,0,L|82:303,1,176.000005371094
32,168,57513,1,0,0:0:0:0:
32,160,57594,1,0,0:0:0:0:
32,152,57674,2,0,L|52:216,1,64
212,104,57995,2,0,B|232:56|232:56|224:16,1,88.000002685547
76,80,58316,5,0,0:0:0:0:
172,172,58476,1,0,0:0:0:0:
40,16,58636,2,0,P|8:48|4:96,1,88.000002685547
232,232,58957,2,0,L|280:220,3,44.0000013427735
280,96,59278,5,0,0:0:0:0:
312,84,59358,1,0,0:0:0:0:
348,92,59439,1,0,0:0:0:0:
376,116,59519,1,0,0:0:0:0:
388,152,59599,6,0,P|424:80|508:92,1,176.000005371094
352,224,60080,1,0,0:0:0:0:
352,224,60160,1,0,0:0:0:0:
352,224,60241,2,0,P|324:200|308:164,1,64
264,24,60561,2,0,B|232:40|232:40|176:32,1,88.000002685547
16,120,60882,6,0,B|48:104|48:104|112:112,1,88.000002685547
196,128,61203,1,0,0:0:0:0:
48,24,61364,1,0,0:0:0:0:
176,112,61524,5,0,0:0:0:0:
40,128,61684,1,0,0:0:0:0:
192,24,61845,5,0,0:0:0:0:
60,112,62005,1,0,0:0:0:0:
280,44,62166,6,0,P|324:68|348:104,1,88.000002685547
444,232,62487,1,0,0:0:0:0:
444,232,62647,2,0,L|452:172,1,55.9999982910157
296,320,62968,1,0,0:0:0:0:
296,320,63128,2,0,L|284:264,1,55.9999982910157
312,144,63449,5,0,0:0:0:0:
388,300,63610,1,0,0:0:0:0:
208,224,63770,2,0,P|176:216|144:216,1,55.9999982910157
40,104,64091,6,0,P|72:124|100:168,1,80
40,312,64412,2,0,P|48:276|96:228,1,80
164,212,64652,1,0,0:0:0:0:
160,216,64733,6,0,L|248:228,1,80
356,272,65053,2,0,P|396:256|424:224,1,80
432,204,65294,1,0,0:0:0:0:
440,204,65374,2,0,L|428:120,1,80
280,16,65695,2,0,L|264:152,1,120
260,156,66016,6,0,P|224:132|188:128,1,80
104,32,66337,2,0,P|64:40|28:68,1,80
4,176,66658,2,0,B|20:224|20:224|56:252,1,80
192,248,66979,2,0,L|184:368,1,120
184,367,67299,6,0,P|228:344|264:340,1,80
344,236,67620,2,0,P|384:248|416:276,1,80
436,288,67861,1,0,0:0:0:0:
440,296,67941,2,0,L|448:212,1,80
452,4,68262,2,0,L|440:132,1,120
432,140,68583,6,0,P|400:112|360:104,1,80
192,176,68904,2,0,P|232:168|264:140,1,80
148,32,69225,1,0,0:0:0:0:
304,0,69385,1,0,0:0:0:0:
196,100,69545,1,0,0:0:0:0:
344,104,69706,5,0,0:0:0:0:
344,104,69786,1,0,0:0:0:0:
344,104,69866,2,0,P|368:144|368:188,1,80
284,340,70187,2,0,P|296:300|332:268,1,80
352,260,70428,1,0,0:0:0:0:
344,264,70508,2,0,L|428:280,1,80
224,236,70829,6,0,P|196:208|184:164,1,80
344,104,71150,2,0,P|368:140|368:184,1,80
272,160,71471,1,0,0:0:0:0:
272,12,71631,1,0,0:0:0:0:
124,120,71791,1,0,0:0:0:0:
192,24,71952,1,0,0:0:0:0:
192,24,72032,1,0,0:0:0:0:
192,24,72112,2,0,B|144:12|144:12|108:20,1,80
28,136,72433,6,0,L|40:188,4,40
80,324,72914,2,0,P|120:276|180:264,1,120
204,276,73235,2,0,L|220:332,4,40
340,232,73717,6,0,B|308:216|308:216|292:168,1,80
240,48,74037,2,0,P|300:28|352:60,1,120
432,156,74358,2,0,L|516:140,1,80
510,141,74679,1,0,0:0:0:0:
470,136,74759,1,0,0:0:0:0:
431,132,74839,1,0,0:0:0:0:
391,128,74919,1,0,0:0:0:0:
348,124,75000,6,0,L|340:216,1,88.000002685547
332,348,75321,1,0,0:0:0:0:
172,336,75481,1,0,0:0:0:0:
168,332,75561,1,0,0:0:0:0:
164,328,75642,2,0,P|200:304|256:296,1,88.000002685547
304,164,75963,2,0,P|344:164|392:192,1,88.000002685547
416,196,76203,1,0,0:0:0:0:
412,204,76283,6,0,B|388:128|388:128|404:76,1,132.00000402832
352,4,76604,2,0,P|288:-8|232:28,1,132.00000402832
192,136,76925,2,0,L|212:180,2,44.0000013427735
136,32,77246,2,0,P|88:8|104:64,1,132.00000402832
224,188,77567,6,0,P|208:140|172:104,1,88.000002685547
0,68,77888,1,0,0:0:0:0:
48,220,78048,1,0,0:0:0:0:
48,220,78128,1,0,0:0:0:0:
48,220,78209,2,0,P|88:196|136:192,1,88.000002685547
332,312,78529,2,0,P|292:308|252:280,1,88.000002685547
224,272,78770,1,0,0:0:0:0:
232,268,78850,6,0,L|216:360,1,88.000002685547
156,192,79171,2,0,B|136:104|136:104|152:60,1,132.00000402832
220,16,79492,2,0,P|244:20|268:36,1,44.0000013427735
332,84,79652,2,0,P|360:76|384:56,1,44.0000013427735
448,24,79813,2,0,L|496:32,3,44.0000013427735
408,136,80134,6,0,L|496:156,1,88.000002685547
424,260,80455,2,0,B|336:272|336:272|300:304,1,132.00000402832
280,320,80775,2,0,P|244:304|216:260,1,88.000002685547
128,144,81096,2,0,P|130:104|162:63,1,88.000002685547
176,40,81337,1,0,0:0:0:0:
184,44,81417,6,0,P|140:32|96:32,1,88.000002685547
256,180,81738,2,0,P|296:180|348:164,1,88.000002685547
492,92,82059,1,0,0:0:0:0:
368,48,82219,1,0,0:0:0:0:
456,236,82380,6,0,P|464:260|468:292,1,40
412,120,82701,5,0,0:0:0:0:
368,268,82861,1,0,0:0:0:0:
304,200,83021,1,0,0:0:0:0:
168,268,83182,6,0,L|232:256,1,64
296,108,83503,1,0,0:0:0:0:
512,152,83663,2,0,L|440:164,1,64
288,208,83984,5,0,0:0:0:0:
380,56,84144,1,0,0:0:0:0:
448,244,84305,2,0,P|416:240|384:212,1,64
328,64,84626,6,0,P|276:20|196:32,1,132.00000402832
144,108,84947,2,0,P|112:132|60:136,1,88.000002685547
48,120,85187,5,0,0:0:0:0:
52,128,85267,1,0,0:0:0:0:
188,24,85428,1,0,0:0:0:0:
252,152,85588,1,0,0:0:0:0:
436,28,85749,1,0,0:0:0:0:
408,124,85909,1,0,0:0:0:0:
96,236,86230,5,0,0:0:0:0:
96,236,86390,6,0,B|156:264|184:324|184:324|192:260|208:204|236:160|272:123|319:88|360:67|395:64|395:64|432:60|464:72|492:107|484:152|460:184|428:192|396:192|368:172,1,719.999978027344
