osu file format v14

[General]
AudioFilename: audio.mp3
AudioLeadIn: 0
PreviewTime: 42273
Countdown: 0
SampleSet: None
StackLeniency: 0.2
Mode: 0
LetterboxInBreaks: 0
WidescreenStoryboard: 1

[Editor]
Bookmarks: 2086,13957,14599,15241,15882,16524,16845,16925,17166,19091,19733,20374,23182,24866,28797,33930,39706,42273,47727,47968,48930,57995,60882,62166,62406,63048,65294,65936,66898,67219,67861,68182,68503,69144,69465,70428,71070,71150,71711,71872,72433,79733,79893,82701,86390
DistanceSpacing: 0.5
BeatDivisor: 4
GridSize: 4
TimelineZoom: 1.7

[Metadata]
Title:On My MiND (TV Size)
TitleUnicode:On My MiND (TV Size)
Artist:Mrs. GREEN APPLE
ArtistUnicode:Mrs. GREEN APPLE
Creator:Aro
Version:Maru
Source:Nana Maru San Batsu
Tags:Koshiyama Shiki opening quiz bowl bokuha bokuwa buzzer mondai 7O3X Fastest Finger First ナナマル サンバツ
BeatmapID:1489598
BeatmapSetID:665820

[Difficulty]
HPDrainRate:6.5
CircleSize:4
OverallDifficulty:8.5
ApproachRate:9.3
SliderMultiplier:1.9
SliderTickRate:1

[Events]
//Background and Video events
0,0,"image.png",0,0
//Break Periods
//Storyboard Layer 0 (Background)
//Storyboard Layer 1 (Fail)
//Storyboard Layer 2 (Pass)
//Storyboard Layer 3 (Foreground)
//Storyboard Sound Samples

[TimingPoints]
562,320.855614973262,4,3,1,50,1,0
2754,-200,4,3,1,65,0,0
2968,-200,4,3,1,5,0,0
3128,-100,4,3,1,65,0,0
5695,-83.3333333333333,4,3,1,65,0,0
6979,-100,4,3,1,65,0,0
9545,-100,4,3,1,65,0,0
9626,-100,4,3,1,5,0,0
9866,-100,4,3,1,65,0,0
9947,-100,4,3,1,5,0,0
10187,-100,4,3,1,65,0,0
10267,-100,4,3,1,5,0,0
10508,-100,4,3,1,65,0,0
11471,-100,4,3,1,65,0,0
11551,-100,4,3,1,5,0,0
11791,-100,4,3,1,65,0,0
11872,-100,4,3,1,5,0,0
12112,-100,4,3,1,65,0,0
12193,-100,4,3,1,5,0,0
12433,-100,4,3,1,65,0,0
12513,-100,4,3,1,5,0,0
12754,-100,4,3,1,65,0,0
13396,-100,4,3,1,55,0,0
14358,-100,4,3,1,55,0,0
16925,-100,4,3,1,55,0,0
18529,-133.333333333333,4,3,1,55,0,0
18850,-133.333333333333,4,3,1,60,0,0
19171,-100,4,3,1,65,0,0
23663,-133.333333333333,4,3,1,40,0,0
27193,-181.818181818181,4,3,1,40,0,0
27995,-181.818181818181,4,3,1,60,0,0
28797,-133.333333333333,4,3,1,65,0,0
31684,-111.111111111111,4,3,1,65,0,0
32005,-90.9090909090909,4,3,1,65,0,0
32326,-76.9230769230769,4,3,1,65,0,0
33930,-105.263157894737,4,3,1,50,0,0
38422,-105.263157894737,4,3,1,60,0,0
39064,-105.263157894737,4,3,1,50,0,0
44198,-50,4,3,1,65,0,1
44519,-66.6666666666667,4,3,1,65,0,1
45481,-50,4,3,1,65,0,1
45802,-66.6666666666667,4,3,1,65,0,1
46444,-200,4,3,1,65,0,1
46765,-50,4,3,1,65,0,1
47086,-66.6666666666667,4,3,1,65,0,1
49332,-50,4,3,1,65,0,1
49652,-58.8235294117647,4,3,1,65,0,1
50615,-50,4,3,1,65,0,1
50936,-58.8235294117647,4,3,1,65,0,1
51578,-50,4,3,1,65,0,1
54465,-50,4,3,1,55,0,1
54786,-66.6666666666667,4,3,1,55,0,1
55749,-50,4,3,1,55,0,1
56070,-66.6666666666667,4,3,1,55,0,1
57032,-50,4,3,1,55,0,1
57353,-66.6666666666667,4,3,1,55,0,1
59599,-50,4,3,1,55,0,1
59920,-66.6666666666667,4,3,1,55,0,1
60882,-71.4285714285714,4,3,1,55,0,1
61203,-76.9230769230769,4,3,1,55,0,1
61524,-83.3333333333333,4,3,1,55,0,1
61845,-90.9090909090909,4,3,1,55,0,1
62166,-90.9090909090909,4,3,1,50,0,0
64733,-90.9090909090909,4,3,1,45,0,0
65695,-90.9090909090909,4,3,1,45,0,0
67299,-111.111111111111,4,3,1,45,0,0
68262,-90.9090909090909,4,3,1,45,0,0
69866,-100,4,3,1,45,0,0
70829,-90.9090909090908,4,3,1,45,0,0
75000,-50,4,3,1,65,0,1
75321,-58.8235294117647,4,3,1,65,0,1
76283,-50,4,3,1,65,0,1
76604,-58.8235294117647,4,3,1,65,0,1
77567,-50,4,3,1,65,0,1
77888,-58.8235294117647,4,3,1,65,0,1
78850,-50,4,3,1,65,0,1
79171,-58.8235294117647,4,3,1,65,0,1
79492,-66.6666666666667,4,3,1,65,0,1
79652,-62.5,4,3,1,65,0,1
79813,-58.8235294117647,4,3,1,65,0,1
79973,-55.5555555555556,4,3,1,65,0,1
80134,-50,4,3,1,65,0,1
80455,-58.8235294117647,4,3,1,65,0,1
81417,-50,4,3,1,65,0,1
82380,-52.6315789473684,4,3,1,70,0,1
84305,-58.8235294117647,4,3,1,70,0,1
84626,-66.6666666666667,4,3,1,70,0,1
84947,-76.9230769230769,4,3,1,70,0,1
85267,-58.8235294117647,4,3,1,70,0,1
85588,-76.9230769230769,4,3,1,70,0,1
86390,-200,4,3,1,50,0,0

[HitObjects]
96,39,562,5,0,0:0:0:0:
98,67,642,1,0,0:0:0:0:
100,95,722,1,0,0:0:0:0:
102,124,802,1,0,0:0:0:0:
126,147,882,1,0,0:0:0:0:
124,176,962,1,0,0:0:0:0:
122,204,1042,1,0,0:0:0:0:
120,233,1122,1,0,0:0:0:0:
98,258,1203,5,0,0:0:0:0:
100,287,1283,1,0,0:0:0:0:
102,315,1363,1,0,0:0:0:0:
104,344,1444,1,0,0:0:0:0:
142,317,1524,1,0,0:0:0:0:
189,313,1604,1,0,0:0:0:0:
232,333,1684,1,0,0:0:0:0:
268,364,1765,5,0,0:0:0:0:
310,383,1845,1,0,0:0:0:0:
357,380,1925,1,0,0:0:0:0:
396,353,2005,1,0,0:0:0:0:
416,309,2086,1,0,0:0:0:0:
327,289,2166,6,0,L|321:221,3,47.5
249,194,2487,1,0,0:0:0:0:
270,116,2754,2,0,L|264:179,1,63.3333333333333
384,62,3128,6,0,L|394:170,1,95,0|0,3:0|3:0,3:0:0:0:
270,116,3449,1,0,0:0:0:0:
488,113,3610,1,0,0:0:0:0:
488,113,3690,1,0,0:0:0:0:
488,113,3770,2,0,L|498:221,1,95,0|0,3:0|3:0,3:0:0:0:
408,344,4091,1,0,0:0:0:0:
357,189,4251,1,0,0:0:0:0:
357,189,4332,1,0,0:0:0:0:
357,189,4412,5,0,0:0:0:0:
496,207,4572,1,0,0:0:0:0:
417,252,4733,1,0,0:0:0:0:
338,297,4893,1,0,0:0:0:0:
338,297,4973,1,0,0:0:0:0:
338,297,5053,1,0,0:0:0:0:
417,343,5214,1,0,0:0:0:0:
465,117,5374,2,0,P|500:219|500:219,1,95
338,69,5695,5,0,0:0:0:0:
214,252,5856,1,0,0:0:0:0:
358,196,6016,2,0,L|364:73,1,113.999996520996,0|0,3:0|3:0,3:0:0:0:
373,76,6257,1,0,0:0:0:0:
383,70,6337,1,0,0:0:0:0:
480,155,6497,1,0,0:0:0:0:
286,224,6658,1,0,0:0:0:0:
330,5,6818,1,0,0:0:0:0:
330,5,6898,1,0,0:0:0:0:
330,5,6979,6,0,P|376:-8|432:4,2,95
82,244,7620,5,0,0:0:0:0:
61,224,7700,1,0,0:0:0:0:
46,200,7780,1,0,0:0:0:0:
38,173,7860,1,0,0:0:0:0:
37,144,7940,1,0,0:0:0:0:
43,117,8021,1,0,0:0:0:0:
56,91,8101,1,0,0:0:0:0:
76,70,8181,1,0,0:0:0:0:
101,57,8262,5,0,0:0:0:0:
114,95,8342,1,0,0:0:0:0:
143,121,8422,1,0,0:0:0:0:
181,132,8502,1,0,0:0:0:0:
220,123,8582,1,0,0:0:0:0:
297,40,8743,6,0,B|177:51,1,95
379,40,9064,2,0,B|499:51,1,95
338,111,9385,1,0,0:0:0:0:
240,176,9545,6,0,B|297:182,1,47.5
435,176,9866,6,0,B|379:182,1,47.5
338,253,10187,6,0,B|338:309,1,47.5
231,299,10508,5,0,0:0:0:0:
176,245,10668,1,0,0:0:0:0:
157,320,10829,5,0,3:0:0:0:
153,330,10909,1,0,3:0:0:0:
150,341,10989,1,0,3:0:0:0:
147,353,11069,1,0,3:0:0:0:
144,363,11149,1,0,3:0:0:0:
69,343,11310,1,0,0:0:0:0:
231,364,11471,6,0,B|287:369,1,47.5
291,296,11791,6,0,B|347:301,1,47.5
351,228,12112,6,0,B|407:233,1,47.5
411,160,12433,6,0,B|467:165,1,47.5
351,228,12754,5,0,0:0:0:0:
231,364,12914,1,0,0:0:0:0:
174,193,13075,1,0,0:0:0:0:
166,19,13396,6,0,P|118:35|90:79,1,95
180,196,13717,2,0,P|190:146|166:100,1,95
92,69,13957,1,0,0:0:0:0:
11,107,14037,2,0,L|23:221,1,95
97,334,14358,2,0,L|108:220,1,95
99,157,14599,1,0,0:0:0:0:
25,207,14679,6,0,L|15:301,1,95
182,326,15000,2,0,L|191:231,1,95
265,181,15241,1,0,0:0:0:0:
272,263,15321,2,0,L|263:358,1,95
180,196,15642,2,0,L|189:101,1,95
274,85,15882,1,0,0:0:0:0:
359,101,15963,6,0,L|368:196,1,95
436,45,16283,2,0,P|410:19|354:7,1,95
285,59,16524,1,0,0:0:0:0:
214,110,16604,2,0,L|205:205,1,95
212,287,16845,1,0,0:0:0:0:
286,237,16925,2,0,L|295:142,1,95
369,92,17166,1,0,0:0:0:0:
440,138,17246,2,0,P|454:79|434:37,1,95
378,191,17567,6,0,B|395:238|395:238|381:293,1,95
162,216,17888,6,0,L|148:162,1,47.5
300,300,18048,2,0,L|314:246,1,47.5
176,224,18209,2,0,L|166:168,1,47.5
308,317,18369,2,0,L|327:264,1,47.5
189,233,18529,6,0,L|179:132,1,71.2500027179719
343,269,18850,2,0,L|314:334,1,71.2500027179719
400,336,19091,1,0,0:0:0:0:
452,268,19171,2,0,P|388:244|352:260,1,95
428,120,19492,2,0,P|495:108|518:76,1,95
444,40,19733,1,0,0:0:0:0:
360,56,19813,6,0,B|319:91|328:137|348:173|348:173|304:160,1,142.5
288,258,20134,2,0,P|244:203|245:134,1,142.5
110,248,20455,2,0,P|153:193|153:123,1,142.5
39,46,20776,2,0,B|80:81|71:127|51:163|51:163|63:159,1,142.5
275,107,21096,5,0,0:0:0:0:
292,105,21176,1,0,0:0:0:0:
308,98,21256,1,0,0:0:0:0:
323,87,21336,1,0,0:0:0:0:
336,76,21416,1,0,0:0:0:0:
351,65,21497,1,0,0:0:0:0:
367,57,21577,1,0,0:0:0:0:
384,53,21657,1,0,0:0:0:0:
402,51,21739,5,0,0:0:0:0:
393,74,21819,1,0,0:0:0:0:
389,98,21899,1,0,0:0:0:0:
390,123,21979,1,0,0:0:0:0:
397,148,22059,1,0,0:0:0:0:
407,170,22140,1,0,0:0:0:0:
422,190,22220,1,0,0:0:0:0:
441,206,22300,1,0,0:0:0:0:
463,219,22380,5,0,0:0:0:0:
424,196,22460,1,0,0:0:0:0:
387,182,22540,1,0,0:0:0:0:
346,179,22620,1,0,0:0:0:0:
306,180,22701,1,0,0:0:0:0:
268,191,22781,1,0,0:0:0:0:
232,211,22861,1,0,0:0:0:0:
200,235,22941,1,0,0:0:0:0:
174,267,23021,1,0,0:0:0:0:
154,301,23102,5,0,0:0:0:0:
104,315,23182,1,0,0:0:0:0:
58,291,23262,1,0,0:0:0:0:
41,242,23342,1,0,0:0:0:0:
63,195,23422,1,0,0:0:0:0:
109,175,23503,1,0,0:0:0:0:
155,192,23583,1,0,0:0:0:0:
185,231,23663,5,0,0:0:0:0:
90,46,23984,1,0,0:0:0:0:
309,72,24305,1,0,0:0:0:0:
243,161,24626,1,0,0:0:0:0:
198,59,24947,1,0,0:0:0:0:
309,72,25267,1,0,0:0:0:0:
198,59,25588,5,0,0:0:0:0:
78,191,25749,1,0,0:0:0:0:
243,161,25909,5,0,3:0:0:0:
277,332,26070,1,0,3:0:0:0:
213,243,26230,2,0,P|172:210|158:168,1,71.2500027179719
260,94,26551,2,0,P|251:146|222:179,1,71.2500027179719
163,194,26872,1,0,0:0:0:0:
392,56,27193,6,0,L|406:183,2,104.500003189087
307,117,27995,1,0,0:0:0:0:
498,201,28155,1,0,0:0:0:0:
392,56,28316,1,0,0:0:0:0:
414,262,28476,1,0,0:0:0:0:
486,97,28636,1,0,0:0:0:0:
318,219,28797,6,0,L|197:307,2,142.500005435944
173,144,29599,1,0,0:0:0:0:
301,317,29759,2,0,L|344:375,1,71.2500027179719
216,202,30080,2,0,L|301:317,2,142.500005435944
145,345,30882,1,0,0:0:0:0:
318,219,31043,2,0,L|375:176,1,71.2500027179719
173,144,31364,6,0,L|179:73,1,71.2500027179719
266,133,31684,2,0,L|258:47,1,85.4999973907472
343,168,32005,2,0,L|353:63,1,104.500003189087
446,166,32326,2,0,L|434:43,1,123.499994346619
476,328,32647,5,0,0:0:0:0:
447,295,32727,1,0,0:0:0:0:
408,277,32807,1,0,0:0:0:0:
365,275,32887,1,0,0:0:0:0:
326,296,32968,1,0,0:0:0:0:
296,326,33048,1,0,0:0:0:0:
253,328,33128,1,0,0:0:0:0:
221,300,33208,1,0,0:0:0:0:
216,258,33288,1,0,0:0:0:0:
228,216,33369,1,0,0:0:0:0:
259,185,33449,1,0,0:0:0:0:
285,151,33529,1,0,0:0:0:0:
280,109,33609,1,0,0:0:0:0:
248,81,33689,1,0,0:0:0:0:
205,82,33769,1,0,0:0:0:0:
175,112,33850,1,0,0:0:0:0:
160,140,33930,6,0,P|120:132|68:128,1,90.2499975900651
205,82,34251,2,0,P|182:48|148:8,1,90.2499975900651
280,109,34572,2,0,P|288:69|292:17,1,90.2499975900651
112,204,34893,6,0,P|72:196|20:192,1,90.2499975900651
348,168,35214,2,0,P|361:129|371:78,1,90.2499975900651
128,220,35535,6,0,P|88:212|36:208,1,90.2499975900651
362,185,35856,2,0,P|375:147|385:96,1,90.2499975900651
205,82,36176,2,0,P|182:48|148:8,1,90.2499975900651
284,264,36497,5,0,0:0:0:0:
275,280,36578,1,0,0:0:0:0:
265,296,36658,1,0,0:0:0:0:
257,312,36738,1,0,0:0:0:0:
244,332,36818,2,0,P|344:316|360:244,1,180.49999518013
244,168,37299,1,0,0:0:0:0:
205,263,37460,2,0,L|106:285,1,90.2499975900651
60,220,37781,5,0,0:0:0:0:
60,211,37861,1,0,0:0:0:0:
60,202,37941,1,0,0:0:0:0:
60,193,38021,1,0,0:0:0:0:
60,184,38101,1,0,0:0:0:0:
124,108,38262,1,0,0:0:0:0:
197,352,38422,6,0,L|205:252,1,90.2499975900651
136,118,38743,2,0,L|143:207,1,90.2499975900651
280,235,39064,2,0,P|367:192|369:117,2,180.49999518013
294,152,39867,1,0,0:0:0:0:
284,62,40027,2,0,L|294:159,1,90.2499975900651
334,306,40348,2,0,P|409:266|453:173,2,180.49999518013
293,151,41151,1,0,0:0:0:0:
284,62,41310,2,0,L|294:159,1,90.2499975900651
168,206,41631,5,0,0:0:0:0:
177,116,41791,1,0,0:0:0:0:
94,153,41952,1,0,0:0:0:0:
168,206,42112,1,0,0:0:0:0:
157,325,43556,5,0,0:0:0:0:
32,88,43716,1,0,0:0:0:0:
299,98,43877,1,0,0:0:0:0:
228,212,44037,5,0,0:0:0:0:
476,121,44198,6,0,B|480:183|442:213|442:213|454:226|452:241|452:241|430:270|428:321,1,190
228,212,44519,2,0,P|266:269|337:280,1,142.500005435944
377,170,44759,1,0,0:0:0:0:
377,170,44840,2,0,P|349:191|313:193,1,71.2500027179719
333,44,45000,2,0,P|316:79|331:127,1,71.2500027179719
464,195,45160,2,0,P|461:124|393:77,1,142.500005435944
261,310,45401,1,0,0:0:0:0:
241,325,45481,6,0,B|212:320|194:305|194:305|170:329|123:334|123:334|86:300|49:303,1,190
129,233,45722,1,0,0:0:0:0:
129,233,45802,2,0,P|149:184|113:223,1,142.500005435944
250,244,46043,1,0,0:0:0:0:
250,244,46123,2,0,P|256:203|249:161,1,71.2500027179719
137,75,46283,2,0,P|169:100|209:115,1,71.2500027179719
286,89,46444,5,0,0:0:0:0:
325,314,46765,6,0,B|324:260|356:228|356:228|316:214|311:167|311:167|325:161|348:146,1,190
505,307,47086,2,0,P|461:267|401:319,1,142.500005435944
478,192,47326,1,0,0:0:0:0:
478,192,47406,2,0,P|439:188|405:152,1,71.2500027179719
459,42,47566,2,0,P|476:77|461:125,1,71.2500027179719
287,159,47727,2,0,B|304:106|304:106|389:87,1,142.500005435944
224,46,47968,1,0,0:0:0:0:
224,46,48048,6,0,L|363:15,1,142.500005435944
169,265,48369,2,0,L|211:129,1,142.500005435944
139,342,48690,2,0,L|0:373,1,142.500005435944
221,330,48930,1,0,0:0:0:0:
221,330,49011,2,0,L|360:361,1,142.500005435944
497,256,49251,1,0,0:0:0:0:
505,241,49332,6,0,B|493:181|493:181|505:155|505:155|496:127|507:105|507:105|464:112|440:75|440:75,1,190,0|0,0:0|0:0,3:0:0:0:
271,153,49652,2,0,B|320:189|320:189|419:163,1,161.500003080368
411,85,49893,1,0,3:0:0:0:
411,85,49973,2,0,B|312:111,1,80.750001540184,0|0,3:0|3:0,3:0:0:0:
408,243,50134,2,0,L|417:154,1,80.750001540184
312,34,50294,2,0,B|279:41|266:71|266:71|206:76|195:135|195:132,1,161.500003080368
224,352,50535,1,0,0:0:0:0:
239,360,50616,6,0,B|299:348|299:348|325:360|325:360|353:351|375:362|375:362|368:319|405:295|405:295,1,190,0|0,0:0|0:0,3:0:0:0:
149,292,50936,2,0,L|311:259,1,161.500003080368
138,208,51176,1,0,0:0:0:0:
138,208,51257,2,0,L|59:224,1,80.750001540184
297,176,51417,2,0,L|376:160,1,80.750001540184
217,191,51578,1,0,0:0:0:0:
36,20,51898,6,0,P|53:63|97:78,1,95
57,224,52059,2,0,P|64:178|33:143,1,95,0|0,0:3|0:3,0:3:0:0:
297,176,52219,1,0,0:0:0:0:
475,20,52380,6,0,L|405:85,1,95
455,224,52540,2,0,L|477:132,1,95
215,176,52701,1,0,0:0:0:0:
118,338,52861,6,0,B|176:321|176:321|233:335,1,95
394,338,53021,2,0,B|335:321|335:321|279:335,1,95
257,248,53182,1,0,0:0:0:0:
118,46,53342,6,0,B|176:62|176:62|233:49,1,95
394,46,53502,2,0,B|335:62|335:62|279:49,1,95
257,136,53663,1,0,0:0:0:0:
436,198,53824,6,0,P|389:224|376:267,1,95
399,344,53984,2,0,P|446:318|459:275,1,95
435,207,54144,2,0,P|387:230|371:273,1,95
390,351,54304,2,0,P|439:327|454:285,1,95
411,46,54465,6,0,B|343:61|332:100|332:100|303:98|303:98|281:134|215:149,1,190
434,213,54786,2,0,P|446:133|402:128,1,142.500005435944
302,195,55027,1,0,0:0:0:0:
302,195,55107,2,0,P|339:178|369:191,1,71.2500027179719
371,311,55267,2,0,P|337:287|334:254,1,71.2500027179719
444,290,55428,2,0,P|418:377|371:391,1,142.500005435944
130,227,55668,1,0,0:0:0:0:
121,210,55749,6,0,B|189:195|200:156|200:156|229:158|229:158|251:122|317:107,1,190
201,78,55989,1,0,0:0:0:0:
201,78,56070,2,0,P|141:63|130:133,1,142.500005435944
271,45,56310,1,0,0:0:0:0:
271,45,56390,2,0,P|252:19|217:0,1,71.2500027179719
60,150,56551,2,0,P|92:146|129:123,1,71.2500027179719
201,78,56711,5,0,0:0:0:0:
380,353,57032,6,0,B|379:315|370:294|370:294|380:282|388:261|388:261|373:226|371:150,1,190,0|0,3:0|3:0,3:0:0:0:
467,49,57353,2,0,P|430:116|487:140,1,142.500005435944
463,284,57594,1,0,0:0:0:0:
463,284,57674,2,0,P|464:232|426:200,1,71.2500027179719
305,179,57834,2,0,P|357:180|389:142,1,71.2500027179719
348,24,57995,2,0,B|303:16|303:16|328:111,1,142.500005435944
203,111,58235,1,0,0:0:0:0:
203,111,58316,6,0,B|248:119|248:119|223:24,1,142.500005435944
151,254,58636,2,0,L|116:117,1,142.500005435944
89,325,58957,5,0,0:0:0:0:
124,349,59037,1,0,0:0:0:0:
166,351,59117,1,0,0:0:0:0:
211,330,59197,1,0,0:0:0:0:
241,289,59278,1,0,0:0:0:0:
280,247,59358,1,0,0:0:0:0:
352,217,59438,1,0,0:0:0:0:
432,244,59518,1,0,0:0:0:0:
512,324,59599,6,0,B|500:264|500:264|512:238|512:238|503:210|514:188|514:188|471:195|447:158|447:158,1,190,0|0,0:0|0:0,3:0:0:0:
494,1,59920,2,0,P|469:79|528:117,1,142.500005435944
386,40,60160,1,0,0:0:0:0:
386,40,60241,2,0,P|386:77|397:115,1,71.2500027179719
319,248,60401,2,0,P|351:229|374:198,1,71.2500027179719
278,26,60561,2,0,P|309:104|304:163,1,142.500005435944
237,217,60802,1,0,0:0:0:0:
205,228,60882,6,0,P|126:174|36:238,1,199.499993911743
80,290,61203,6,0,B|110:278|124:257|124:257|144:289|189:308|189:308|246:297,1,185.249991519928
315,329,61524,6,0,B|334:267|276:223|276:223|330:214,1,170.999994781494
405,246,61845,6,0,P|398:168|322:130,1,156.750004783631
251,144,62166,6,0,B|269:41|269:41,1,104.500003189087
189,35,62406,1,0,0:0:0:0:
189,35,62487,2,0,B|171:138,1,104.500003189087
109,28,62807,2,0,B|91:131,1,104.500003189087
11,124,63048,1,0,0:0:0:0:
11,124,63128,2,0,B|29:21|29:21,1,104.500003189087
45,196,63369,1,0,0:0:0:0:
45,196,63449,2,0,L|61:312,1,104.500003189087
154,263,63770,5,0,0:0:0:0:
154,263,63850,1,0,0:0:0:0:
154,263,63930,1,0,0:0:0:0:
247,208,64091,2,0,L|231:329,1,104.500003189087
129,182,64412,2,0,L|142:78,1,104.500003189087
219,117,64652,1,0,0:0:0:0:
239,133,64733,6,0,P|290:145|322:204,1,104.500003189087
409,45,65053,2,0,P|388:92|404:141,1,104.500003189087,0|0,3:0|3:0,3:0:0:0:
399,235,65294,1,0,0:0:0:0:
479,287,65374,2,0,P|499:240|484:191,1,104.500003189087,0|0,3:0|3:0,3:0:0:0:
315,279,65695,2,0,L|358:374,1,104.500003189087
226,263,65936,1,0,0:0:0:0:
215,174,66016,6,0,L|319:185,1,104.500003189087
241,349,66337,2,0,L|137:338,1,104.500003189087
315,279,66658,1,0,0:0:0:0:
340,281,66738,1,0,0:0:0:0:
366,284,66818,1,0,0:0:0:0:
226,263,66979,2,0,L|122:252,1,104.500003189087
111,164,67219,1,0,0:0:0:0:
193,171,67299,6,0,L|297:182,1,85.4999973907472
354,29,67620,2,0,L|304:99,1,85.4999973907472
360,160,67861,1,0,0:0:0:0:
449,162,67941,2,0,L|414:84,1,85.4999973907472
360,160,68182,1,0,0:0:0:0:
333,240,68262,2,0,L|449:252,1,104.500003189087
372,320,68503,1,0,0:0:0:0:
290,313,68583,6,0,P|256:268|260:212,1,104.500003189087
84,276,68904,2,0,B|126:255|126:255|148:196,1,104.500003189087
316,164,69144,1,0,0:0:0:0:
320,189,69225,2,0,L|332:239,1,52.2500015945435
67,198,69385,2,0,L|80:148,1,52.2500015945435
316,198,69545,2,0,L|324:249,1,52.2500015945435
73,199,69705,2,0,L|90:149,1,52.2500015945435
394,136,69866,6,0,L|401:242,1,95,0|0,0:0|3:0,0:0:0:0:
8,151,70187,2,0,L|48:58,1,95
120,54,70428,1,0,0:0:0:0:
177,114,70508,2,0,P|200:67|192:18,1,95
305,241,70829,2,0,P|291:297|316:352,1,104.500003189087
373,289,71070,1,0,0:0:0:0:
433,238,71150,6,0,P|487:214|447:264,1,156.750004783631
369,182,71471,6,0,P|435:129|502:135,1,156.750004783631
305,126,71791,6,0,P|239:73|172:79,1,156.750004783631
241,182,72112,6,0,P|186:158|227:208,1,156.750004783631
303,121,72433,5,0,0:0:0:0:
342,87,72513,1,0,0:0:0:0:
393,78,72593,1,0,0:0:0:0:
441,95,72673,1,0,0:0:0:0:
475,135,72754,1,0,0:0:0:0:
424,145,72834,1,0,0:0:0:0:
385,178,72914,1,0,0:0:0:0:
372,228,72994,1,0,0:0:0:0:
386,275,73074,5,0,0:0:0:0:
394,327,73155,1,0,0:0:0:0:
370,372,73235,1,0,0:0:0:0:
321,380,73315,1,0,0:0:0:0:
285,345,73395,1,0,0:0:0:0:
292,295,73475,1,0,0:0:0:0:
282,243,73556,1,0,0:0:0:0:
260,196,73636,1,0,0:0:0:0:
216,170,73716,5,0,0:0:0:0:
266,154,73797,1,0,0:0:0:0:
314,138,73877,1,0,0:0:0:0:
337,93,73957,1,0,0:0:0:0:
321,45,74037,1,0,0:0:0:0:
276,22,74117,1,0,0:0:0:0:
228,39,74198,1,0,0:0:0:0:
188,72,74278,1,0,0:0:0:0:
168,119,74358,1,0,0:0:0:0:
127,150,74438,1,0,0:0:0:0:
76,154,74518,1,0,0:0:0:0:
30,131,74598,5,0,0:0:0:0:
90,122,74679,1,0,0:0:0:0:
163,144,74759,1,0,0:0:0:0:
216,202,74839,1,0,0:0:0:0:
233,277,74919,1,0,0:0:0:0:
196,364,75000,6,0,B|259:346|297:368|297:368|324:340|362:333|362:333|359:366,1,190
443,159,75321,2,0,P|404:240|337:252,1,161.500003080368
439,311,75561,1,0,0:0:0:0:
439,311,75642,2,0,P|481:313|512:333,1,80.750001540184
361,172,75802,2,0,P|342:136|343:96,1,80.750001540184
279,310,75963,2,0,P|250:353|138:368,1,161.500003080368
76,107,76203,1,0,0:0:0:0:
83,86,76283,6,0,B|130:65|130:65|167:68|167:68|207:94|247:81|247:81|225:71,1,190
161,294,76604,2,0,B|130:258|130:258|143:135,1,161.500003080368
342,87,76845,1,0,3:0:0:0:
342,87,76925,2,0,B|326:133|326:133|213:182,1,161.500003080368,0|0,3:0|3:0,3:0:0:0:
313,9,77246,2,0,B|360:-1|360:-1|459:72,1,161.500003080368,0|0,3:0|3:0,3:0:0:0:
489,296,77487,1,0,0:0:0:0:
483,317,77567,6,0,B|430:341|388:329|388:329|364:337|364:337|294:312,1,190
459,111,77888,2,0,P|474:194|402:255,1,161.500003080368
245,256,78128,1,0,0:0:0:0:
245,256,78209,2,0,P|277:233|317:235,1,80.750001540184
79,254,78369,2,0,P|43:236|25:201,1,80.750001540184
177,328,78529,2,0,P|168:212|196:174,1,161.500003080368
409,52,78770,1,0,0:0:0:0:
423,52,78850,6,0,B|439:88|458:111|458:111|437:141|427:171|427:171|435:198|440:235,1,190
240,125,79171,2,0,B|223:101|223:101|360:116,1,161.500003080368
491,287,79492,5,0,0:0:0:0:
451,343,79572,1,0,0:0:0:0:
382,354,79652,1,0,0:0:0:0:
326,313,79732,1,0,0:0:0:0:
288,241,79813,1,0,0:0:0:0:
227,189,79893,1,0,0:0:0:0:
148,184,79973,1,0,0:0:0:0:
83,228,80053,1,0,0:0:0:0:
47,317,80134,6,0,B|12:267|42:222|42:222|77:160|52:110,1,190
257,292,80455,2,0,P|203:243|104:283,1,161.500003080368
332,320,80695,1,0,0:0:0:0:
332,320,80775,2,0,P|401:297|413:278,1,80.750001540184
493,83,80936,2,0,P|477:154|488:174,1,80.750001540184
484,300,81096,2,0,P|402:215|355:231,1,161.500003080368
205,322,81337,1,0,0:0:0:0:
184,329,81417,6,0,B|200:275|187:229|187:229|169:169|182:133,1,190
373,220,81738,2,0,B|400:187|400:187|252:172,1,190
302,59,81979,1,0,0:0:0:0:
302,59,82059,2,0,B|275:92|275:92|421:106,1,190
195,112,82380,2,0,B|16:95,1,180.49999518013
155,329,82701,5,0,0:0:0:0:
242,348,82781,1,0,0:0:0:0:
327,319,82861,1,0,0:0:0:0:
387,252,82941,1,0,0:0:0:0:
405,157,83021,2,0,P|466:191|482:215,1,90.2499975900651
300,224,83182,2,0,P|265:251|222:261,1,90.2499975900651,0|0,3:0|3:0,3:0:0:0:
345,83,83342,2,0,P|477:93|517:126,1,180.49999518013
234,175,83663,2,0,P|102:165|62:132,1,180.49999518013
139,35,83904,1,0,0:0:0:0:
160,31,83984,6,0,P|205:86|148:66,1,180.49999518013
436,224,84305,6,0,P|382:244|440:246,1,161.500003080368
128,312,84626,6,0,P|167:278|146:326,1,142.500005435944,0|0,0:0|0:0,3:0:0:0:
392,352,84947,6,0,P|332:320|304:264,1,123.499994346619
474,11,85187,1,0,0:0:0:0:
502,1,85267,6,0,L|510:185,1,161.500003080368
244,320,85588,2,0,P|230:266|268:208,1,123.499994346619
403,159,85829,1,0,0:0:0:0:
403,159,85909,2,0,P|420:149|396:150,1,61.7499971733095
330,287,86070,2,0,P|313:277|337:278,1,61.7499971733095
134,328,86230,5,0,0:0:0:0:
61,311,86390,6,0,P|172:138|128:335,1,570
