osu file format v14

[General]
AudioFilename: audio.mp3
AudioLeadIn: 0
PreviewTime: 42273
Countdown: 0
SampleSet: None
StackLeniency: 0.4
Mode: 0
LetterboxInBreaks: 0
WidescreenStoryboard: 1

[Editor]
Bookmarks: 33930,39706,42273,47727,57995,62166,86390
DistanceSpacing: 1
BeatDivisor: 4
GridSize: 4
TimelineZoom: 1.7

[Metadata]
Title:On My MiND (TV Size)
TitleUnicode:On My MiND (TV Size)
Artist:Mrs. GREEN APPLE
ArtistUnicode:Mrs. GREEN APPLE
Creator:Aro
Version:LeQuack's Extra
Source:Nana Maru San Batsu
Tags:Koshiyama Shiki opening quiz bowl bokuha bokuwa buzzer mondai 7O3X Fastest Finger First ナナマル サンバツ
BeatmapID:1418001
BeatmapSetID:665820

[Difficulty]
HPDrainRate:6.5
CircleSize:4
OverallDifficulty:8.2
ApproachRate:9
SliderMultiplier:1.75
SliderTickRate:1

[Events]
//Background and Video events
0,0,"image.png",0,0
//Break Periods
//Storyboard Layer 0 (Background)
//Storyboard Layer 1 (Fail)
//Storyboard Layer 2 (Pass)
//Storyboard Layer 3 (Foreground)
//Storyboard Sound Samples

[TimingPoints]
562,320.855614973262,4,3,1,50,1,0
3128,-100,4,3,1,65,0,0
11471,-100,4,3,1,65,0,0
11551,-100,4,3,1,5,0,0
11791,-100,4,3,1,65,0,0
11872,-100,4,3,1,5,0,0
12112,-100,4,3,1,65,0,0
12193,-100,4,3,1,5,0,0
12433,-100,4,3,1,65,0,0
12513,-100,4,3,1,5,0,0
12754,-100,4,3,1,65,0,0
13396,-80,4,3,1,55,0,0
20775,-100,4,3,1,55,0,0
23663,-111.111111111111,4,3,1,40,0,0
33930,-105.263157894737,4,3,1,50,0,0
44198,-80,4,3,1,65,0,1
46444,-200,4,3,1,65,0,1
46765,-80,4,3,1,65,0,1
51578,-200,4,3,1,65,0,1
51898,-133.333333333333,4,3,1,65,0,0
53824,-100,4,3,1,65,0,0
54465,-80,4,3,1,55,0,1
56711,-200,4,3,1,55,0,1
57032,-90.9090909090909,4,3,1,55,0,1
62166,-90.9090909090909,4,3,1,50,0,0
64733,-80,4,3,1,45,0,0
72433,-100,4,3,1,45,0,0
75000,-80,4,3,1,65,0,0
82701,-80,4,3,1,70,0,1
86390,-90.9090909090909,4,3,1,50,0,0

[HitObjects]
90,161,562,5,0,0:0:0:0:
124,155,642,1,0,0:0:0:0:
151,133,722,1,0,0:0:0:0:
166,101,802,1,0,0:0:0:0:
170,66,882,2,0,L|222:66,3,43.75
313,75,1203,5,0,0:0:0:0:
338,98,1283,1,0,0:0:0:0:
349,131,1364,1,0,0:0:0:0:
346,165,1444,1,0,0:0:0:0:
329,195,1524,2,0,L|331:245,3,43.75
354,327,1845,5,0,0:0:0:0:
314,308,1925,1,0,0:0:0:0:
270,303,2005,1,0,0:0:0:0:
225,304,2086,1,0,0:0:0:0:
187,326,2166,1,0,0:0:0:0:
145,338,2246,1,0,0:0:0:0:
102,346,2326,1,0,0:0:0:0:
58,338,2406,1,0,0:0:0:0:
26,307,2487,1,0,0:0:0:0:
170,66,2807,5,0,0:0:0:0:
170,66,3128,2,0,L|279:67,1,87.5
324,179,3449,1,0,0:0:0:0:
227,227,3610,1,0,0:0:0:0:
227,227,3690,1,0,0:0:0:0:
227,227,3770,2,0,P|219:175|227:132,1,87.5
275,310,4091,2,0,P|230:303|184:316,1,87.5
328,183,4412,5,0,0:0:0:0:
328,183,4572,1,0,0:0:0:0:
227,227,4733,2,0,P|178:230|130:216,1,87.5
114,205,4973,1,0,0:0:0:0:
129,226,5053,1,0,0:0:0:0:
134,251,5134,1,0,0:0:0:0:
131,277,5214,1,0,0:0:0:0:
188,124,5374,2,0,L|184:19,1,87.5
286,167,5695,6,0,P|252:214|209:230,1,87.5
114,205,6016,1,0,0:0:0:0:
188,124,6176,1,0,0:0:0:0:
189,247,6337,1,0,0:0:0:0:
99,126,6497,1,0,0:0:0:0:
286,167,6658,1,0,0:0:0:0:
122,212,6818,1,0,0:0:0:0:
122,212,6898,1,0,0:0:0:0:
122,212,6979,6,0,P|113:269|128:305,1,87.5
277,244,7299,2,0,L|185:248,1,87.5
258,334,7620,1,0,0:0:0:0:
273,327,7700,1,0,0:0:0:0:
289,325,7780,1,0,0:0:0:0:
305,325,7860,1,0,0:0:0:0:
321,329,7940,1,0,0:0:0:0:
354,343,8021,1,0,0:0:0:0:
388,348,8102,1,0,0:0:0:0:
422,344,8182,1,0,0:0:0:0:
451,324,8262,6,0,L|452:231,1,87.5
400,143,8583,1,0,0:0:0:0:
320,210,8743,2,0,P|277:224|221:207,1,87.5
80,176,9064,2,0,P|123:162|179:179,1,87.5
276,300,9385,1,0,0:0:0:0:
330,131,9545,6,0,P|373:153|397:194,1,87.5
389,314,9866,1,0,0:0:0:0:
471,251,10027,1,0,0:0:0:0:
315,255,10187,2,0,P|268:258|223:257,1,87.5
115,216,10508,1,0,0:0:0:0:
198,142,10668,1,0,0:0:0:0:
272,338,10829,6,0,L|465:343,1,175
387,207,11310,1,0,0:0:0:0:
198,142,11791,6,0,P|200:114|208:93,1,43.75
243,218,12112,2,0,P|266:233|280:251,1,43.75
154,218,12433,2,0,P|128:230|106:233,1,43.75
322,151,12754,1,0,0:0:0:0:
172,320,12914,1,0,0:0:0:0:
101,106,13075,1,0,0:0:0:0:
101,106,13396,6,0,L|217:102,1,109.375
352,221,13717,2,0,L|236:217,1,109.375
109,223,14037,1,0,0:0:0:0:
179,313,14198,1,0,0:0:0:0:
277,147,14358,2,0,P|287:88|262:43,1,109.375
242,217,14679,6,0,P|300:243|339:305,1,109.375
450,164,15000,2,0,P|385:158|346:185,1,109.375
419,338,15321,2,0,L|409:229,1,109.375
310,73,15642,2,0,B|285:65|285:65|268:108|286:155,1,109.375
246,221,15882,1,0,0:0:0:0:
246,221,15963,6,0,L|129:226,1,109.375
241,320,16283,2,0,P|300:319|343:345,1,109.375
419,225,16604,2,0,L|409:107,1,109.375
270,145,16925,2,0,P|317:183|326:234,1,109.375
460,47,17246,6,0,L|322:48,1,109.375
173,97,17567,2,0,P|239:67|260:21,1,109.375
79,115,17888,1,0,0:0:0:0:
194,201,18048,1,0,0:0:0:0:
178,16,18209,1,0,0:0:0:0:
113,254,18369,1,0,0:0:0:0:
270,145,18529,6,0,P|326:147|374:183,1,109.375
476,47,18850,2,0,P|420:49|372:85,1,109.375
450,240,19171,2,0,L|450:124,1,109.375
299,229,19492,2,0,L|299:345,1,109.375
137,240,19813,5,0,0:0:0:0:
299,229,19973,1,0,0:0:0:0:
139,169,20134,1,0,0:0:0:0:
283,146,20294,1,0,0:0:0:0:
132,96,20455,1,0,0:0:0:0:
259,64,20615,1,0,0:0:0:0:
259,64,20695,1,0,0:0:0:0:
259,64,20775,6,0,B|306:79|306:48|358:67,1,87.5
404,144,21096,1,0,0:0:0:0:
376,159,21176,1,0,0:0:0:0:
343,165,21256,1,0,0:0:0:0:
311,160,21336,1,0,0:0:0:0:
282,145,21416,1,0,0:0:0:0:
298,186,21497,1,0,0:0:0:0:
298,230,21578,1,0,0:0:0:0:
292,272,21658,1,0,0:0:0:0:
269,309,21738,6,0,L|219:311,3,43.75
171,248,22059,2,0,L|121:246,3,43.75
50,193,22380,5,0,0:0:0:0:
81,182,22460,1,0,0:0:0:0:
107,163,22540,1,0,0:0:0:0:
126,136,22620,1,0,0:0:0:0:
135,105,22701,2,0,L|186:104,3,43.75
282,145,23021,5,0,0:0:0:0:
281,177,23101,1,0,0:0:0:0:
281,210,23181,1,0,0:0:0:0:
280,243,23261,1,0,0:0:0:0:
280,276,23342,2,0,L|333:278,3,43.75
404,293,23663,6,0,B|404:235|404:235|417:191|417:191|417:128,1,157.499995193482
361,44,24144,1,0,0:0:0:0:
282,145,24305,2,0,P|233:147|184:146,1,78.7499975967408
87,246,24626,2,0,P|136:244|185:245,1,78.7499975967408
208,68,24947,6,0,P|160:80|132:115,1,78.7499975967408
9,16,25267,2,0,P|57:28|85:63,1,78.7499975967408
132,187,25588,1,0,0:0:0:0:
212,72,25749,1,0,0:0:0:0:
212,72,25909,1,0,0:0:0:0:
66,130,26070,1,0,0:0:0:0:
66,130,26230,6,0,P|51:165|48:207,1,78.7499975967408
150,262,26551,2,0,P|147:222|131:186,1,78.7499975967408
56,335,26872,1,0,0:0:0:0:
56,335,27193,2,0,B|134:317|134:353|220:336,2,157.499995193482
47,205,27995,1,0,0:0:0:0:
249,222,28155,1,0,0:0:0:0:
56,335,28316,1,0,0:0:0:0:
152,132,28476,1,0,0:0:0:0:
211,337,28636,1,0,0:0:0:0:
313,173,28797,6,0,P|327:217|317:268,1,78.7499975967408
400,90,29118,2,0,L|222:92,1,157.499995193482
152,132,29599,1,0,0:0:0:0:
174,244,29759,2,0,P|216:225|256:222,1,78.7499975967408
148,320,30080,6,0,P|106:339|66:342,1,78.7499975967408
243,342,30401,2,0,L|410:341,1,157.499995193482
457,145,30882,1,0,0:0:0:0:
400,263,31043,2,0,P|394:302|403:347,1,78.7499975967408
326,154,31364,6,0,P|281:157|229:155,1,78.7499975967408
88,113,31684,2,0,P|98:162|84:209,1,78.7499975967408
25,273,32005,1,0,0:0:0:0:
173,163,32166,1,0,0:0:0:0:
144,279,32326,1,0,0:0:0:0:
4,158,32487,1,0,0:0:0:0:
173,163,32647,5,0,0:0:0:0:
192,166,32727,1,0,0:0:0:0:
211,169,32807,1,0,0:0:0:0:
231,171,32887,1,0,0:0:0:0:
251,171,32967,5,0,0:0:0:0:
270,171,33048,1,0,0:0:0:0:
290,169,33128,1,0,0:0:0:0:
309,166,33208,1,0,0:0:0:0:
328,162,33289,5,0,0:0:0:0:
355,151,33369,1,0,0:0:0:0:
384,147,33449,1,0,0:0:0:0:
413,149,33529,1,0,0:0:0:0:
441,159,33610,5,0,0:0:0:0:
462,185,33690,1,0,0:0:0:0:
472,218,33770,1,0,0:0:0:0:
468,252,33850,1,0,0:0:0:0:
452,282,33930,6,0,L|353:285,1,83.1249977803231
206,293,34251,2,0,P|259:308|279:341,1,83.1249977803231
328,162,34572,2,0,P|287:155|243:163,1,83.1249977803231
69,141,34893,1,0,0:0:0:0:
69,157,34973,1,0,0:0:0:0:
69,173,35053,1,0,0:0:0:0:
69,189,35134,1,0,0:0:0:0:
69,205,35214,6,0,P|113:214|164:206,1,83.1249977803231
405,119,35535,2,0,L|405:211,1,83.1249977803231
383,314,35856,1,0,0:0:0:0:
297,253,36016,1,0,0:0:0:0:
481,67,36176,2,0,L|481:159,1,83.1249977803231
302,120,36497,6,0,B|269:120|269:120|242:133|242:133|191:131,1,83.1249977803231
166,74,36818,1,0,0:0:0:0:
284,197,36979,1,0,0:0:0:0:
324,37,37139,1,0,0:0:0:0:
361,172,37299,2,0,P|361:219|340:257,1,83.1249977803231
206,217,37620,2,0,P|232:255|271:274,1,83.1249977803231
302,120,37941,1,0,0:0:0:0:
378,328,38102,2,0,P|419:327|477:329,1,83.1249977803231
462,115,38422,5,0,0:0:0:0:
378,328,38583,1,0,0:0:0:0:
394,163,38743,1,0,0:0:0:0:
469,354,38904,1,0,0:0:0:0:
345,250,39064,6,0,P|299:244|243:256,1,83.1249977803231
148,285,39385,1,0,0:0:0:0:
183,142,39545,1,0,0:0:0:0:
199,144,39626,1,0,0:0:0:0:
215,144,39706,1,0,0:0:0:0:
231,141,39786,1,0,0:0:0:0:
246,135,39866,2,0,P|291:137|334:162,1,83.1249977803231
438,247,40187,1,0,0:0:0:0:
264,332,40348,6,0,L|262:231,1,83.1249977803231
255,52,40668,1,0,0:0:0:0:
119,74,40829,1,0,0:0:0:0:
108,86,40909,1,0,0:0:0:0:
99,100,40989,1,0,0:0:0:0:
93,115,41070,1,0,0:0:0:0:
90,131,41150,1,0,0:0:0:0:
180,247,41310,2,0,P|228:241|270:252,1,83.1249977803231
384,280,41631,6,0,L|380:175,1,83.1249977803231
293,69,41952,1,0,0:0:0:0:
429,44,42112,1,0,0:0:0:0:
227,150,42273,2,0,P|179:157|133:146,1,83.1249977803231
299,196,42594,2,0,P|339:189|380:196,1,83.1249977803231
340,297,42914,1,0,0:0:0:0:
227,150,43075,1,0,0:0:0:0:
410,125,43235,1,0,0:0:0:0:
219,272,43556,5,0,0:0:0:0:
308,58,43717,1,0,0:0:0:0:
449,240,43877,1,0,0:0:0:0:
79,64,44198,6,0,L|80:181,1,109.375
219,272,44519,1,0,0:0:0:0:
315,66,44679,1,0,0:0:0:0:
315,66,44759,1,0,0:0:0:0:
315,66,44840,2,0,P|366:62|422:87,1,109.375
323,254,45160,2,0,P|273:275|219:272,1,109.375
79,173,45481,5,0,0:0:0:0:
253,153,45642,1,0,0:0:0:0:
180,333,45802,1,0,0:0:0:0:
148,57,45963,1,0,0:0:0:0:
148,57,46043,1,0,0:0:0:0:
148,57,46123,2,0,L|262:59,1,109.375
49,36,46444,2,0,P|46:57|56:85,1,43.75
218,271,46765,6,0,P|160:262|116:297,1,109.375
312,335,47086,1,0,0:0:0:0:
340,137,47246,1,0,0:0:0:0:
340,137,47326,1,0,0:0:0:0:
340,137,47406,2,0,P|405:140|454:146,1,109.375
242,190,47727,2,0,P|226:120|239:76,1,109.375
450,28,48048,5,0,0:0:0:0:
493,258,48209,1,0,0:0:0:0:
404,93,48369,1,0,0:0:0:0:
424,303,48530,1,0,0:0:0:0:
340,137,48690,1,0,0:0:0:0:
341,326,48851,1,0,0:0:0:0:
242,190,49011,1,0,0:0:0:0:
209,186,49091,1,0,0:0:0:0:
176,191,49171,1,0,0:0:0:0:
147,206,49251,1,0,0:0:0:0:
122,228,49332,6,0,L|121:93,1,109.375
241,36,49652,1,0,0:0:0:0:
312,284,49813,1,0,0:0:0:0:
312,284,49893,1,0,0:0:0:0:
312,284,49973,2,0,P|256:273|192:288,1,109.375
354,137,50294,2,0,P|410:126|474:141,1,109.375
412,355,50615,6,0,L|410:246,1,109.375
410,35,50936,1,0,0:0:0:0:
236,117,51096,1,0,0:0:0:0:
236,117,51176,1,0,0:0:0:0:
236,117,51257,2,0,P|262:170|257:222,1,109.375
253,35,51578,2,0,P|220:33|190:41,1,43.75
382,139,51898,6,0,B|392:154|392:154|415:128|411:73,1,98.4375037550928
410,35,52219,1,0,0:0:0:0:
342,315,52380,2,0,B|304:315|304:315|267:329|267:329|229:330,1,98.4375037550928
204,320,52701,1,0,0:0:0:0:
90,47,52861,2,0,P|92:98|70:143,1,98.4375037550928
43,172,53182,1,0,0:0:0:0:
354,217,53342,2,0,B|387:228|425:206|425:206|452:205,1,98.4375037550928
492,207,53663,1,0,0:0:0:0:
175,171,53824,6,0,P|168:220|182:276,1,87.5
222,47,54144,1,0,0:0:0:0:
189,47,54224,1,0,0:0:0:0:
156,47,54304,1,0,0:0:0:0:
123,47,54384,1,0,0:0:0:0:
90,47,54465,6,0,B|90:88|90:88|77:120|77:120|77:167,1,109.375
139,328,54786,1,0,0:0:0:0:
279,166,54947,1,0,0:0:0:0:
279,166,55027,1,0,0:0:0:0:
279,166,55107,2,0,P|214:156|174:171,1,109.375
451,239,55428,2,0,L|450:114,1,109.375
232,238,55749,5,0,0:0:0:0:
344,337,55909,1,0,0:0:0:0:
350,65,56070,1,0,0:0:0:0:
257,341,56230,1,0,0:0:0:0:
257,341,56310,1,0,0:0:0:0:
257,341,56390,2,0,P|199:331|147:346,1,109.375
344,337,56711,1,0,0:0:0:0:
369,214,56872,1,0,0:0:0:0:
128,54,57032,6,0,L|137:161,1,96.250002937317
105,357,57353,1,0,0:0:0:0:
264,135,57513,1,0,0:0:0:0:
264,135,57594,1,0,0:0:0:0:
264,135,57674,2,0,P|313:141|361:130,1,96.250002937317
218,334,57995,2,0,L|209:227,1,96.250002937317
310,34,58316,5,0,0:0:0:0:
348,271,58476,1,0,0:0:0:0:
256,91,58636,1,0,0:0:0:0:
271,306,58796,1,0,0:0:0:0:
181,124,58957,1,0,0:0:0:0:
163,118,59037,1,0,0:0:0:0:
145,116,59117,1,0,0:0:0:0:
127,118,59197,1,0,0:0:0:0:
110,122,59278,5,0,0:0:0:0:
119,169,59358,1,0,0:0:0:0:
158,196,59439,1,0,0:0:0:0:
205,195,59519,1,0,0:0:0:0:
245,169,59599,6,0,P|301:164|366:173,1,96.250002937317
428,268,59920,1,0,0:0:0:0:
403,40,60080,1,0,0:0:0:0:
403,40,60160,1,0,0:0:0:0:
403,40,60241,2,0,L|292:41,1,96.250002937317
148,168,60561,2,0,L|259:169,1,96.250002937317
427,216,60882,5,0,0:0:0:0:
306,40,61043,1,0,0:0:0:0:
388,282,61203,1,0,0:0:0:0:
309,60,61364,1,0,0:0:0:0:
332,344,61524,1,0,0:0:0:0:
311,85,61685,1,0,0:0:0:0:
260,384,61845,1,0,0:0:0:0:
311,102,62006,1,0,0:0:0:0:
240,224,62166,6,0,P|186:239|136:229,1,96.250002937317
39,61,62487,1,0,0:0:0:0:
240,42,62647,1,0,0:0:0:0:
140,51,62807,1,0,0:0:0:0:
240,224,62968,1,0,0:0:0:0:
40,224,63128,1,0,0:0:0:0:
140,138,63289,1,0,0:0:0:0:
190,311,63449,5,0,0:0:0:0:
240,224,63610,1,0,0:0:0:0:
140,224,63770,1,0,0:0:0:0:
287,307,63930,1,0,0:0:0:0:
285,127,64091,2,0,L|175:131,1,96.250002937317
240,224,64412,2,0,L|350:228,1,96.250002937317
72,29,64733,6,0,L|82:140,1,109.375
240,224,65053,2,0,L|250:113,1,109.375
179,32,65374,1,0,0:0:0:0:
149,209,65535,1,0,0:0:0:0:
326,150,65695,2,0,P|387:146|435:166,1,109.375
353,349,66016,6,0,L|365:234,1,109.375
333,43,66337,1,0,0:0:0:0:
179,32,66497,1,0,0:0:0:0:
237,151,66658,2,0,P|243:215|232:263,1,109.375
93,275,66979,2,0,P|87:211|98:163,1,109.375
190,342,67299,6,0,L|322:338,1,109.375
365,227,67620,1,0,0:0:0:0:
237,151,67781,1,0,0:0:0:0:
433,175,67941,2,0,P|449:235|434:282,1,109.375
354,140,68262,2,0,P|338:80|353:33,1,109.375
239,225,68583,6,0,P|181:228|121:226,1,109.375
326,280,68904,2,0,P|384:277|444:279,1,109.375
354,140,69225,1,0,0:0:0:0:
252,322,69385,1,0,0:0:0:0:
435,278,69545,1,0,0:0:0:0:
265,97,69706,1,0,0:0:0:0:
116,190,69866,6,0,L|123:299,1,109.375
159,93,70187,2,0,P|98:82|50:107,1,109.375
274,200,70508,2,0,P|254:136|272:83,1,109.375
449,142,70829,2,0,L|339:141,1,109.375
197,241,71150,5,0,0:0:0:0:
353,226,71310,1,0,0:0:0:0:
212,56,71471,2,0,P|265:42|327:57,1,109.375
286,297,71791,1,0,0:0:0:0:
268,149,71952,1,0,0:0:0:0:
353,226,72112,2,0,P|410:234|462:214,1,109.375
398,127,72433,5,0,0:0:0:0:
370,148,72513,1,0,0:0:0:0:
336,158,72594,1,0,0:0:0:0:
301,160,72674,1,0,0:0:0:0:
268,149,72754,2,0,P|240:146|216:149,1,43.75
109,219,72914,5,0,0:0:0:0:
128,189,72995,1,0,0:0:0:0:
135,154,73075,1,0,0:0:0:0:
127,119,73155,1,0,0:0:0:0:
106,91,73235,2,0,P|101:67|108:40,1,43.75
209,39,73396,5,0,0:0:0:0:
229,45,73476,1,0,0:0:0:0:
251,47,73556,1,0,0:0:0:0:
273,46,73636,1,0,0:0:0:0:
294,40,73716,5,0,0:0:0:0:
326,69,73797,1,0,0:0:0:0:
337,111,73877,1,0,0:0:0:0:
327,153,73957,1,0,0:0:0:0:
309,192,74037,1,0,0:0:0:0:
302,235,74118,1,0,0:0:0:0:
307,278,74198,1,0,0:0:0:0:
319,319,74278,1,0,0:0:0:0:
348,351,74358,5,0,0:0:0:0:
340,307,74439,1,0,0:0:0:0:
307,278,74519,1,0,0:0:0:0:
267,258,74599,1,0,0:0:0:0:
223,250,74679,1,0,0:0:0:0:
180,258,74759,1,0,0:0:0:0:
139,274,74840,1,0,0:0:0:0:
107,304,74920,1,0,0:0:0:0:
88,348,75000,6,0,L|82:212,1,109.375
227,140,75321,2,0,L|221:276,1,109.375
136,91,75642,1,0,0:0:0:0:
316,93,75802,1,0,0:0:0:0:
277,314,75963,2,0,P|209:331|171:316,1,109.375
227,140,76283,5,0,0:0:0:0:
399,186,76444,1,0,0:0:0:0:
277,314,76604,2,0,L|302:195,1,109.375
206,57,76925,1,0,0:0:0:0:
34,103,77086,1,0,0:0:0:0:
156,231,77246,2,0,L|131:112,1,109.375
347,87,77567,6,0,P|357:139|338:203,1,109.375
277,314,77888,1,0,0:0:0:0:
250,138,78048,1,0,0:0:0:0:
382,262,78209,2,0,L|493:268,1,109.375
456,81,78529,2,0,L|345:87,1,109.375
157,46,78850,6,0,P|175:97|162:161,1,109.375
108,338,79171,2,0,P|99:284|117:233,1,109.375
240,177,79492,1,0,0:0:0:0:
207,295,79652,1,0,0:0:0:0:
82,105,79813,1,0,0:0:0:0:
329,103,79973,1,0,0:0:0:0:
125,204,80134,6,0,P|69:212|12:185,1,109.375
231,67,80455,2,0,L|240:181,1,109.375
207,295,80775,1,0,0:0:0:0:
160,122,80936,1,0,0:0:0:0:
303,245,81096,2,0,P|359:252|412:244,1,109.375
339,66,81417,6,0,P|283:59|230:67,1,109.375
51,121,81738,2,0,P|107:114|160:122,1,109.375
280,200,82059,1,0,0:0:0:0:
207,295,82219,1,0,0:0:0:0:
370,260,82380,2,0,P|386:195|372:140,1,109.375
321,340,82701,6,0,L|448:342,1,109.375
460,197,83021,1,0,0:0:0:0:
207,295,83182,2,0,L|80:297,1,109.375
22,169,83503,1,0,0:0:0:0:
310,150,83663,2,0,P|326:98|310:33,1,109.375
186,177,83984,5,0,0:0:0:0:
297,284,84144,1,0,0:0:0:0:
219,89,84305,1,0,0:0:0:0:
217,345,84465,1,0,0:0:0:0:
310,150,84626,1,0,0:0:0:0:
128,253,84786,1,0,0:0:0:0:
374,335,84947,1,0,0:0:0:0:
311,56,85107,1,0,0:0:0:0:
257,218,85267,6,0,P|313:233|363:218,1,109.375
459,112,85588,1,0,0:0:0:0:
208,109,85749,1,0,0:0:0:0:
374,335,85909,1,0,0:0:0:0:
340,38,86070,1,0,0:0:0:0:
257,351,86230,1,0,0:0:0:0:
373,120,86390,1,0,0:0:0:0:
256,192,86551,12,0,88476,0:0:0:0:
