osu file format v14

[General]
AudioFilename: audio.mp3
AudioLeadIn: 0
PreviewTime: 42273
Countdown: 0
SampleSet: None
StackLeniency: 0.2
Mode: 0
LetterboxInBreaks: 0
WidescreenStoryboard: 1

[Editor]
Bookmarks: 27995,32005,33930,36497,39706,42273,47727,57995,62166,72433,86390
DistanceSpacing: 0.3
BeatDivisor: 4
GridSize: 4
TimelineZoom: 1.7

[Metadata]
Title:On My MiND (TV Size)
TitleUnicode:On My MiND (TV Size)
Artist:Mrs. GREEN APPLE
ArtistUnicode:Mrs. GREEN APPLE
Creator:Aro
Version:BatsuUpdate
Source:Nana Maru San Batsu
Tags:Koshiyama Shiki opening quiz bowl bokuha bokuwa buzzer mondai 7O3X Fastest Finger First ナナマル サンバツ
BeatmapID:1495688
BeatmapSetID:665820

[Difficulty]
HPDrainRate:6.5
CircleSize:4
OverallDifficulty:8.5
ApproachRate:9.3
SliderMultiplier:1.9
SliderTickRate:1

[Events]
//Background and Video events
0,0,"image.png",0,0
//Break Periods
2,6055,10917
2,13275,20542
2,25066,32093
2,44077,85997
//Storyboard Layer 0 (Background)
//Storyboard Layer 1 (Fail)
//Storyboard Layer 2 (Pass)
//Storyboard Layer 3 (Foreground)
//Storyboard Sound Samples

[TimingPoints]
562,320.855614973262,4,3,1,50,1,0
2754,-200,4,3,1,65,0,0
2968,-200,4,3,1,5,0,0
3128,-100,4,3,1,65,0,0
11471,-100,4,3,1,65,0,0
11551,-100,4,3,1,5,0,0
11791,-100,4,3,1,65,0,0
11872,-100,4,3,1,5,0,0
12112,-100,4,3,1,65,0,0
12193,-100,4,3,1,5,0,0
12433,-100,4,3,1,65,0,0
12513,-100,4,3,1,5,0,0
12754,-100,4,3,1,65,0,0
13396,-133.333333333333,4,3,1,55,0,0
14358,-100,4,3,1,55,0,0
15321,-133.333333333333,4,3,1,55,0,0
16925,-100,4,3,1,55,0,0
18529,-133.333333333333,4,3,1,55,0,0
18850,-133.333333333333,4,3,1,60,0,0
19171,-133.333333333333,4,3,1,65,0,0
19492,-100,4,3,1,70,0,0
20455,-133.333333333333,4,3,1,55,0,0
23663,-133.333333333333,4,3,1,40,0,0
27193,-181.818181818181,4,3,1,40,0,0
27995,-181.818181818181,4,3,1,60,0,0
28797,-133.333333333333,4,3,1,65,0,0
33930,-105.263157894737,4,3,1,50,0,0
38422,-105.263157894737,4,3,1,60,0,0
39064,-105.263157894737,4,3,1,50,0,0
44198,-90.9090909090909,4,3,1,65,0,1
46444,-200,4,3,1,65,0,1
46765,-90.9090909090909,4,3,1,65,0,1
51578,-200,4,3,1,65,0,1
53182,-90.9090909090909,4,3,1,50,0,0
54465,-90.9090909090909,4,3,1,55,0,1
56711,-200,4,3,1,55,0,1
57032,-90.9090909090909,4,3,1,55,0,1
62166,-90.9090909090909,4,3,1,50,0,0
64733,-111.111111111111,4,3,1,45,0,0
65695,-90.9090909090909,4,3,1,45,0,0
67299,-111.111111111111,4,3,1,45,0,0
68262,-90.9090909090909,4,3,1,45,0,0
69866,-111.111111111111,4,3,1,45,0,0
70829,-90.9090909090908,4,3,1,45,0,0
71791,-111.111111111111,4,3,1,45,0,0
75000,-90.9090909090909,4,3,1,65,0,1
82380,-90.9090909090909,4,3,1,70,0,1
86390,-90.9090909090909,4,3,1,50,0,0

[HitObjects]
37,15,562,5,0,0:0:0:0:
35,24,642,1,0,0:0:0:0:
33,33,722,1,0,0:0:0:0:
32,43,802,1,0,0:0:0:0:
30,52,882,5,0,0:0:0:0:
53,47,962,1,0,0:0:0:0:
76,51,1042,1,0,0:0:0:0:
97,61,1122,1,0,0:0:0:0:
114,78,1203,5,0,0:0:0:0:
109,101,1283,1,0,0:0:0:0:
104,124,1363,1,0,0:0:0:0:
99,147,1443,1,0,0:0:0:0:
122,163,1524,5,0,0:0:0:0:
127,186,1604,1,0,0:0:0:0:
132,209,1684,1,0,0:0:0:0:
137,232,1764,1,0,0:0:0:0:
181,322,1845,6,0,L|226:339,3,47.5
298,278,2166,2,0,L|361:255,3,47.5
225,217,2487,1,0,0:0:0:0:
318,121,2754,6,0,L|314:188,1,63.3333333333333
337,88,3128,6,0,L|331:183,1,95
322,323,3449,1,0,0:0:0:0:
447,260,3610,1,0,0:0:0:0:
447,260,3690,1,0,0:0:0:0:
447,260,3770,1,0,0:0:0:0:
251,130,3930,2,0,L|156:136,1,95
96,244,4251,1,0,0:0:0:0:
96,244,4332,1,0,0:0:0:0:
96,244,4412,5,0,0:0:0:0:
84,144,4572,1,0,0:0:0:0:
152,64,4733,2,0,L|247:58,1,95
261,58,4973,1,0,0:0:0:0:
275,58,5053,1,0,0:0:0:0:
289,57,5134,1,0,0:0:0:0:
303,57,5214,1,0,0:0:0:0:
429,60,5374,2,0,P|473:147|511:152,1,142.5
501,76,5695,6,0,P|497:118|495:171,1,95
233,154,11471,6,0,L|269:122,1,47.5,0|0,0:0|0:0,0:0:0:0:
201,301,11791,6,0,L|233:337,1,47.5,0|0,0:0|0:0,0:0:0:0:
54,269,12112,6,0,L|18:301,1,47.5,0|0,0:0|0:0,0:0:0:0:
86,122,12433,6,0,L|54:86,1,47.5,0|0,0:0|0:0,0:0:0:0:
325,348,12754,5,0,0:0:0:0:
54,269,12915,1,0,0:0:0:0:
332,330,13075,1,0,0:0:0:0:
454,147,21096,5,0,0:0:0:0:
453,161,21176,1,0,0:0:0:0:
452,175,21256,1,0,0:0:0:0:
451,189,21336,1,0,0:0:0:0:
450,203,21417,2,0,L|477:248,3,35.625001358986,0|0|0|0,0:0|0:0|0:0|0:0,0:0:0:0:
359,193,21738,2,0,L|340:162,3,35.625001358986,0|0|0|0,0:0|0:0|0:0|0:0,0:0:0:0:
320,277,22059,2,0,L|338:309,3,35.625001358986,0|0|0|0,0:0|0:0|0:0|0:0,0:0:0:0:
239,225,22380,5,0,0:0:0:0:
238,211,22460,1,0,0:0:0:0:
237,197,22540,1,0,0:0:0:0:
236,183,22620,1,0,0:0:0:0:
235,169,22701,2,0,L|216:138,3,35.625001358986,0|0|0|0,0:0|0:0|0:0|0:0,0:0:0:0:
239,225,23021,5,0,0:0:0:0:
206,238,23101,1,0,0:0:0:0:
171,238,23181,1,0,0:0:0:0:
139,223,23261,1,0,0:0:0:0:
114,197,23342,1,0,0:0:0:0:
81,182,23422,1,0,0:0:0:0:
46,182,23503,1,0,0:0:0:0:
13,195,23583,1,0,0:0:0:0:
2,228,23663,6,0,L|23:321,1,71.2500027179719,0|0,0:0|0:0,0:0:0:0:
114,197,23984,2,0,L|112:94,1,71.2500027179719,0|0,0:0|0:0,0:0:0:0:
226,228,24305,2,0,L|205:321,1,71.2500027179719,0|0,0:0|0:0,0:0:0:0:
343,278,24626,2,0,L|315:167,1,106.875004076958,0|0,0:0|0:0,0:0:0:0:
369,309,32647,5,0,0:0:0:0:
388,294,32727,1,0,0:0:0:0:
401,273,32807,1,0,0:0:0:0:
406,248,32887,1,0,0:0:0:0:
400,224,32967,5,0,0:0:0:0:
385,203,33048,1,0,0:0:0:0:
360,178,33128,1,0,0:0:0:0:
343,147,33208,1,0,0:0:0:0:
336,112,33288,1,0,0:0:0:0:
339,76,33368,1,0,0:0:0:0:
351,43,33449,1,0,0:0:0:0:
377,19,33529,1,0,0:0:0:0:
408,3,33609,5,0,0:0:0:0:
445,2,33690,1,0,0:0:0:0:
477,15,33770,1,0,0:0:0:0:
496,44,33851,1,0,0:0:0:0:
504,88,33930,6,0,L|512:192,1,90.2499975900651
391,297,34251,2,0,L|399:193,1,90.2499975900651
310,71,34572,2,0,L|284:172,1,90.2499975900651
510,177,34893,6,0,L|504:88,1,90.2499975900651,0|0,0:0|0:0,0:0:0:0:
287,158,35214,2,0,L|310:71,1,90.2499975900651
438,211,35535,2,0,P|486:259|522:263,1,90.2499975900651
358,204,35856,2,0,P|302:242|266:240,1,90.2499975900651
404,138,36176,2,0,L|412:49,1,90.2499975900651
279,158,36497,5,0,0:0:0:0:
390,297,39064,2,0,P|427:272|451:234,1,90.2499975900651,0|0,0:0|0:0,0:0:0:0:
323,23,39385,2,0,P|259:92|286:175,1,180.49999518013
431,128,39866,1,0,0:0:0:0:
347,108,40027,2,0,P|387:128|432:129,1,90.2499975900651,0|0,0:0|0:0,0:0:0:0:
218,230,40348,6,0,P|256:205|279:167,1,90.2499975900651
431,128,40668,2,0,P|493:189|485:276,1,180.49999518013,0|0,0:0|0:0,0:0:0:0:
403,222,41150,1,0,0:0:0:0:
342,285,41310,2,0,P|365:246|402:222,1,90.2499975900651,0|0,0:0|0:0,0:0:0:0:
512,333,41631,6,0,P|472:312|427:311,1,90.2499975900651,0|0,0:0|0:0,0:0:0:0:
238,184,41952,2,0,P|277:204|322:205,1,90.2499975900651,0|0,0:0|0:0,0:0:0:0:
257,0,43556,5,0,0:0:0:0:
136,328,43717,1,0,0:0:0:0:
240,15,43877,1,0,0:0:0:0:
256,192,86551,12,0,88476,0:0:0:0:
