osu file format v14

[General]
AudioFilename: audio.mp3
AudioLeadIn: 0
PreviewTime: 42273
Countdown: 0
SampleSet: None
StackLeniency: 0.2
Mode: 0
LetterboxInBreaks: 0
WidescreenStoryboard: 1

[Editor]
Bookmarks: 33930,39706,42273,47727,57995,62166,86390
DistanceSpacing: 1.1
BeatDivisor: 4
GridSize: 4
TimelineZoom: 1.7

[Metadata]
Title:On My MiND (TV Size)
TitleUnicode:On My MiND (TV Size)
Artist:Mrs. GREEN APPLE
ArtistUnicode:Mrs. GREEN APPLE
Creator:Aro
Version:Batsu
Source:Nana Maru San Batsu
Tags:Koshiyama Shiki opening quiz bowl bokuha bokuwa buzzer mondai 7O3X Fastest Finger First ナナマル サンバツ
BeatmapID:1411020
BeatmapSetID:665820

[Difficulty]
HPDrainRate:6.5
CircleSize:4
OverallDifficulty:8.5
ApproachRate:9.3
SliderMultiplier:1.9
SliderTickRate:1

[Events]
//Background and Video events
0,0,"image.png",0,0
//Break Periods
//Storyboard Layer 0 (Background)
//Storyboard Layer 1 (Fail)
//Storyboard Layer 2 (Pass)
//Storyboard Layer 3 (Foreground)
//Storyboard Sound Samples

[TimingPoints]
562,320.855614973262,4,3,1,50,1,0
2754,-200,4,3,1,65,0,0
2968,-200,4,3,1,5,0,0
3128,-100,4,3,1,65,0,0
11471,-100,4,3,1,65,0,0
11551,-100,4,3,1,5,0,0
11791,-100,4,3,1,65,0,0
11872,-100,4,3,1,5,0,0
12112,-100,4,3,1,65,0,0
12193,-100,4,3,1,5,0,0
12433,-100,4,3,1,65,0,0
12513,-100,4,3,1,5,0,0
12754,-100,4,3,1,65,0,0
13396,-133.333333333333,4,3,1,55,0,0
14358,-100,4,3,1,55,0,0
15321,-133.333333333333,4,3,1,55,0,0
16925,-100,4,3,1,55,0,0
18529,-133.333333333333,4,3,1,55,0,0
18850,-133.333333333333,4,3,1,60,0,0
19171,-133.333333333333,4,3,1,65,0,0
19492,-100,4,3,1,70,0,0
20455,-133.333333333333,4,3,1,55,0,0
23663,-133.333333333333,4,3,1,40,0,0
27193,-181.818181818181,4,3,1,40,0,0
27995,-181.818181818181,4,3,1,60,0,0
28797,-133.333333333333,4,3,1,65,0,0
33930,-105.263157894737,4,3,1,50,0,0
38422,-105.263157894737,4,3,1,60,0,0
39064,-105.263157894737,4,3,1,50,0,0
44198,-90.9090909090909,4,3,1,65,0,1
46444,-200,4,3,1,65,0,1
46765,-90.9090909090909,4,3,1,65,0,1
51578,-200,4,3,1,65,0,1
53182,-90.9090909090909,4,3,1,50,0,0
54465,-90.9090909090909,4,3,1,55,0,1
56711,-200,4,3,1,55,0,1
57032,-90.9090909090909,4,3,1,55,0,1
62166,-90.9090909090909,4,3,1,50,0,0
64733,-111.111111111111,4,3,1,45,0,0
65695,-90.9090909090909,4,3,1,45,0,0
67299,-111.111111111111,4,3,1,45,0,0
68262,-90.9090909090909,4,3,1,45,0,0
69866,-111.111111111111,4,3,1,45,0,0
70829,-90.9090909090908,4,3,1,45,0,0
71791,-111.111111111111,4,3,1,45,0,0
75000,-90.9090909090909,4,3,1,65,0,1
82380,-90.9090909090909,4,3,1,70,0,1
86390,-90.9090909090909,4,3,1,50,0,0

[HitObjects]
2,3,562,5,0,0:0:0:0:
15,22,642,1,0,0:0:0:0:
25,43,722,1,0,0:0:0:0:
31,66,802,1,0,0:0:0:0:
33,90,882,1,0,0:0:0:0:
31,113,963,1,0,0:0:0:0:
25,136,1043,1,0,0:0:0:0:
15,158,1123,1,0,0:0:0:0:
1,177,1203,5,0,0:0:0:0:
20,163,1283,1,0,0:0:0:0:
42,153,1363,1,0,0:0:0:0:
65,147,1443,1,0,0:0:0:0:
88,145,1524,1,0,0:0:0:0:
112,147,1604,1,0,0:0:0:0:
135,153,1684,1,0,0:0:0:0:
156,163,1764,1,0,0:0:0:0:
170,175,1845,6,0,L|181:90,3,47.5,0|0|0|0,0:0|0:0|0:0|0:0,0:0:0:0:
258,237,2166,6,0,L|269:322,3,47.5,0|0|0|0,0:0|0:0|0:0|0:0,0:0:0:0:
149,275,2487,1,0,0:0:0:0:
468,308,2754,6,0,B|454:334|454:334|478:380,1,71.25
411,193,3128,6,0,P|415:220|393:282,1,95,0|0,0:0|0:0,0:0:0:0:
496,108,3449,1,0,0:0:0:0:
293,105,3610,1,0,0:0:0:0:
293,105,3690,1,0,0:0:0:0:
293,105,3770,1,0,0:0:0:0:
392,282,3930,2,0,P|438:278|478:253,1,95,0|0,0:0|0:0,0:0:0:0:
257,248,4251,1,0,0:0:0:0:
257,248,4332,1,0,0:0:0:0:
257,248,4412,5,0,0:0:0:0:
411,193,4572,1,0,0:0:0:0:
224,44,4733,2,0,P|203:86|205:133,1,95,0|0,0:0|0:0,0:0:0:0:
196,160,4973,1,0,0:0:0:0:
185,186,5053,1,0,0:0:0:0:
174,212,5133,1,0,0:0:0:0:
163,239,5213,1,0,0:0:0:0:
38,315,5374,2,0,P|64:353|106:375,1,95,0|0,0:0|0:0,0:0:0:0:
185,186,5695,5,0,0:0:0:0:
332,316,5856,2,0,P|305:354|263:376,1,95,0|0,0:0|0:0,0:0:0:0:
463,359,6176,1,0,0:0:0:0:
463,359,6257,1,0,0:0:0:0:
463,359,6337,1,0,0:0:0:0:
262,196,6497,2,0,P|242:238|244:285,1,95,0|0,0:0|0:0,0:0:0:0:
457,140,6818,1,0,0:0:0:0:
312,0,6979,5,0,0:0:0:0:
312,0,7059,1,0,0:0:0:0:
312,0,7139,1,0,0:0:0:0:
378,177,7299,2,0,P|363:221|330:255,1,95,0|0,0:0|0:0,0:0:0:0:
286,174,7621,5,0,0:0:0:0:
263,181,7701,1,0,0:0:0:0:
239,182,7781,1,0,0:0:0:0:
216,179,7861,1,0,0:0:0:0:
194,171,7941,1,0,0:0:0:0:
172,160,8021,1,0,0:0:0:0:
150,152,8101,1,0,0:0:0:0:
126,148,8181,1,0,0:0:0:0:
103,150,8262,6,0,P|70:183|54:228,1,95,0|0,0:0|0:0,0:0:0:0:
63,250,8503,1,0,0:0:0:0:
78,267,8583,2,0,P|108:302|121:347,1,95,0|0,0:0|0:0,0:0:0:0:
239,90,8904,1,0,0:0:0:0:
289,273,9064,2,0,P|273:316|241:350,1,95,0|0,0:0|0:0,0:0:0:0:
103,150,9385,1,0,0:0:0:0:
245,191,9545,6,0,P|290:182|335:193,1,95,0|0,0:0|0:0,0:0:0:0:
406,341,9866,1,0,0:0:0:0:
410,349,10027,1,0,0:0:0:0:
418,150,10187,2,0,P|451:116|466:72,1,95,0|0,0:0|0:0,0:0:0:0:
336,193,10508,1,0,0:0:0:0:
506,245,10668,1,0,0:0:0:0:
376,367,10829,5,0,0:0:0:0:
363,360,10909,1,0,0:0:0:0:
351,353,10989,1,0,0:0:0:0:
338,347,11069,1,0,0:0:0:0:
325,340,11150,2,0,P|279:328|232:336,1,95,0|0,0:0|0:0,0:0:0:0:
233,154,11471,6,0,L|269:122,1,47.5,0|0,0:0|0:0,0:0:0:0:
201,301,11791,6,0,L|233:337,1,47.5,0|0,0:0|0:0,0:0:0:0:
54,269,12112,6,0,L|18:301,1,47.5,0|0,0:0|0:0,0:0:0:0:
86,122,12433,6,0,L|54:86,1,47.5,0|0,0:0|0:0,0:0:0:0:
325,348,12754,5,0,0:0:0:0:
45,269,12915,1,0,0:0:0:0:
332,330,13075,1,0,0:0:0:0:
483,276,13396,6,0,L|474:366,1,71.2500027179719,0|0,0:0|0:0,0:0:0:0:
415,233,13717,2,0,L|406:323,1,71.2500027179719,0|0,0:0|0:0,0:0:0:0:
339,260,13957,1,0,0:0:0:0:
339,260,14037,2,0,L|332:331,1,71.2500027179719,0|0,0:0|0:0,0:0:0:0:
241,178,14358,2,0,P|325:182|361:151,1,95,0|0,0:0|0:0,0:0:0:0:
328,22,14599,1,0,0:0:0:0:
328,22,14679,6,0,P|294:55|283:100,1,95,0|0,0:0|0:0,0:0:0:0:
422,175,15000,2,0,P|409:129|376:96,1,95,0|0,0:0|0:0,0:0:0:0:
225,37,15241,1,0,0:0:0:0:
225,37,15321,2,0,L|182:125,1,71.2500027179719,0|0,0:0|0:0,0:0:0:0:
314,164,15642,2,0,L|282:99,1,71.2500027179719,0|0,0:0|0:0,0:0:0:0:
81,37,15882,1,0,0:0:0:0:
81,37,15963,6,0,L|124:125,1,71.2500027179719,0|0,0:0|0:0,0:0:0:0:
0,165,16283,2,0,L|43:77,1,71.2500027179719,0|0,0:0|0:0,0:0:0:0:
162,37,16524,1,0,0:0:0:0:
162,37,16604,2,0,L|205:125,1,71.2500027179719,0|0,0:0|0:0,0:0:0:0:
314,165,16925,2,0,P|230:161|194:192,1,95,0|0,0:0|0:0,0:0:0:0:
227,321,17166,1,0,0:0:0:0:
227,321,17246,6,0,P|261:288|272:243,1,95,0|0,0:0|0:0,0:0:0:0:
133,168,17567,2,0,P|146:214|179:247,1,95
213,381,17888,2,0,L|166:378,1,47.5
327,384,18048,2,0,L|375:381,1,47.5
223,305,18209,2,0,L|196:267,1,47.5
317,308,18369,2,0,L|345:270,1,47.5
111,300,18529,6,0,L|45:275,1,71.2500027179719
37,121,18850,2,0,L|76:207,1,71.2500027179719
114,74,19091,1,0,0:0:0:0:
114,74,19171,2,0,L|140:8,1,71.2500027179719
293,0,19492,2,0,P|218:38|202:83,1,95,0|0,0:0|0:0,0:0:0:0:
295,178,19733,1,0,0:0:0:0:
295,178,19813,6,0,P|307:132|294:87,1,95,0|0,0:0|0:0,0:0:0:0:
137,93,20134,2,0,P|171:126|216:138,1,95,0|0,0:0|0:0,0:0:0:0:
376,114,20374,1,0,0:0:0:0:
376,114,20455,2,0,L|369:16,1,71.2500027179719,0|0,0:0|0:0,0:0:0:0:
235,48,20776,2,0,L|295:88,1,71.2500027179719,0|0,0:0|0:0,0:0:0:0:
454,147,21096,5,0,0:0:0:0:
453,161,21176,1,0,0:0:0:0:
452,175,21256,1,0,0:0:0:0:
451,189,21336,1,0,0:0:0:0:
450,203,21417,2,0,L|477:248,3,35.625001358986,0|0|0|0,0:0|0:0|0:0|0:0,0:0:0:0:
359,193,21738,2,0,L|340:162,3,35.625001358986,0|0|0|0,0:0|0:0|0:0|0:0,0:0:0:0:
320,277,22059,2,0,L|338:309,3,35.625001358986,0|0|0|0,0:0|0:0|0:0|0:0,0:0:0:0:
239,225,22380,5,0,0:0:0:0:
238,211,22460,1,0,0:0:0:0:
237,197,22540,1,0,0:0:0:0:
236,183,22620,1,0,0:0:0:0:
235,169,22701,2,0,L|216:138,3,35.625001358986,0|0|0|0,0:0|0:0|0:0|0:0,0:0:0:0:
239,225,23021,5,0,0:0:0:0:
206,238,23101,1,0,0:0:0:0:
171,238,23181,1,0,0:0:0:0:
139,223,23261,1,0,0:0:0:0:
114,197,23342,1,0,0:0:0:0:
81,182,23422,1,0,0:0:0:0:
46,182,23503,1,0,0:0:0:0:
13,195,23583,1,0,0:0:0:0:
2,228,23663,6,0,L|23:321,1,71.2500027179719,0|0,0:0|0:0,0:0:0:0:
114,197,23984,2,0,L|112:94,1,71.2500027179719,0|0,0:0|0:0,0:0:0:0:
226,228,24305,2,0,L|205:321,1,71.2500027179719,0|0,0:0|0:0,0:0:0:0:
343,278,24626,2,0,L|315:167,1,106.875004076958,0|0,0:0|0:0,0:0:0:0:
281,118,24947,6,0,P|301:165|345:176,1,71.2500027179719,0|0,0:0|0:0,0:0:0:0:
475,127,25267,2,0,L|371:100,1,106.875004076958,0|0,0:0|0:0,0:0:0:0:
351,71,25588,1,0,0:0:0:0:
343,278,25749,1,0,0:0:0:0:
456,197,25909,1,0,0:0:0:0:
281,118,26070,1,0,0:0:0:0:
165,218,26230,2,0,L|200:357,1,142.500005435944,0|0,0:0|0:0,0:0:0:0:
294,330,26872,5,0,0:0:0:0:
336,247,27193,6,0,P|400:285|449:275,2,104.500003189087,0|0|0,0:0|0:0|0:0,0:0:0:0:
411,190,27995,1,0,0:0:0:0:
294,330,28155,1,0,0:0:0:0:
250,211,28316,1,0,0:0:0:0:
169,310,28476,1,0,0:0:0:0:
204,105,28636,1,0,0:0:0:0:
337,249,28797,6,0,P|364:271|408:286,1,71.2500027179719,0|0,0:0|0:0,0:0:0:0:
492,91,29118,2,0,P|427:127|411:191,1,142.500005435944,0|0,0:0|0:0,0:0:0:0:
504,184,29599,1,0,0:0:0:0:
320,84,29759,2,0,P|325:119|321:155,1,71.2500027179719,0|0,0:0|0:0,0:0:0:0:
246,213,30080,6,0,P|274:236|307:249,1,71.2500027179719,0|0,0:0|0:0,0:0:0:0:
231,117,30401,2,0,P|159:96|103:130,1,142.500005435944,0|0,0:0|0:0,0:0:0:0:
173,192,30882,1,0,0:0:0:0:
64,45,31043,2,0,P|45:75|17:97,1,71.2500027179719,0|0,0:0|0:0,0:0:0:0:
46,264,31364,6,0,P|41:299|46:334,1,71.2500027179719,0|0,0:0|0:0,0:0:0:0:
264,237,31684,2,0,P|269:201|264:166,1,71.2500027179719,0|0,0:0|0:0,0:0:0:0:
133,295,32005,1,0,0:0:0:0:
308,344,32166,1,0,0:0:0:0:
264,166,32326,1,0,0:0:0:0:
193,328,32487,1,0,0:0:0:0:
369,309,32647,5,0,0:0:0:0:
388,294,32727,1,0,0:0:0:0:
401,273,32807,1,0,0:0:0:0:
406,248,32887,1,0,0:0:0:0:
400,224,32967,5,0,0:0:0:0:
385,203,33048,1,0,0:0:0:0:
360,178,33128,1,0,0:0:0:0:
343,147,33208,1,0,0:0:0:0:
336,112,33288,1,0,0:0:0:0:
339,76,33368,1,0,0:0:0:0:
351,43,33449,1,0,0:0:0:0:
377,19,33529,1,0,0:0:0:0:
408,3,33609,5,0,0:0:0:0:
445,2,33690,1,0,0:0:0:0:
477,15,33770,1,0,0:0:0:0:
496,44,33851,1,0,0:0:0:0:
504,88,33930,6,0,L|512:192,1,90.2499975900651
391,297,34251,2,0,L|399:193,1,90.2499975900651
310,71,34572,2,0,L|284:172,1,90.2499975900651
510,177,34893,6,0,L|504:88,1,90.2499975900651,0|0,0:0|0:0,0:0:0:0:
287,158,35214,2,0,L|310:71,1,90.2499975900651
438,211,35535,2,0,P|486:259|522:263,1,90.2499975900651
358,204,35856,2,0,P|302:242|266:240,1,90.2499975900651
404,138,36176,2,0,L|412:49,1,90.2499975900651
279,158,36497,5,0,0:0:0:0:
279,158,36818,2,0,P|217:129|201:96,1,90.2499975900651,0|0,0:0|0:0,0:0:0:0:
320,232,37139,2,0,P|258:260|242:293,1,90.2499975900651,0|0,0:0|0:0,0:0:0:0:
398,356,37460,2,0,P|354:347|322:316,1,90.2499975900651,0|0,0:0|0:0,0:0:0:0:
474,159,37781,5,0,0:0:0:0:
262,78,37941,1,0,0:0:0:0:
420,56,38102,1,0,0:0:0:0:
367,213,38262,1,0,0:0:0:0:
325,0,38422,5,0,0:0:0:0:
260,267,38583,1,0,0:0:0:0:
474,159,38743,1,0,0:0:0:0:
347,108,38904,1,0,0:0:0:0:
390,297,39064,2,0,P|427:272|451:234,1,90.2499975900651,0|0,0:0|0:0,0:0:0:0:
323,23,39385,2,0,P|259:92|286:175,1,180.49999518013
431,128,39866,1,0,0:0:0:0:
347,108,40027,2,0,P|387:128|432:129,1,90.2499975900651,0|0,0:0|0:0,0:0:0:0:
218,230,40348,6,0,P|256:205|279:167,1,90.2499975900651
431,128,40668,2,0,P|493:189|485:276,1,180.49999518013,0|0,0:0|0:0,0:0:0:0:
403,222,41150,1,0,0:0:0:0:
342,285,41310,2,0,P|365:246|402:222,1,90.2499975900651,0|0,0:0|0:0,0:0:0:0:
512,333,41631,6,0,P|472:312|427:311,1,90.2499975900651,0|0,0:0|0:0,0:0:0:0:
238,184,41952,2,0,P|277:204|322:205,1,90.2499975900651,0|0,0:0|0:0,0:0:0:0:
257,0,43556,5,0,0:0:0:0:
136,328,43717,1,0,0:0:0:0:
240,15,43877,1,0,0:0:0:0:
0,0,44198,5,0,0:0:0:0:
198,218,44358,1,0,0:0:0:0:
26,256,44518,1,0,0:0:0:0:
81,78,44679,1,0,0:0:0:0:
81,78,44759,1,0,0:0:0:0:
81,78,44840,2,0,P|144:57|176:5,1,104.500003189087,0|0,0:0|0:0,0:0:0:0:
277,184,45160,2,0,P|227:139|166:138,1,104.500003189087,0|0,0:0|0:0,0:0:0:0:
411,10,45481,5,0,0:0:0:0:
323,279,45642,1,0,0:0:0:0:
192,133,45802,1,0,0:0:0:0:
382,92,45962,1,0,0:0:0:0:
382,92,46042,1,0,0:0:0:0:
382,92,46123,2,0,P|448:88|492:46,1,104.500003189087,0|0,0:0|0:0,0:0:0:0:
483,191,46444,2,0,P|460:180|432:176,1,47.5
190,384,46765,5,0,0:0:0:0:
121,53,46925,1,0,0:0:0:0:
363,133,47086,1,0,0:0:0:0:
173,303,47246,1,0,0:0:0:0:
173,303,47326,1,0,0:0:0:0:
173,303,47406,2,0,P|117:339|100:397,1,104.500003189087,0|0,0:0|0:0,0:0:0:0:
256,192,47727,2,0,B|288:240|288:240|344:264,1,104.500003189087,0|0,0:0|0:0,0:0:0:0:
20,352,48048,6,0,B|45:300|45:300|38:239,1,104.500003189087,0|0,0:0|0:0,0:0:0:0:
152,68,48369,2,0,B|94:71|94:71|45:108,1,104.500003189087,0|0,0:0|0:0,0:0:0:0:
256,192,48690,1,0,0:0:0:0:
289,143,48770,1,0,0:0:0:0:
346,156,48850,1,0,0:0:0:0:
354,214,48930,1,0,0:0:0:0:
337,249,49011,2,0,L|339:353,1,104.500003189087
99,38,49332,5,0,0:0:0:0:
240,372,49492,1,0,0:0:0:0:
405,156,49652,1,0,0:0:0:0:
136,122,49813,1,0,0:0:0:0:
136,122,49893,1,0,0:0:0:0:
136,122,49973,2,0,P|84:119|40:146,1,104.500003189087,0|0,0:0|0:0,0:0:0:0:
80,310,50294,2,0,P|79:258|107:215,1,104.500003189087,0|0,0:0|0:0,0:0:0:0:
440,75,50615,5,0,0:0:0:0:
175,285,50775,1,0,0:0:0:0:
412,379,50936,1,0,0:0:0:0:
375,127,51096,1,0,0:0:0:0:
375,127,51176,1,0,0:0:0:0:
375,127,51257,2,0,P|360:76|376:28,1,104.500003189087,0|0,0:0|0:0,0:0:0:0:
256,48,51578,2,0,P|264:74|255:113,1,47.5
440,75,51898,5,0,0:0:0:0:
81,343,52059,1,0,0:0:0:0:
434,171,52380,5,0,0:0:0:0:
78,213,52541,1,0,0:0:0:0:
372,241,52861,5,0,0:0:0:0:
140,143,53022,1,0,0:0:0:0:
266,279,53342,5,0,0:0:0:0:
245,104,53503,1,0,0:0:0:0:
327,163,53663,1,0,0:0:0:0:
228,360,53824,2,0,P|278:369|323:345,1,104.500003189087
423,148,54144,2,0,P|405:100|362:73,1,104.500003189087,0|0,0:0|0:0,0:0:0:0:
47,190,54465,5,0,0:0:0:0:
327,163,54626,1,0,0:0:0:0:
230,27,54787,1,0,0:0:0:0:
161,180,54947,1,0,0:0:0:0:
161,180,55027,1,0,0:0:0:0:
161,180,55107,2,0,P|156:231|121:268,1,104.500003189087,0|0,0:0|0:0,0:0:0:0:
250,140,55428,2,0,P|220:98|171:83,1,104.500003189087,0|0,0:0|0:0,0:0:0:0:
304,383,55749,5,0,0:0:0:0:
67,189,55909,1,0,0:0:0:0:
36,377,56070,1,0,0:0:0:0:
214,311,56230,1,0,0:0:0:0:
214,311,56310,1,0,0:0:0:0:
214,311,56390,2,0,P|250:274|301:268,1,104.500003189087,0|0,0:0|0:0,0:0:0:0:
264,164,56711,2,0,P|248:172|206:172,1,47.5
328,0,57032,5,0,0:0:0:0:
417,276,57193,1,0,0:0:0:0:
247,241,57353,1,0,0:0:0:0:
362,111,57513,1,0,0:0:0:0:
362,111,57594,1,0,0:0:0:0:
362,111,57674,2,0,P|403:80|455:83,1,104.500003189087,0|0,0:0|0:0,0:0:0:0:
382,251,57995,6,0,B|411:207|411:207|459:188,1,104.500003189087,0|0,0:0|0:0,0:0:0:0:
187,205,58316,2,0,B|193:152|193:152|169:106,1,104.500003189087,0|0,0:0|0:0,0:0:0:0:
289,362,58637,2,0,B|238:358|238:358|194:325,1,104.500003189087,0|0,0:0|0:0,0:0:0:0:
169,106,58957,1,0,0:0:0:0:
227,95,59037,1,0,0:0:0:0:
258,145,59117,1,0,0:0:0:0:
223,192,59197,1,0,0:0:0:0:
186,204,59278,2,0,L|114:280,1,104.500003189087
379,364,59599,5,0,0:0:0:0:
168,106,59759,1,0,0:0:0:0:
399,45,59920,1,0,0:0:0:0:
318,299,60080,1,0,0:0:0:0:
318,299,60160,1,0,0:0:0:0:
317,298,60241,2,0,P|276:329|225:334,1,104.500003189087,0|0,0:0|0:0,0:0:0:0:
254,137,60561,2,0,P|260:188|239:234,1,104.500003189087,0|0,0:0|0:0,0:0:0:0:
269,38,60882,6,0,P|316:58|346:99,2,104.500003189087,0|0|0,0:0|0:0|0:0,0:0:0:0:
238,235,61364,1,0,0:0:0:0:
423,162,61524,2,0,P|444:114|438:63,1,104.500003189087,0|0,0:0|0:0,0:0:0:0:
500,224,61845,2,0,P|478:271|484:322,1,104.500003189087,0|0,0:0|0:0,0:0:0:0:
423,162,62166,5,0,0:0:0:0:
344,98,62326,2,0,P|386:67|438:63,1,104.500003189087,0|0,0:0|0:0,0:0:0:0:
267,36,62647,1,0,0:0:0:0:
317,298,62807,2,0,P|368:292|409:262,1,104.500003189087,0|0,0:0|0:0,0:0:0:0:
344,98,63128,1,0,0:0:0:0:
180,233,63289,1,0,0:0:0:0:
317,297,63449,6,0,P|337:250|332:199,1,104.500003189087,0|0,0:0|0:0,0:0:0:0:
327,190,63690,1,0,0:0:0:0:
320,181,63770,1,0,0:0:0:0:
409,262,63930,1,0,0:0:0:0:
346,100,64091,2,0,P|294:102|252:131,1,104.500003189087,0|0,0:0|0:0,0:0:0:0:
47,50,64412,2,0,P|98:47|140:18,1,104.500003189087,0|0,0:0|0:0,0:0:0:0:
118,197,64733,6,0,L|33:192,1,85.4999973907472,0|0,0:0|0:0,0:0:0:0:
203,201,65053,2,0,L|251:131,1,85.4999973907472,0|0,0:0|0:0,0:0:0:0:
156,273,65294,1,0,0:0:0:0:
156,273,65374,2,0,L|194:350,1,85.4999973907472,0|0,0:0|0:0,0:0:0:0:
293,213,65695,2,0,P|335:168|339:120,1,104.500003189087,0|0,0:0|0:0,0:0:0:0:
197,42,65936,1,0,0:0:0:0:
200,47,66016,6,0,P|217:105|257:133,1,104.500003189087,0|0,0:0|0:0,0:0:0:0:
394,41,66337,2,0,P|334:27|290:47,1,104.500003189087,0|0,0:0|0:0,0:0:0:0:
343,296,66658,2,0,L|398:194,1,104.500003189087,0|0,0:0|0:0,0:0:0:0:
152,132,66979,2,0,L|94:15,1,104.500003189087,0|0,0:0|0:0,0:0:0:0:
85,192,67219,1,0,0:0:0:0:
85,192,67299,6,0,L|38:98,1,85.4999973907472,0|0,0:0|0:0,0:0:0:0:
171,221,67620,2,0,L|252:248,1,85.4999973907472
108,291,67861,1,0,0:0:0:0:
108,291,67941,2,0,L|44:347,1,85.4999973907472,0|0,0:0|0:0,0:0:0:0:
248,341,68262,2,0,P|306:323|334:283,1,104.500003189087,0|0,0:0|0:0,0:0:0:0:
250,150,68503,1,0,0:0:0:0:
250,150,68583,6,0,P|235:208|256:252,1,104.500003189087,0|0,0:0|0:0,0:0:0:0:
421,242,68904,2,0,P|376:199|327:195,1,104.500003189087,0|0,0:0|0:0,0:0:0:0:
46,375,69225,2,0,L|111:368,1,52.2500015945435
291,372,69385,2,0,L|226:365,1,52.2500015945435
6,292,69545,2,0,L|94:300,1,52.2500015945435
331,289,69705,2,0,L|243:297,1,52.2500015945435
39,191,69866,6,0,L|-8:97,1,85.4999973907472,0|0,0:0|0:0,0:0:0:0:
111,123,70187,2,0,L|144:23,1,85.4999973907472,0|0,0:0|0:0,0:0:0:0:
209,125,70428,1,0,0:0:0:0:
209,125,70508,2,0,L|303:77,1,85.4999973907472,0|0,0:0|0:0,0:0:0:0:
263,194,70829,2,0,P|323:196|361:227,1,104.500003189087,0|0,0:0|0:0,0:0:0:0:
313,378,71070,1,0,0:0:0:0:
313,378,71150,6,0,P|283:325|292:277,1,104.500003189087,0|0,0:0|0:0,0:0:0:0:
455,244,71471,2,0,P|422:297|376:313,1,104.500003189087
263,194,71711,1,0,0:0:0:0:
263,194,71791,2,0,L|245:87,1,85.4999973907472,0|0,0:0|0:0,0:0:0:0:
371,137,72112,2,0,L|356:221,1,85.4999973907472,0|0,0:0|0:0,0:0:0:0:
266,379,72433,5,0,0:0:0:0:
245,384,72513,1,0,0:0:0:0:
224,384,72593,1,0,0:0:0:0:
203,380,72673,1,0,0:0:0:0:
183,371,72753,5,0,0:0:0:0:
165,358,72834,1,0,0:0:0:0:
144,336,72914,1,0,0:0:0:0:
126,312,72994,1,0,0:0:0:0:
111,286,73074,1,0,0:0:0:0:
99,259,73154,1,0,0:0:0:0:
90,230,73235,1,0,0:0:0:0:
84,201,73315,1,0,0:0:0:0:
82,171,73395,1,0,0:0:0:0:
83,141,73476,1,0,0:0:0:0:
87,112,73556,1,0,0:0:0:0:
95,83,73637,1,0,0:0:0:0:
106,55,73717,5,0,0:0:0:0:
124,78,73797,1,0,0:0:0:0:
145,99,73878,1,0,0:0:0:0:
169,118,73958,1,0,0:0:0:0:
194,133,74039,1,0,0:0:0:0:
221,147,74119,1,0,0:0:0:0:
250,157,74199,1,0,0:0:0:0:
278,163,74278,1,0,0:0:0:0:
308,163,74358,5,0,0:0:0:0:
305,205,74438,1,0,0:0:0:0:
302,247,74519,1,0,0:0:0:0:
299,289,74599,1,0,0:0:0:0:
296,331,74679,2,0,L|338:393,3,42.7499986953736,0|0|0|0,0:0|0:0|0:0|0:0,0:0:0:0:
417,331,75000,5,0,0:0:0:0:
489,84,75160,1,0,0:0:0:0:
250,157,75321,1,0,0:0:0:0:
447,238,75481,1,0,0:0:0:0:
447,238,75561,1,0,0:0:0:0:
447,238,75642,2,0,P|497:269|513:321,1,104.500003189087,0|0,0:0|0:0,0:0:0:0:
135,353,75963,1,0,0:0:0:0:
422,309,76123,1,0,0:0:0:0:
114,342,76283,5,0,0:0:0:0:
401,320,76444,1,0,0:0:0:0:
142,196,76604,1,0,0:0:0:0:
208,375,76765,1,0,0:0:0:0:
208,375,76845,1,0,0:0:0:0:
208,375,76925,2,0,P|259:380|303:353,1,104.500003189087,0|0,0:0|0:0,0:0:0:0:
74,123,77246,2,0,P|44:164|45:216,1,104.500003189087,0|0,0:0|0:0,0:0:0:0:
401,320,77567,5,0,0:0:0:0:
142,196,77727,1,0,0:0:0:0:
320,75,77888,1,0,0:0:0:0:
332,260,78048,1,0,0:0:0:0:
332,260,78128,1,0,0:0:0:0:
332,260,78209,2,0,P|333:311|303:353,1,104.500003189087,0|0,0:0|0:0,0:0:0:0:
19,91,78530,1,0,0:0:0:0:
236,281,78690,1,0,0:0:0:0:
13,66,78850,5,0,0:0:0:0:
214,272,79011,1,0,0:0:0:0:
193,13,79171,1,0,0:0:0:0:
46,259,79332,1,0,0:0:0:0:
298,120,79492,1,0,0:0:0:0:
73,252,79652,1,0,0:0:0:0:
336,135,79812,1,0,0:0:0:0:
100,247,79973,1,0,0:0:0:0:
372,153,80133,5,0,0:0:0:0:
90,100,80294,1,0,0:0:0:0:
186,371,80455,1,0,0:0:0:0:
306,129,80615,1,0,0:0:0:0:
306,129,80695,1,0,0:0:0:0:
305,128,80775,2,0,P|283:81|239:57,1,104.500003189087,0|0,0:0|0:0,0:0:0:0:
6,384,81096,1,0,0:0:0:0:
206,176,81256,1,0,0:0:0:0:
27,373,81416,5,0,0:0:0:0:
209,150,81577,1,0,0:0:0:0:
273,359,81738,2,0,P|324:363|367:337,1,104.500003189087,0|0,0:0|0:0,0:0:0:0:
92,114,82059,2,0,P|62:156|63:206,1,104.500003189087,0|0,0:0|0:0,0:0:0:0:
512,155,82380,2,0,P|490:108|445:84,1,104.500003189087,0|0,0:0|0:0,0:0:0:0:
160,288,82701,5,0,0:0:0:0:
436,168,82861,1,0,0:0:0:0:
436,168,82941,1,0,0:0:0:0:
436,168,83021,1,0,0:0:0:0:
272,152,83182,2,0,L|264:48,1,104.500003189087
445,84,83503,1,0,0:0:0:0:
380,320,83663,2,0,B|268:328,1,104.500003189087,0|0,0:0|0:0,0:0:0:0:
79,344,83984,5,0,0:0:0:0:
460,315,84144,1,0,0:0:0:0:
66,253,84305,5,0,0:0:0:0:
446,223,84465,1,0,0:0:0:0:
52,161,84626,5,0,0:0:0:0:
433,132,84786,1,0,0:0:0:0:
138,83,84947,2,0,B|26:69,1,104.500003189087,0|0,0:0|0:0,0:0:0:0:
275,327,85267,6,0,B|387:313,1,104.500003189087
320,96,85588,1,0,0:0:0:0:
128,344,85749,1,0,0:0:0:0:
484,184,85909,1,0,0:0:0:0:
160,108,86070,1,0,0:0:0:0:
496,72,86230,5,0,0:0:0:0:
66,253,86390,1,0,0:0:0:0:
256,192,86551,12,0,88476,0:0:0:0:
