osu file format v14

[General]
AudioFilename: audio.mp3
AudioLeadIn: 0
PreviewTime: 42273
Countdown: 0
SampleSet: None
StackLeniency: 0.2
Mode: 0
LetterboxInBreaks: 0
WidescreenStoryboard: 1

[Editor]
Bookmarks: 33930,39706,42273,43556,47727,57995,62166,86390
DistanceSpacing: 2.5
BeatDivisor: 4
GridSize: 4
TimelineZoom: 1.7

[Metadata]
Title:On My MiND (TV Size)
TitleUnicode:On My MiND (TV Size)
Artist:Mrs. GREEN APPLE
ArtistUnicode:Mrs. GREEN APPLE
Creator:Aro
Version:hitsounds (not done)
Source:Nana Maru San Batsu
Tags:
BeatmapID:1412686
BeatmapSetID:665820

[Difficulty]
HPDrainRate:6
CircleSize:4
OverallDifficulty:8.5
ApproachRate:9.3
SliderMultiplier:1.9
SliderTickRate:1

[Events]
//Background and Video events
0,0,"image.png",0,0
//Break Periods
2,42312,43002
//Storyboard Layer 0 (Background)
//Storyboard Layer 1 (Fail)
//Storyboard Layer 2 (Pass)
//Storyboard Layer 3 (Foreground)
//Storyboard Sound Samples

[TimingPoints]
562,320.855614973262,4,3,1,50,1,0
2754,-200,4,3,1,65,0,0
2968,-200,4,3,1,5,0,0
3128,-100,4,3,1,65,0,0
11471,-100,4,3,1,65,0,0
11551,-100,4,3,1,5,0,0
11791,-100,4,3,1,65,0,0
11872,-100,4,3,1,5,0,0
12112,-100,4,3,1,65,0,0
12193,-100,4,3,1,5,0,0
12433,-100,4,3,1,65,0,0
12513,-100,4,3,1,5,0,0
12754,-100,4,3,1,65,0,0
13396,-133.333333333333,4,3,1,55,0,0
14358,-100,4,3,1,55,0,0
15321,-133.333333333333,4,3,1,55,0,0
16925,-100,4,3,1,55,0,0
18529,-133.333333333333,4,3,1,55,0,0
18850,-133.333333333333,4,3,1,60,0,0
19171,-133.333333333333,4,3,1,65,0,0
19492,-100,4,3,1,70,0,0
20455,-133.333333333333,4,3,1,55,0,0
23663,-133.333333333333,4,3,1,40,0,0
27193,-181.818181818181,4,3,1,40,0,0
27995,-181.818181818181,4,3,1,60,0,0
28797,-133.333333333333,4,3,1,65,0,0
33930,-105.263157894737,4,3,1,50,0,0
38422,-105.263157894737,4,3,1,60,0,0
39064,-105.263157894737,4,3,1,50,0,0
44198,-90.9090909090909,4,3,1,65,0,1
46444,-200,4,3,1,65,0,1
46765,-90.9090909090909,4,3,1,65,0,1
51578,-200,4,3,1,65,0,1
53182,-90.9090909090909,4,3,1,50,0,0
54465,-90.9090909090909,4,3,1,55,0,1
56711,-200,4,3,1,55,0,1
57032,-90.9090909090909,4,3,1,55,0,1
62166,-90.9090909090909,4,3,1,50,0,0
64733,-111.111111111111,4,3,1,45,0,0
65695,-90.9090909090909,4,3,1,45,0,0
67299,-111.111111111111,4,3,1,45,0,0
68262,-90.9090909090909,4,3,1,45,0,0
69866,-111.111111111111,4,3,1,45,0,0
70829,-90.9090909090908,4,3,1,45,0,0
71791,-111.111111111111,4,3,1,45,0,0
75000,-90.9090909090909,4,3,1,65,0,1
82380,-90.9090909090909,4,3,1,70,0,1
86390,-90.9090909090909,4,3,1,50,0,0

[HitObjects]
196,140,882,5,8,0:0:0:0:
196,140,1043,1,8,0:0:0:0:
196,140,1283,1,8,0:0:0:0:
196,140,1364,1,8,0:0:0:0:
196,140,1524,1,8,0:0:0:0:
196,140,1765,1,8,0:0:0:0:
196,140,2005,1,8,0:0:0:0:
196,140,2246,1,8,0:0:0:0:
196,140,2487,1,8,0:0:0:0:
196,140,3128,1,14,0:0:0:0:
196,140,3449,1,8,0:0:0:0:
196,140,3610,1,2,0:0:0:0:
196,140,3690,1,2,0:0:0:0:
196,140,3770,1,2,0:0:0:0:
196,140,4091,1,8,0:0:0:0:
196,140,4332,1,12,0:0:0:0:
196,140,4412,1,6,0:0:0:0:
196,140,4572,1,2,0:0:0:0:
196,140,4733,1,8,0:0:0:0:
196,140,4973,1,8,0:0:0:0:
196,140,5053,1,2,0:0:0:0:
196,140,5134,1,8,0:0:0:0:
196,140,5214,1,2,0:0:0:0:
196,140,5374,1,8,0:0:0:0:
196,140,5615,1,8,0:0:0:0:
196,140,5695,5,0,0:0:0:0:
196,140,5856,1,2,0:0:0:0:
196,140,6016,1,6,0:0:0:0:
196,140,6257,1,8,0:0:0:0:
196,140,6337,1,2,0:0:0:0:
196,140,6497,1,2,0:0:0:0:
196,140,6658,1,8,0:0:0:0:
196,140,6898,1,8,0:0:0:0:
196,140,6979,1,2,0:0:0:0:
196,140,7139,1,2,0:0:0:0:
196,140,7299,1,8,0:0:0:0:
196,140,7620,1,2,0:0:0:0:
196,140,7701,1,8,0:0:0:0:
196,140,7781,1,2,0:0:0:0:
196,140,7861,1,8,0:0:0:0:
196,140,7941,1,2,0:0:0:0:
196,140,8021,1,8,0:0:0:0:
196,140,8102,1,2,0:0:0:0:
196,140,8182,1,8,0:0:0:0:
196,140,8262,1,2,0:0:0:0:
196,140,8583,1,8,0:0:0:0:
196,140,8904,1,2,0:0:0:0:
196,140,9225,1,8,0:0:0:0:
204,132,9545,1,6,0:0:0:0:
204,136,9706,1,8,0:0:0:0:
204,136,9866,1,2,0:0:0:0:
204,136,10187,1,2,0:0:0:0:
204,132,10348,1,8,0:0:0:0:
200,128,10668,1,8,0:0:0:0:
200,128,10829,1,6,0:0:0:0:
200,128,11150,1,8,0:0:0:0:
200,128,11310,1,2,0:0:0:0:
120,140,12754,1,14,0:0:0:0:
120,140,12914,1,14,0:0:0:0:
120,140,13075,1,14,0:0:0:0:
120,140,13396,1,14,0:0:0:0:
120,140,13556,1,2,0:0:0:0:
120,140,13717,1,0,0:0:0:0:
120,140,13957,1,8,0:0:0:0:
120,140,14037,1,2,0:0:0:0:
120,140,14198,1,2,0:0:0:0:
120,140,14358,1,14,0:0:0:0:
120,140,14599,1,8,0:0:0:0:
120,140,14679,1,2,0:0:0:0:
120,140,14840,1,2,0:0:0:0:
120,140,15000,1,8,0:0:0:0:
120,140,15241,1,8,0:0:0:0:
120,140,15321,1,2,0:0:0:0:
120,140,15481,1,2,0:0:0:0:
120,140,15642,1,14,0:0:0:0:
120,140,15882,1,8,0:0:0:0:
120,140,15963,1,2,0:0:0:0:
120,140,16123,1,2,0:0:0:0:
120,140,16283,1,8,0:0:0:0:
120,140,16524,1,8,0:0:0:0:
120,140,16604,1,2,0:0:0:0:
120,140,16765,1,2,0:0:0:0:
120,140,16925,1,8,0:0:0:0:
120,140,17166,1,8,0:0:0:0:
120,140,17246,1,14,0:0:0:0:
120,140,17406,1,2,0:0:0:0:
120,140,17567,1,8,0:0:0:0:
120,140,17807,1,8,0:0:0:0:
120,140,17888,1,2,0:0:0:0:
120,140,17968,1,8,0:0:0:0:
120,140,18048,1,2,0:0:0:0:
120,140,18128,1,8,0:0:0:0:
120,140,18209,1,8,0:0:0:0:
120,140,18289,1,8,0:0:0:0:
120,140,18369,1,8,0:0:0:0:
120,140,18449,1,8,0:0:0:0:
120,140,18529,1,8,0:0:0:0:
120,140,18690,1,2,0:0:0:0:
120,140,18850,1,0,0:0:0:0:
120,140,19091,1,8,0:0:0:0:
120,140,19171,1,2,0:0:0:0:
120,140,19332,1,2,0:0:0:0:
120,140,19492,1,14,0:0:0:0:
120,140,19733,1,8,0:0:0:0:
120,140,19813,1,2,0:0:0:0:
120,140,20134,1,8,0:0:0:0:
120,140,20374,1,8,0:0:0:0:
120,140,20455,1,2,0:0:0:0:
120,140,20535,1,2,0:0:0:0:
120,140,20615,1,2,0:0:0:0:
120,140,20775,1,14,0:0:0:0:
120,140,21096,1,2,0:0:0:0:
120,140,21417,1,2,0:0:0:0:
120,140,21578,1,0,0:0:0:0:
120,140,21898,1,2,0:0:0:0:
120,140,22059,1,2,0:0:0:0:
120,140,22299,1,8,0:0:0:0:
120,140,22380,1,2,0:0:0:0:
120,140,22540,1,6,0:0:0:0:
120,140,22701,1,2,0:0:0:0:
120,140,22781,1,8,0:0:0:0:
120,140,23021,1,14,0:0:0:0:
120,140,23182,1,2,0:0:0:0:
120,140,23342,1,2,0:0:0:0:
120,140,23422,1,8,0:0:0:0:
120,140,23503,1,8,0:0:0:0:
120,140,23583,1,8,0:0:0:0:
120,140,23663,1,14,0:0:0:0:
120,140,23984,1,2,0:0:0:0:
120,140,24305,1,2,0:0:0:0:
120,140,24626,1,2,0:0:0:0:
120,140,24947,1,2,0:0:0:0:
120,140,25267,1,2,0:0:0:0:
120,140,25588,1,2,0:0:0:0:
120,140,25749,1,14,0:0:0:0:
120,140,25909,1,2,0:0:0:0:
120,140,26070,1,14,0:0:0:0:
120,140,26230,1,2,0:0:0:0:
120,140,26551,1,2,0:0:0:0:
120,140,26872,1,2,0:0:0:0:
120,140,27193,1,2,0:0:0:0:
120,140,27513,1,2,0:0:0:0:
120,140,27834,1,2,0:0:0:0:
120,140,27995,1,14,0:0:0:0:
120,140,28155,1,10,0:0:0:0:
120,140,28316,1,10,0:0:0:0:
120,140,28476,1,2,0:0:0:0:
120,140,28636,1,8,0:0:0:0:
120,140,28797,1,2,0:0:0:0:
120,140,29118,1,2,0:0:0:0:
120,140,29439,1,2,0:0:0:0:
120,140,29759,1,2,0:0:0:0:
120,140,30080,1,2,0:0:0:0:
120,140,30401,1,2,0:0:0:0:
120,140,30722,1,2,0:0:0:0:
120,140,30882,1,14,0:0:0:0:
120,140,31043,1,2,0:0:0:0:
120,140,31203,1,14,0:0:0:0:
120,140,31364,1,2,0:0:0:0:
120,140,31684,1,2,0:0:0:0:
120,140,32005,1,2,0:0:0:0:
120,140,32326,1,2,0:0:0:0:
120,140,32647,1,14,0:0:0:0:
120,140,32727,1,2,0:0:0:0:
120,140,32807,1,2,0:0:0:0:
120,140,32888,1,2,0:0:0:0:
120,140,32968,1,2,0:0:0:0:
120,140,33048,1,2,0:0:0:0:
120,140,33128,1,2,0:0:0:0:
120,140,33209,1,2,0:0:0:0:
120,140,33289,1,2,0:0:0:0:
120,140,33369,1,2,0:0:0:0:
120,140,33449,1,2,0:0:0:0:
120,140,33529,1,2,0:0:0:0:
120,140,33610,1,2,0:0:0:0:
120,140,33690,1,2,0:0:0:0:
120,140,33770,1,2,0:0:0:0:
120,140,33850,1,2,0:0:0:0:
120,140,33930,1,6,0:0:0:0:
120,140,34251,1,8,0:0:0:0:
120,140,34572,1,2,0:0:0:0:
120,140,34733,1,14,0:0:0:0:
120,140,35053,1,14,0:0:0:0:
120,140,35374,1,2,0:0:0:0:
120,140,35535,1,14,0:0:0:0:
120,140,36016,1,2,0:0:0:0:
120,140,36176,1,14,0:0:0:0:
120,140,36497,1,2,0:0:0:0:
120,140,36658,1,2,0:0:0:0:
120,140,36818,1,14,0:0:0:0:
120,140,37139,1,2,0:0:0:0:
120,140,37299,1,14,0:0:0:0:
120,140,37620,1,14,0:0:0:0:
120,140,37941,1,2,0:0:0:0:
120,140,38102,1,14,0:0:0:0:
120,140,38262,1,2,0:0:0:0:
120,140,38583,1,2,0:0:0:0:
120,140,38743,1,2,0:0:0:0:
120,140,39064,1,2,0:0:0:0:
120,140,39225,1,2,0:0:0:0:
120,140,39385,1,0,0:0:0:0:
120,140,39706,1,2,0:0:0:0:
120,140,39866,1,14,0:0:0:0:
120,140,40187,1,14,0:0:0:0:
120,140,40508,1,2,0:0:0:0:
120,140,40668,1,14,0:0:0:0:
120,140,40989,1,2,0:0:0:0:
120,140,41310,1,14,0:0:0:0:
120,140,41631,1,2,0:0:0:0:
120,140,41791,1,2,0:0:0:0:
120,140,41952,1,14,0:0:0:0:
120,140,42112,1,8,0:0:0:0:
120,140,43556,5,10,0:0:0:0:
120,140,43717,1,10,0:0:0:0:
120,140,43877,1,10,0:0:0:0:
