osu file format v14

[General]
AudioFilename: audio.mp3
AudioLeadIn: 0
PreviewTime: 42273
Countdown: 0
SampleSet: None
StackLeniency: 0.6
Mode: 0
LetterboxInBreaks: 0
WidescreenStoryboard: 0

[Editor]
DistanceSpacing: 1.1
BeatDivisor: 4
GridSize: 4
TimelineZoom: 1.7

[Metadata]
Title:On My MiND (TV Size)
TitleUnicode:On My MiND (TV Size)
Artist:Mrs. GREEN APPLE
ArtistUnicode:Mrs. GREEN APPLE
Creator:Aro
Version:Hazu's Insane
Source:Nana Maru San Batsu
Tags:Koshiyama Shiki opening quiz bowl bokuha bokuwa buzzer mondai 7O3X Fastest Finger First ナナマル サンバツ
BeatmapID:1493712
BeatmapSetID:665820

[Difficulty]
HPDrainRate:6
CircleSize:4
OverallDifficulty:8
ApproachRate:9
SliderMultiplier:1.7
SliderTickRate:1

[Events]
//Background and Video events
0,0,"image.png",0,0
//Break Periods
//Storyboard Layer 0 (Background)
//Storyboard Layer 1 (Fail)
//Storyboard Layer 2 (Pass)
//Storyboard Layer 3 (Foreground)
//Storyboard Sound Samples

[TimingPoints]
562,320.855614973262,4,3,1,50,1,0
2567,-100,4,3,1,5,0,0
3128,-100,4,3,1,60,0,0
13957,-100,4,3,1,5,0,0
14037,-100,4,3,1,60,0,0
15241,-100,4,3,1,5,0,0
15321,-100,4,3,1,60,0,0
16524,-100,4,3,1,5,0,0
16604,-100,4,3,1,60,0,0
19091,-100,4,3,1,5,0,0
19171,-100,4,3,1,60,0,0
20374,-100,4,3,1,5,0,0
20455,-100,4,3,1,60,0,0
23663,-133.333333333333,4,3,1,40,0,0
33930,-125,4,3,1,45,0,0
42032,-125,4,3,1,5,0,0
43556,-100,4,3,1,50,0,0
44198,-90.9090909090909,4,3,1,65,0,1
46524,-90.9090909090909,4,3,1,5,0,1
46765,-90.9090909090909,4,3,1,65,0,1
51658,-90.9090909090909,4,3,1,5,0,1
51898,-90.9090909090909,4,3,1,65,0,1
56791,-90.9090909090909,4,3,1,5,0,1
57032,-90.9090909090909,4,3,1,65,0,1
64091,-90.9090909090909,4,3,1,50,0,0
64733,-90.9090909090909,4,3,1,65,0,1
65294,-90.9090909090909,4,3,1,5,0,1
65374,-90.9090909090909,4,3,1,65,0,1
66578,-90.9090909090909,4,3,1,5,0,1
66658,-90.9090909090909,4,3,1,65,0,1
67861,-90.9090909090909,4,3,1,5,0,1
67941,-90.9090909090909,4,3,1,65,0,1
70428,-90.9090909090909,4,3,1,5,0,1
70508,-90.9090909090909,4,3,1,65,0,1
71711,-90.9090909090909,4,3,1,5,0,1
71791,-90.9090909090909,4,3,1,65,0,1
80695,-90.9090909090909,4,3,1,5,0,1
80775,-90.9090909090909,4,3,1,65,0,1
81979,-90.9090909090909,4,3,1,5,0,1
82059,-90.9090909090909,4,3,1,65,0,1
86390,-90.9090909090909,4,3,1,50,0,0
88476,-90.9090909090909,4,3,1,5,0,0

[Colours]
Combo1 : 234,145,85
Combo2 : 36,146,255
Combo3 : 252,225,143
Combo4 : 237,126,173

[HitObjects]
188,80,562,6,0,L|192:132,3,42.5
232,216,882,2,0,L|236:268,3,42.5
296,336,1203,1,0,0:0:0:0:
334,353,1283,1,0,0:0:0:0:
376,353,1363,1,0,0:0:0:0:
413,334,1443,1,0,0:0:0:0:
439,300,1524,2,0,L|435:239,3,42.5
376,152,1845,5,0,0:0:0:0:
341,128,1925,1,0,0:0:0:0:
300,115,2005,1,0,0:0:0:0:
258,120,2085,1,0,0:0:0:0:
222,141,2165,1,0,0:0:0:0:
185,162,2246,1,0,0:0:0:0:
144,171,2326,1,0,0:0:0:0:
102,163,2406,1,0,0:0:0:0:
65,142,2487,2,0,P|72:168|76:212,1,42.5
36,120,3128,6,0,P|48:188|60:316,1,170
136,72,3610,1,0,0:0:0:0:
136,72,3690,1,0,0:0:0:0:
136,72,3770,1,0,0:0:0:0:
236,208,3930,2,0,P|204:204|144:200,1,85
360,268,4251,1,0,0:0:0:0:
296,64,4412,6,0,P|300:112|304:168,1,85
476,264,4733,2,0,P|472:221|468:179,1,85
440,155,4973,1,0,0:0:0:0:
438,130,5053,1,0,0:0:0:0:
436,105,5133,1,0,0:0:0:0:
434,79,5213,1,0,0:0:0:0:
384,252,5374,1,0,0:0:0:0:
392,272,5695,5,0,0:0:0:0:
252,132,5856,2,0,P|204:124|144:136,1,85
0,228,6176,2,0,P|48:236|108:224,1,85
224,288,6497,1,0,0:0:0:0:
168,128,6658,1,0,0:0:0:0:
140,336,6818,1,0,0:0:0:0:
300,184,6979,6,0,P|296:132|292:64,1,85
448,296,7299,2,0,P|404:256|304:296,1,170
264,352,7701,1,0,0:0:0:0:
268,368,7781,1,0,0:0:0:0:
168,204,7941,1,0,0:0:0:0:
171,174,8021,1,0,0:0:0:0:
172,144,8101,1,0,0:0:0:0:
174,114,8181,1,0,0:0:0:0:
176,85,8262,6,0,B|260:56|260:120|352:84,1,170
512,28,8743,2,0,P|504:88|500:136,1,85
368,208,9064,2,0,P|376:268|380:316,1,85
420,48,9385,1,0,0:0:0:0:
148,84,9546,6,0,P|212:60|308:144,1,170
44,20,10027,1,0,0:0:0:0:
80,184,10187,2,0,P|84:220|87:268,1,85
212,160,10508,1,0,0:0:0:0:
212,160,10668,1,0,0:0:0:0:
0,160,10829,5,0,0:0:0:0:
1,189,10909,1,0,0:0:0:0:
3,219,10989,1,0,0:0:0:0:
5,249,11069,1,0,0:0:0:0:
6,278,11150,2,0,P|60:260|108:256,1,85
272,304,11471,5,0,0:0:0:0:
192,232,11791,1,0,0:0:0:0:
208,360,12112,1,0,0:0:0:0:
272,204,12433,1,0,0:0:0:0:
116,312,12754,5,0,0:0:0:0:
376,272,12914,1,0,0:0:0:0:
48,192,13075,1,0,0:0:0:0:
32,200,13396,6,0,P|36:160|40:104,1,85
228,12,13717,2,0,P|224:68|220:168,1,127.5
216,220,14037,1,0,0:0:0:0:
312,88,14198,1,0,0:0:0:0:
112,152,14358,2,0,P|120:196|124:248,1,85
296,356,14679,6,0,P|299:313|307:271,1,85
312,88,15000,2,0,P|260:120|176:100,1,127.5
128,76,15321,1,0,0:0:0:0:
228,232,15481,1,0,0:0:0:0:
40,132,15642,2,0,P|28:88|32:44,1,85
236,12,15963,6,0,P|232:56|228:112,1,85
352,256,16283,2,0,P|388:208|372:124,1,127.5
336,76,16604,1,0,0:0:0:0:
496,176,16765,1,0,0:0:0:0:
280,160,16925,2,0,P|240:156|184:156,1,85
0,264,17246,6,0,P|42:263|84:259,1,85
292,256,17567,2,0,P|252:252|196:252,1,85
412,176,17888,1,0,0:0:0:0:
360,356,18048,1,0,0:0:0:0:
416,152,18209,1,0,0:0:0:0:
472,348,18369,1,0,0:0:0:0:
288,152,18529,6,0,P|292:184|296:256,1,85
164,348,18850,2,0,P|116:316|104:236,1,127.5
112,168,19171,1,0,0:0:0:0:
0,308,19332,1,0,0:0:0:0:
188,264,19492,2,0,P|224:260|280:256,1,85
504,188,19813,6,0,P|461:184|419:180,1,85
264,52,20134,2,0,B|276:96|276:96|272:204,1,127.5
268,256,20455,1,0,0:0:0:0:
176,92,20615,1,0,0:0:0:0:
364,232,20775,2,0,L|364:328,1,85
216,376,21096,5,0,0:0:0:0:
175,364,21176,1,0,0:0:0:0:
133,356,21256,1,0,0:0:0:0:
91,350,21336,1,0,0:0:0:0:
48,348,21417,2,0,L|0:352,3,42.5
153,207,21738,5,0,0:0:0:0:
194,219,21818,1,0,0:0:0:0:
236,227,21898,1,0,0:0:0:0:
278,233,21978,1,0,0:0:0:0:
321,235,22059,2,0,L|369:231,3,42.5
488,136,22380,5,0,0:0:0:0:
484,94,22460,1,0,0:0:0:0:
461,58,22540,1,0,0:0:0:0:
424,38,22620,1,0,0:0:0:0:
382,38,22701,2,0,L|316:44,3,42.5
112,80,23021,5,0,0:0:0:0:
76,102,23101,1,0,0:0:0:0:
56,139,23181,1,0,0:0:0:0:
56,181,23261,1,0,0:0:0:0:
76,218,23341,1,0,0:0:0:0:
111,241,23422,1,0,0:0:0:0:
153,244,23502,1,0,0:0:0:0:
191,227,23582,1,0,0:0:0:0:
217,194,23663,6,0,P|260:184|340:240,1,127.500004863739
456,328,24305,2,0,P|448:280|440:184,1,127.500004863739
324,72,24947,2,0,P|318:135|308:198,2,127.500004863739
408,176,25749,1,0,0:0:0:0:
236,120,25909,1,0,0:0:0:0:
428,180,26070,1,0,0:0:0:0:
196,212,26230,6,0,P|204:272|208:344,1,127.500004863739
328,176,26872,2,0,P|340:104|312:40,1,127.500004863739
104,104,27513,2,0,P|108:160|112:244,1,127.500004863739
80,316,27995,1,0,0:0:0:0:
200,276,28155,2,0,P|231:273|263:277,1,63.7500024318696
396,344,28476,2,0,P|364:347|332:345,1,63.7500024318696
500,240,28797,6,0,P|492:304|488:380,1,127.500004863739
368,192,29439,2,0,P|320:172|244:200,1,127.500004863739
504,288,30080,2,0,P|500:224|492:161,2,127.500004863739
408,220,30882,1,0,0:0:0:0:
452,376,31043,1,0,0:0:0:0:
400,196,31203,1,0,0:0:0:0:
292,360,31364,6,0,P|244:352|152:348,1,127.500004863739
0,236,32005,2,0,P|63:233|126:223,1,127.500004863739
316,128,32647,5,0,0:0:0:0:
324,144,32727,1,0,0:0:0:0:
332,160,32807,2,0,P|336:192|336:216,1,31.8750012159348
264,356,32968,1,0,0:0:0:0:
256,340,33048,1,0,0:0:0:0:
248,324,33128,2,0,P|244:292|244:268,1,31.8750012159348
432,248,33289,5,0,0:0:0:0:
455,268,33369,1,0,0:0:0:0:
465,298,33449,1,0,0:0:0:0:
458,329,33529,1,0,0:0:0:0:
437,351,33609,1,0,0:0:0:0:
406,360,33690,1,0,0:0:0:0:
376,351,33770,1,0,0:0:0:0:
354,328,33850,1,0,0:0:0:0:
348,297,33930,6,0,P|344:344|344:380,1,68
264,204,34251,1,0,0:0:0:0:
264,204,34572,1,0,0:0:0:0:
184,280,34733,2,0,P|144:284|108:280,1,68
0,204,35053,6,0,B|12:248|12:248|4:340,1,136
104,140,35535,2,0,P|164:116|232:140,1,136
328,228,36016,1,0,0:0:0:0:
328,64,36176,2,0,P|324:96|320:148,1,68
232,296,36497,6,0,P|229:262|224:228,1,68
200,68,36818,1,0,0:0:0:0:
200,68,37139,1,0,0:0:0:0:
60,156,37299,2,0,P|93:158|127:162,1,68
340,120,37620,6,0,P|306:124|272:126,1,68
432,40,37941,1,0,0:0:0:0:
452,180,38102,2,0,P|448:208|444:256,1,68
432,264,38342,1,0,0:0:0:0:
420,280,38422,2,0,P|424:308|428:356,1,68
304,236,38743,2,0,P|308:264|312:312,1,68
184,168,39064,6,0,P|188:196|192:244,1,68
260,68,39385,1,0,0:0:0:0:
260,68,39706,1,0,0:0:0:0:
416,120,39866,2,0,P|376:124|340:124,1,68
183,34,40187,6,0,B|159:98|203:98|183:170,1,136
88,288,40668,2,0,P|84:228|72:144,1,136
100,40,41150,1,0,0:0:0:0:
183,167,41310,2,0,P|220:168|264:164,1,68
436,132,41631,5,0,0:0:0:0:
304,20,41791,1,0,0:0:0:0:
344,200,41952,2,0,L|352:248,1,34
356,256,43556,5,0,0:0:0:0:
132,192,43717,1,0,0:0:0:0:
456,164,43877,1,0,0:0:0:0:
464,176,44198,6,0,P|456:280|452:368,1,187.000005706787
276,88,44679,1,0,0:0:0:0:
280,100,44759,1,0,0:0:0:0:
284,112,44840,2,0,P|288:164|292:232,1,93.5000028533936
172,376,45160,2,0,P|174:329|178:282,1,93.5000028533936
432,232,45481,6,0,P|388:296|256:284,1,187.000005706787
72,176,45963,1,0,0:0:0:0:
76,188,46043,1,0,0:0:0:0:
80,200,46123,2,0,P|88:260|88:312,1,93.5000028533936
200,68,46444,2,0,L|196:120,1,46.7500014266968
224,40,46765,6,0,P|220:116|216:244,1,187.000005706787
440,160,47246,1,0,0:0:0:0:
432,152,47326,1,0,0:0:0:0:
424,144,47406,2,0,P|368:132|304:136,1,93.5000028533936
124,238,47727,2,0,P|170:236|216:225,1,93.5000028533936
0,128,48048,5,0,0:0:0:0:
0,128,48209,1,0,0:0:0:0:
184,40,48369,2,0,P|180:72|176:144,1,93.5000028533936
36,340,48690,2,0,P|33:293|28:246,1,93.5000028533936
216,225,49011,1,0,0:0:0:0:
245,258,49091,1,0,0:0:0:0:
231,301,49171,1,0,0:0:0:0:
188,311,49251,1,0,0:0:0:0:
157,279,49332,6,0,B|248:248|248:320|352:276,1,187.000005706787
512,168,49813,1,0,0:0:0:0:
508,184,49893,1,0,0:0:0:0:
504,200,49973,2,0,P|496:244|496:304,1,93.5000028533936
376,76,50294,2,0,P|384:121|384:168,1,93.5000028533936
216,324,50615,6,0,P|268:284|404:336,1,187.000005706787
132,168,51096,1,0,0:0:0:0:
144,160,51176,1,0,0:0:0:0:
156,152,51257,2,0,P|196:156|260:160,1,93.5000028533936
436,200,51578,2,0,L|380:204,1,46.7500014266968
452,220,51898,6,0,P|388:224|312:332,1,187.000005706787
296,336,52380,2,0,P|324:278|269:158,1,187.000005706787
272,144,52861,2,0,P|307:197|438:209,1,187.000005706787
364,56,53342,2,0,P|364:120|428:64,1,187.000005706787
364,56,53824,5,0,0:0:0:0:
512,136,53984,1,0,0:0:0:0:
264,136,54144,1,0,0:0:0:0:
266,159,54224,1,0,0:0:0:0:
268,182,54304,1,0,0:0:0:0:
270,205,54384,1,0,0:0:0:0:
272,228,54465,6,0,B|180:196|180:272|80:228,1,187.000005706787
0,52,54947,1,0,0:0:0:0:
4,64,55027,1,0,0:0:0:0:
8,76,55107,2,0,P|12:108|16:180,1,93.5000028533936
132,32,55428,2,0,P|137:78|139:125,1,93.5000028533936
132,312,55749,6,0,P|204:264|320:304,1,187.000005706787
448,368,56230,1,0,0:0:0:0:
440,356,56310,1,0,0:0:0:0:
432,344,56390,2,0,P|428:296|436:240,1,93.5000028533936
344,104,56711,2,0,L|348:152,1,46.7500014266968
320,80,57032,6,0,P|324:124|336:280,1,187.000005706787
196,360,57513,1,0,0:0:0:0:
188,352,57594,1,0,0:0:0:0:
180,344,57674,2,0,P|184:292|188:228,1,93.5000028533936
48,88,57995,2,0,P|52:140|56:204,1,93.5000028533936
184,32,58316,5,0,0:0:0:0:
184,32,58476,1,0,0:0:0:0:
288,176,58636,2,0,P|240:172|192:172,1,93.5000028533936
472,72,58957,2,0,P|424:76|376:76,1,93.5000028533936
372,308,59278,1,0,0:0:0:0:
415,293,59358,1,0,0:0:0:0:
446,258,59438,1,0,0:0:0:0:
456,213,59518,1,0,0:0:0:0:
442,169,59599,6,0,B|436:220|436:220|452:360,1,187.000005706787
264,144,60080,1,0,0:0:0:0:
268,160,60160,1,0,0:0:0:0:
272,176,60241,2,0,P|276:208|284:296,1,93.5000028533936
352,52,60561,1,0,0:0:0:0:
164,116,60722,1,0,0:0:0:0:
408,176,60882,6,0,P|440:172|508:168,1,93.5000028533936
236,40,61203,1,0,0:0:0:0:
282,268,61364,1,0,0:0:0:0:
286,284,61444,1,0,0:0:0:0:
288,300,61524,2,0,P|320:296|388:292,1,93.5000028533936
104,220,61845,2,0,P|72:224|4:228,1,93.5000028533936
236,40,62166,6,0,P|228:104|220:244,1,187.000005706787
352,72,62647,1,0,0:0:0:0:
352,72,62727,1,0,0:0:0:0:
352,72,62807,1,0,0:0:0:0:
128,112,62968,1,0,0:0:0:0:
368,168,63128,2,0,P|424:160|480:156,1,93.5000028533936
108,256,63449,5,0,0:0:0:0:
240,60,63610,1,0,0:0:0:0:
272,316,63770,1,0,0:0:0:0:
32,88,64091,5,0,0:0:0:0:
467,91,64412,5,0,0:0:0:0:
463,123,64492,1,0,0:0:0:0:
460,156,64572,1,0,0:0:0:0:
458,188,64652,1,0,0:0:0:0:
456,221,64733,6,0,P|424:216|352:212,1,93.5000028533936
140,144,65053,2,0,P|220:136|300:124,1,140.25000428009
364,108,65374,1,0,0:0:0:0:
136,60,65535,1,0,0:0:0:0:
270,222,65695,2,0,P|326:214|390:210,1,93.5000028533936
88,328,66016,6,0,P|92:276|84:224,1,93.5000028533936
232,8,66337,2,0,P|228:80|244:172,1,140.25000428009
270,222,66658,1,0,0:0:0:0:
136,60,66818,1,0,0:0:0:0:
364,108,66979,2,0,P|360:140|356:220,1,93.5000028533936
184,364,67299,6,0,P|181:317|176:270,1,93.5000028533936
464,256,67620,2,0,P|392:292|316:260,1,140.25000428009
270,222,67941,1,0,0:0:0:0:
436,368,68102,1,0,0:0:0:0:
184,364,68262,2,0,P|132:360|80:360,1,93.5000028533936
277,128,68583,6,0,P|273:164|269:240,1,93.5000028533936
460,72,68904,2,0,P|455:118|452:165,1,93.5000028533936
228,40,69225,1,0,0:0:0:0:
368,208,69385,1,0,0:0:0:0:
112,156,69545,1,0,0:0:0:0:
360,96,69706,1,0,0:0:0:0:
20,32,69866,6,0,P|24:68|28:148,1,93.5000028533936
128,336,70187,2,0,P|172:288|284:280,1,140.25000428009
328,292,70508,1,0,0:0:0:0:
152,204,70668,1,0,0:0:0:0:
440,196,70829,2,0,P|436:244|436:300,1,93.5000028533936
280,36,71150,6,0,P|284:84|284:140,1,93.5000028533936
200,352,71471,2,0,P|196:288|184:188,1,140.25000428009
160,128,71791,1,0,0:0:0:0:
288,288,71952,1,0,0:0:0:0:
292,300,72032,1,0,0:0:0:0:
296,312,72112,2,0,P|328:308|416:304,1,93.5000028533936
488,148,72433,5,0,0:0:0:0:
482,102,72513,1,0,0:0:0:0:
456,64,72593,1,0,0:0:0:0:
414,43,72673,1,0,0:0:0:0:
368,45,72754,2,0,L|312:52,3,46.7500014266968
100,92,73075,5,0,0:0:0:0:
105,137,73155,1,0,0:0:0:0:
131,175,73236,1,0,0:0:0:0:
173,196,73316,1,0,0:0:0:0:
219,194,73396,2,0,L|275:187,3,46.7500014266968
488,56,73717,5,0,0:0:0:0:
483,102,73797,1,0,0:0:0:0:
480,149,73877,1,0,0:0:0:0:
479,195,73957,1,0,0:0:0:0:
479,242,74037,2,0,L|484:296,3,46.7500014266968
364,92,74358,5,0,0:0:0:0:
332,57,74438,1,0,0:0:0:0:
290,38,74518,1,0,0:0:0:0:
244,41,74598,1,0,0:0:0:0:
202,61,74678,1,0,0:0:0:0:
161,82,74759,1,0,0:0:0:0:
115,88,74839,1,0,0:0:0:0:
70,74,74919,1,0,0:0:0:0:
37,42,75000,6,0,P|48:104|56:240,1,187.000005706787
172,344,75481,1,0,0:0:0:0:
172,344,75561,1,0,0:0:0:0:
172,344,75642,1,0,0:0:0:0:
256,164,75802,2,0,P|208:168|152:172,1,93.5000028533936
416,248,76123,1,0,0:0:0:0:
348,32,76283,6,0,P|352:80|356:132,1,93.5000028533936
512,280,76604,2,0,P|508:232|504:180,1,93.5000028533936
296,248,76925,1,0,0:0:0:0:
296,248,77005,1,0,0:0:0:0:
296,248,77086,1,0,0:0:0:0:
440,372,77246,2,0,P|436:324|432:272,1,93.5000028533936
328,124,77567,5,0,0:0:0:0:
202,254,77727,2,0,P|258:250|318:246,1,93.5000028533936
512,148,78048,2,0,P|465:144|418:141,1,93.5000028533936
216,64,78369,1,0,0:0:0:0:
295,247,78529,1,0,0:0:0:0:
336,24,78690,1,0,0:0:0:0:
184,212,78850,6,0,P|188:248|192:332,1,93.5000028533936
418,141,79171,2,0,P|414:177|410:261,1,93.5000028533936
208,40,79492,1,0,0:0:0:0:
304,208,79652,1,0,0:0:0:0:
96,112,79813,1,0,0:0:0:0:
364,76,79973,1,0,0:0:0:0:
136,240,80134,6,0,P|96:236|32:232,1,93.5000028533936
268,328,80455,2,0,P|348:316|416:312,1,140.25000428009
488,304,80775,1,0,0:0:0:0:
348,128,80936,2,0,P|352:176|356:248,1,93.5000028533936
480,56,81257,1,0,0:0:0:0:
240,52,81417,6,0,P|244:100|248:172,1,93.5000028533936
132,344,81738,2,0,P|134:297|144:196,1,140.25000428009
152,120,82059,1,0,0:0:0:0:
228,312,82219,1,0,0:0:0:0:
232,324,82299,1,0,0:0:0:0:
236,336,82380,2,0,P|316:328|360:328,1,93.5000028533936
48,196,82701,6,0,P|128:204|172:204,1,93.5000028533936
324,144,83021,1,0,0:0:0:0:
152,20,83182,2,0,P|156:60|160:140,1,93.5000028533936
232,316,83503,1,0,0:0:0:0:
232,316,83663,2,0,P|234:269|239:222,1,93.5000028533936
132,360,83984,5,0,0:0:0:0:
352,296,84144,1,0,0:0:0:0:
52,268,84305,1,0,0:0:0:0:
232,316,84465,1,0,0:0:0:0:
132,124,84626,2,0,P|136:156|140:220,1,93.5000028533936
352,296,84947,2,0,P|348:264|344:200,1,93.5000028533936
208,36,85267,6,0,P|212:68|216:132,1,93.5000028533936
380,20,85588,1,0,0:0:0:0:
132,124,85749,2,0,P|136:156|140:220,1,93.5000028533936
344,120,86070,1,0,0:0:0:0:
124,36,86230,1,0,0:0:0:0:
304,252,86390,1,0,0:0:0:0:
256,192,86471,12,0,88476,0:0:0:0:
