osu file format v14

[General]
AudioFilename: audio.mp3
AudioLeadIn: 0
PreviewTime: 37074
Countdown: 0
SampleSet: Soft
StackLeniency: 0.5
Mode: 0
LetterboxInBreaks: 0
WidescreenStoryboard: 1

[Editor]
DistanceSpacing: 1.31
BeatDivisor: 4
GridSize: 8
TimelineZoom: 1.5

[Metadata]
Title:Inferno - TV Size
TitleUnicode:Inferno - TV Size
Artist:Mrs. GREEN APPLE
ArtistUnicode:Mrs. GREEN APPLE
Creator:Darkpit
Version:Shoultzzz's Third Generation Pyrotechnic
Source:炎炎ノ消防隊
Tags:fire brigade of flames opening one 1 op short version
BeatmapID:2188173
BeatmapSetID:1045080

[Difficulty]
HPDrainRate:5
CircleSize:4.2
OverallDifficulty:9.2
ApproachRate:9.2
SliderMultiplier:1.4
SliderTickRate:1

[Events]
//Background and Video events
0,0,"BG.jpg",0,0
//Break Periods
2,64317,72100
//Storyboard Layer 0 (Background)
//Storyboard Layer 1 (Fail)
//Storyboard Layer 2 (Pass)
//Storyboard Layer 3 (Foreground)
//Storyboard Layer 4 (Overlay)
//Storyboard Sound Samples

[TimingPoints]
750,324.324324324324,4,2,1,70,1,0
750,-83.3333333333333,4,2,1,70,0,0
26695,-111.111111111111,4,1,1,70,0,0
37074,-81.9672131147541,4,1,1,70,0,0
38371,-76.9230769230769,4,2,1,85,0,0
52966,-125,4,2,1,85,0,0
53290,-75.187969924812,4,2,1,70,0,0
59128,324.324324324324,4,2,1,70,1,1
64155,-111.111111111111,4,2,1,70,0,0
74695,-76.9230769230769,4,2,1,70,0,0
78911,-111.111111111111,4,2,1,70,0,0
79236,-76.9230769230769,4,2,1,70,0,0
85073,324.324324324324,4,2,1,70,1,1
87667,-95.2380952380952,4,2,1,70,0,0

[HitObjects]
134,205,750,6,0,B|183:180|236:195|187:214|258:229|325:200,1,167.999994873047,12|8,0:0|0:0,0:0:0:0:
227,104,1236,1,0,0:0:0:0:
227,104,1317,1,8,0:0:0:0:
227,104,1398,1,0,3:0:0:0:
191,275,1560,1,0,3:0:0:0:
298,73,1722,2,0,P|258:32|212:28,1,83.9999974365235,8|0,0:0|0:0,0:0:0:0:
335,284,2047,5,0,3:0:0:0:
458,173,2209,1,0,3:0:0:0:
242,186,2371,1,8,0:0:0:0:
456,275,2533,1,0,0:0:0:0:
456,275,2614,1,8,0:0:0:0:
456,275,2695,1,0,3:0:0:0:
246,268,2858,1,0,3:0:0:0:
355,95,3020,2,0,P|370:160|314:224,1,125.999996154785,12|0,0:0|0:0,0:0:0:0:
310,223,3344,5,12,0:0:0:0:
95,138,3506,1,0,0:0:0:0:
359,284,3668,5,8,0:0:0:0:
103,265,3831,1,0,0:0:0:0:
319,131,3993,5,8,0:0:0:0:
85,51,4155,1,0,0:0:0:0:
388,198,4317,5,8,0:0:0:0:
53,199,4479,1,0,0:0:0:0:
342,53,4641,5,8,0:0:0:0:
296,337,4804,1,8,0:0:0:0:
185,71,4966,5,8,0:0:0:0:
182,100,5047,1,8,0:0:0:0:
179,129,5128,1,8,0:0:0:0:
176,158,5209,1,8,0:0:0:0:
173,188,5290,1,0,0:0:0:0:
122,35,5452,1,0,0:0:0:0:
122,35,5939,6,0,P|94:91|104:145,1,83.9999974365235,6|0,3:0|0:0,0:0:0:0:
238,211,6263,2,0,P|220:150|176:118,1,83.9999974365235,2|0,3:0|0:0,0:0:0:0:
166,304,6587,1,2,3:0:0:0:
314,269,6749,1,0,0:0:0:0:
133,200,6912,2,0,P|121:262|154:333,1,125.999996154785,2|0,3:0|0:0,3:0:0:0:
161,333,7236,6,0,P|206:351|276:331,1,83.9999974365235,2|0,3:0|0:0,0:0:0:0:
326,186,7560,1,0,3:0:0:0:
223,255,7722,1,2,0:0:0:0:
370,269,7885,2,0,P|415:257|445:224,1,83.9999974365235,2|0,3:0|0:0,0:0:0:0:
237,171,8209,1,0,3:0:0:0:
311,317,8371,1,2,0:0:0:0:
370,136,8533,5,2,3:0:0:0:
223,255,8695,1,2,0:0:0:0:
429,192,8858,1,2,3:0:0:0:
246,142,9020,1,2,0:0:0:0:
375,48,9182,2,0,P|403:97|388:177,1,125.999996154785,2|0,3:0|0:0,0:0:0:0:
374,189,9506,2,0,P|374:256|392:291,1,83.9999974365235,2|2,3:0|0:0,0:0:0:0:
463,352,9831,5,2,3:0:0:0:
288,295,9993,1,2,0:0:0:0:
452,203,10155,2,0,P|452:262|384:326,1,125.999996154785,2|0,3:0|0:0,0:0:0:0:
386,320,10479,2,0,P|337:316|272:344,1,83.9999974365235,2|0,3:0|0:0,0:0:0:0:
192,367,10804,1,2,3:0:0:0:
284,201,10966,1,2,0:0:0:0:
395,275,11128,6,0,P|406:329|391:372,1,83.9999974365235,2|0,3:0|0:0,0:0:0:0:
390,164,11452,2,0,P|434:135|494:131,1,83.9999974365235,2|0,3:0|0:0,0:0:0:0:
297,213,11777,2,0,P|249:226|200:210,1,83.9999974365235,2|0,3:0|0:0,0:0:0:0:
98,118,12101,2,0,P|86:179|125:269,1,125.999996154785,2|0,3:0|0:0,0:0:0:0:
118,261,12425,6,0,P|135:305|133:354,1,83.9999974365235,2|0,3:0|0:0,0:0:0:0:
193,145,12749,1,0,3:0:0:0:
262,300,12912,1,2,0:0:0:0:
328,153,13074,2,0,P|293:113|248:98,1,83.9999974365235,2|0,3:0|0:0,0:0:0:0:
388,267,13398,1,0,3:0:0:0:
421,107,13560,1,2,0:0:0:0:
282,218,13722,5,2,3:0:0:0:
463,193,13885,1,2,0:0:0:0:
263,124,14047,2,0,P|195:129|154:165,1,83.9999974365235,2|0,3:0|0:0,0:0:0:0:
305,303,14371,1,2,3:0:0:0:
358,152,14533,1,2,0:0:0:0:
194,231,14695,1,2,3:0:0:0:
409,224,14858,1,2,0:0:0:0:
129,184,15020,2,0,P|118:242|136:290,1,83.9999974365235,2|2,3:0|0:0,0:0:0:0:
226,73,15344,1,0,3:0:0:0:
300,222,15506,2,0,P|311:280|293:328,1,83.9999974365235,2|2,0:0|3:0,0:0:0:0:
415,62,16317,6,0,B|426:109|401:156|397:120|379:192|407:247,1,167.999994873047,6|10,0:0|0:0,0:0:0:0:
309,89,16804,1,0,0:0:0:0:
309,89,16885,1,8,0:0:0:0:
309,89,16966,1,2,3:0:0:0:
282,282,17128,1,0,3:0:0:0:
228,103,17290,2,0,P|233:45|318:23,1,125.999996154785,10|0,0:0|0:0,0:0:0:0:
321,25,17614,6,0,P|352:60|364:109,1,83.9999974365235,2|0,3:0|3:0,3:0:0:0:
237,208,17939,1,8,0:0:0:0:
412,206,18101,1,2,0:0:0:0:
412,206,18182,1,8,0:0:0:0:
412,206,18263,1,2,3:0:0:0:
166,246,18425,1,0,3:0:0:0:
375,281,18587,2,0,P|422:280|470:270,1,83.9999974365235,8|2,0:0|0:0,0:0:0:0:
485,253,18831,1,8,0:0:0:0:
485,253,18912,5,2,3:0:0:0:
266,299,19074,1,2,3:0:0:0:
404,117,19236,1,10,0:0:0:0:
414,334,19398,1,2,0:0:0:0:
414,334,19479,1,8,0:0:0:0:
414,334,19560,2,0,P|366:360|320:355,1,83.9999974365235,2|0,3:0|3:0,0:0:0:0:
178,266,19885,1,10,0:0:0:0:
375,198,20047,1,2,0:0:0:0:
146,155,20209,5,2,3:0:0:0:
405,246,20371,1,2,3:0:0:0:
128,244,20533,2,0,P|72:222|70:133,1,125.999996154785,10|8,0:0|0:0,0:0:0:0:
69,143,20858,2,0,P|79:98|40:44,1,83.9999974365235,2|0,3:0|3:0,3:0:0:0:
30,304,21182,1,10,0:0:0:0:
228,228,21344,1,2,0:0:0:0:
28,239,21506,6,0,P|51:301|81:327,1,83.9999974365235,2|0,3:0|3:0,0:0:0:0:
175,135,21831,2,0,P|125:129|83:143,1,83.9999974365235,10|0,0:0|0:0,0:0:0:0:
230,221,22074,1,8,0:0:0:0:
247,233,22155,2,0,P|297:237|341:209,1,83.9999974365235,2|0,3:0|3:0,3:0:0:0:
337,52,22479,2,0,P|295:90|286:127,1,83.9999974365235,10|0,0:0|0:0,0:0:0:0:
443,257,22804,6,0,P|446:201|365:122,1,167.999994873047,2|8,0:0|0:0,0:0:0:0:
330,301,23290,1,2,0:0:0:0:
330,301,23371,1,8,0:0:0:0:
330,301,23452,1,2,3:0:0:0:
215,168,23614,1,0,3:0:0:0:
156,304,23777,2,0,P|198:347|246:351,1,83.9999974365235,8|2,0:0|0:0,0:0:0:0:
251,350,24020,1,8,0:0:0:0:
251,350,24101,5,2,3:0:0:0:
170,186,24263,1,2,3:0:0:0:
71,261,24425,2,0,P|61:305|33:353,1,83.9999974365235,10|0,0:0|0:0,0:0:0:0:
28,348,24668,1,8,0:0:0:0:
28,348,24749,1,2,3:0:0:0:
246,223,24912,1,2,3:0:0:0:
162,88,25074,2,0,P|133:153|138:186,1,83.9999974365235,10|2,0:0|0:0,0:0:0:0:
170,292,25398,5,2,3:0:0:0:
283,122,25560,1,2,3:0:0:0:
259,314,25722,1,8,0:0:0:0:
268,142,25885,1,0,3:0:0:0:
343,358,26047,1,8,0:0:0:0:
321,150,26695,6,0,L|181:159,1,125.999996154785
170,166,27101,2,0,L|161:208,3,31.4999990386963,0|0|0|8,0:0|0:0|0:0|0:0,0:0:0:0:
189,277,27506,1,0,0:0:0:0:
266,148,27668,2,0,L|237:67,1,62.9999980773926,0|8,0:0|0:0,0:0:0:0:
292,243,27993,2,0,P|362:248|429:212,1,125.999996154785,8|0,0:0|0:0,0:0:0:0:
309,112,28641,2,0,L|228:120,1,62.9999980773926,4|0,0:0|0:0,0:0:0:0:
405,153,28966,2,0,L|486:161,1,62.9999980773926,4|0,0:0|0:0,0:0:0:0:
279,209,29290,6,0,L|198:201,1,62.9999980773926,4|0,0:0|0:0,0:0:0:0:
388,89,29614,2,8,L|416:75,4,31.4999990386963
351,238,30101,1,8,0:0:0:0:
250,118,30263,2,0,L|182:95,1,62.9999980773926,4|0,0:0|0:0,0:0:0:0:
397,175,30587,6,0,L|472:166,1,62.9999980773926,4|0,0:0|0:0,0:0:0:0:
252,208,30912,2,0,L|186:234,1,62.9999980773926,4|0,0:0|0:0,0:0:0:0:
165,248,31155,1,8,0:0:0:0:
165,248,31236,1,8,0:0:0:0:
150,130,31398,5,8,0:0:0:0:
161,125,31452,1,8,0:0:0:0:
173,120,31506,1,8,0:0:0:0:
184,115,31560,1,8,0:0:0:0:
85,192,31722,5,8,0:0:0:0:
179,281,31885,2,0,L|256:286,1,62.9999980773926,4|0,0:0|0:0,0:0:0:0:
72,282,32209,1,0,0:0:0:0:
77,312,32290,1,0,0:0:0:0:
96,337,32371,1,8,0:0:0:0:
124,351,32452,1,0,0:0:0:0:
155,350,32533,1,4,0:0:0:0:
241,285,32695,1,0,0:0:0:0:
277,261,33020,5,8,0:0:0:0:
149,158,33182,1,8,0:0:0:0:
158,259,33344,1,0,0:0:0:0:
263,157,33831,2,0,L|347:136,1,62.9999980773926,4|0,0:0|0:0,0:0:0:0:
383,214,34155,2,0,L|467:235,1,62.9999980773926,4|0,0:0|0:0,0:0:0:0:
273,249,34479,6,0,L|203:301,1,62.9999980773926,4|0,0:0|0:0,0:0:0:0:
326,142,34804,1,0,0:0:0:0:
302,121,34885,1,0,0:0:0:0:
272,111,34966,1,8,0:0:0:0:
241,112,35047,1,0,0:0:0:0:
212,124,35128,1,4,0:0:0:0:
165,216,35290,1,8,0:0:0:0:
108,132,35452,2,0,L|105:56,1,62.9999980773926,4|0,0:0|0:0,0:0:0:0:
52,251,35777,5,0,0:0:0:0:
123,333,35939,1,8,0:0:0:0:
134,342,36020,2,0,L|174:333,1,31.4999990386963,4|0,0:0|0:0,0:0:0:0:
233,282,36182,1,4,0:0:0:0:
244,273,36263,2,0,L|284:282,1,31.4999990386963,8|0,0:0|0:0,0:0:0:0:
349,351,36425,1,0,0:0:0:0:
380,265,36587,2,8,L|374:247,4,15.7499995193482
437,339,36912,1,8,0:0:0:0:
429,189,37074,6,0,P|373:171|323:185,1,85.3999964816286
313,196,37317,2,0,P|269:214|236:211,1,42.6999982408143,4|0,1:0|0:0,0:0:0:0:
191,173,37479,1,4,1:0:0:0:
165,156,37560,2,0,P|118:148|86:158,1,42.6999982408143,8|0,1:0|0:0,0:0:0:0:
49,222,37722,1,8,1:0:0:0:
144,269,37885,2,8,L|173:277,3,21.3499991204071,8|8|8|8,1:0|1:0|1:0|1:0,1:0:0:0:
272,353,38371,6,0,P|288:280|206:178,1,181.999991668702,6|8,0:0|0:0,0:0:0:0:
117,158,38858,1,2,0:0:0:0:
117,158,38939,1,8,0:0:0:0:
117,158,39020,1,2,3:0:0:0:
181,328,39182,1,0,3:0:0:0:
221,87,39344,1,8,0:0:0:0:
111,246,39506,1,2,0:0:0:0:
349,197,39668,6,0,P|399:191|460:197,1,90.9999958343508,2|0,3:0|3:0,3:0:0:0:
218,234,39993,1,8,0:0:0:0:
314,33,40155,1,2,0:0:0:0:
314,33,40236,1,8,0:0:0:0:
314,33,40317,2,0,P|338:76|343:129,1,90.9999958343508,2|0,3:0|3:0,3:0:0:0:
239,312,40641,1,8,0:0:0:0:
226,123,40804,1,2,0:0:0:0:
352,235,40966,6,0,P|379:288|379:355,1,90.9999958343508,2|0,3:0|3:0,3:0:0:0:
427,97,41290,1,8,0:0:0:0:
261,200,41452,1,2,0:0:0:0:
261,200,41533,1,8,0:0:0:0:
261,200,41614,2,0,P|248:255|258:317,1,90.9999958343508,2|0,3:0|3:0,3:0:0:0:
156,70,41939,1,8,0:0:0:0:
124,233,42101,1,2,0:0:0:0:
259,97,42263,6,0,P|314:89|362:108,1,90.9999958343508,2|0,3:0|3:0,3:0:0:0:
435,241,42587,1,8,0:0:0:0:
288,295,42749,1,0,0:0:0:0:
256,299,42830,1,8,0:0:0:0:
224,304,42911,1,0,0:0:0:0:
193,309,42992,1,8,0:0:0:0:
161,313,43073,1,0,0:0:0:0:
354,181,43236,1,8,0:0:0:0:
135,132,43398,1,2,0:0:0:0:
325,252,43560,6,0,P|387:251|411:136,1,181.999991668702,6|8,0:0|0:0,0:0:0:0:
233,173,44047,1,2,0:0:0:0:
233,173,44128,1,8,0:0:0:0:
233,173,44209,1,2,3:0:0:0:
344,329,44371,1,0,3:0:0:0:
332,109,44533,1,8,0:0:0:0:
190,263,44695,1,2,0:0:0:0:
151,129,44858,6,0,P|177:92|216:69,1,90.9999958343508,2|0,3:0|3:0,3:0:0:0:
90,234,45182,1,8,0:0:0:0:
307,193,45344,1,2,0:0:0:0:
307,193,45425,1,8,0:0:0:0:
307,193,45506,1,2,3:0:0:0:
70,149,45668,1,0,3:0:0:0:
314,251,45831,1,8,0:0:0:0:
117,339,45993,1,2,0:0:0:0:
117,339,46074,1,8,0:0:0:0:
117,339,46155,6,0,P|55:360|11:354,1,90.9999958343508,2|0,3:0|3:0,3:0:0:0:
237,208,46479,1,8,0:0:0:0:
43,209,46641,1,2,0:0:0:0:
246,307,46804,2,0,P|291:283|313:251,1,90.9999958343508,2|0,3:0|3:0,3:0:0:0:
172,156,47128,2,0,P|157:204|164:242,1,90.9999958343508,10|0,0:0|0:0,0:0:0:0:
362,45,47452,5,8,0:0:0:0:
84,48,47614,1,8,0:0:0:0:
399,197,48101,5,8,0:0:0:0:
88,193,48263,1,8,0:0:0:0:
420,273,48425,1,8,0:0:0:0:
457,247,48506,1,8,0:0:0:0:
475,206,48587,1,10,0:0:0:0:
467,162,48668,1,8,0:0:0:0:
437,128,48749,6,0,P|347:132|308:229,1,181.999991668702,6|8,0:0|0:0,0:0:0:0:
374,29,49236,1,2,0:0:0:0:
374,29,49317,1,0,0:0:0:0:
374,29,49398,1,2,3:0:0:0:
168,116,49560,1,0,3:0:0:0:
452,62,49722,1,8,0:0:0:0:
210,29,49885,1,2,0:0:0:0:
410,160,50047,6,0,P|455:178|503:172,1,90.9999958343508,2|0,3:0|3:0,3:0:0:0:
277,89,50371,1,8,0:0:0:0:
179,266,50533,1,2,0:0:0:0:
179,266,50614,1,8,0:0:0:0:
179,266,50695,1,2,3:0:0:0:
349,187,50858,1,0,3:0:0:0:
120,149,51020,1,8,0:0:0:0:
350,276,51182,1,2,0:0:0:0:
350,276,51263,1,8,0:0:0:0:
350,276,51344,6,0,P|381:318|399:355,1,90.9999958343508,2|0,3:0|3:0,3:0:0:0:
219,171,51668,1,8,0:0:0:0:
388,111,51831,1,2,0:0:0:0:
260,269,51993,2,0,P|205:285|154:275,1,90.9999958343508,2|0,3:0|3:0,3:0:0:0:
441,197,52317,1,8,0:0:0:0:
252,98,52479,1,2,0:0:0:0:
252,98,52560,1,8,0:0:0:0:
252,98,52641,6,0,P|245:145|255:209,1,90.9999958343508,2|0,3:0|3:0,3:0:0:0:
155,268,52966,2,0,P|126:308|78:322,1,84,4|0,0:0|0:0,0:0:0:0:
59,302,53290,2,0,P|65:253|113:197,1,93.0999961643983,0|8,3:0|0:0,0:0:0:0:
115,203,53533,1,8,0:0:0:0:
134,151,53614,1,8,0:0:0:0:
126,96,53695,1,8,0:0:0:0:
93,52,53776,1,8,0:0:0:0:
58,95,53858,1,8,0:0:0:0:
43,149,53939,6,0,P|63:206|207:211,1,186.199992328797,4|8,0:0|3:0,0:0:0:0:
250,114,54425,1,0,0:0:0:0:
324,237,54587,2,8,L|310:338,1,93.0999961643983,8|0,3:0|3:0,3:0:0:0:
399,161,54912,2,8,L|432:64,1,93.0999961643983,8|0,3:0|3:0,3:0:0:0:
423,277,55236,6,8,L|443:377,1,93.0999961643983,8|0,3:0|3:0,3:0:0:0:
304,153,55560,2,8,L|285:55,1,93.0999961643983,8|0,3:0|3:0,3:0:0:0:
231,235,55885,2,8,P|195:304|81:333,1,186.199992328797,8|8,3:0|3:0,3:0:0:0:
143,177,56371,1,0,0:0:0:0:
299,289,56533,6,0,B|383:315|383:315|497:297,1,186.199992328797,12|8,3:0|3:0,0:0:0:0:
368,151,57020,1,0,0:0:0:0:
231,235,57182,2,0,L|219:330,1,93.0999961643983,8|0,3:0|0:0,0:0:0:0:
161,145,57506,2,0,L|150:47,1,93.0999961643983,8|0,3:0|0:0,0:0:0:0:
91,254,57831,6,0,P|113:318|227:320,1,186.199992328797,8|8,3:0|3:0,0:0:0:0:
278,164,58317,1,0,0:0:0:0:
357,248,58479,2,0,L|378:348,1,93.0999961643983,8|0,3:0|0:0,0:0:0:0:
403,128,58804,2,0,L|425:33,1,93.0999961643983,8|0,3:0|0:0,0:0:0:0:
222,247,59128,5,10,3:0:0:0:
486,261,59290,1,0,0:0:0:0:
188,155,59452,5,2,3:0:0:0:
474,185,59614,1,0,0:0:0:0:
123,277,59776,5,2,3:0:0:0:
370,227,59938,1,0,0:0:0:0:
98,180,60100,5,2,3:0:0:0:
375,120,60263,1,0,0:0:0:0:
134,60,60425,5,2,3:0:0:0:
284,315,60587,1,0,0:0:0:0:
261,65,60749,5,2,3:0:0:0:
181,306,60911,1,0,0:0:0:0:
362,78,61073,5,2,3:0:0:0:
378,339,61236,1,0,0:0:0:0:
463,69,61398,5,2,3:0:0:0:
470,314,61560,1,0,0:0:0:0:
224,191,61722,5,2,3:0:0:0:
449,167,61884,1,0,0:0:0:0:
162,273,62046,5,2,3:0:0:0:
439,270,62209,1,0,0:0:0:0:
137,180,62371,5,2,3:0:0:0:
351,85,62533,1,0,0:0:0:0:
90,66,62695,5,2,3:0:0:0:
337,275,62857,1,2,0:0:0:0:
268,28,63019,5,10,3:0:0:0:
162,273,63182,1,8,3:0:0:0:
193,355,63668,5,10,3:0:0:0:
299,110,63831,1,8,3:0:0:0:
246,66,73398,5,8,3:0:0:0:
246,289,73560,1,8,3:0:0:0:
155,75,74046,5,8,3:0:0:0:
305,240,74208,1,8,3:0:0:0:
305,240,74695,6,0,P|326:192|235:108,1,181.999991668702,6|8,0:0|0:0,0:0:0:0:
205,282,75182,1,2,0:0:0:0:
205,282,75263,1,8,0:0:0:0:
205,282,75344,1,2,3:0:0:0:
412,291,75506,1,0,3:0:0:0:
170,180,75668,1,8,0:0:0:0:
321,345,75830,1,2,0:0:0:0:
399,146,75992,6,0,P|388:100|354:65,1,90.9999958343508,2|0,3:0|3:0,3:0:0:0:
303,257,76317,1,8,0:0:0:0:
482,213,76479,1,0,0:0:0:0:
482,213,76560,1,8,0:0:0:0:
482,213,76641,1,0,3:0:0:0:
249,147,76803,1,0,3:0:0:0:
423,20,76965,1,8,0:0:0:0:
385,281,77127,1,2,0:0:0:0:
293,42,77290,6,0,P|258:117|285:249,1,181.999991668702,6|8,0:0|0:0,0:0:0:0:
150,41,77776,1,2,0:0:0:0:
150,41,77857,1,0,0:0:0:0:
150,41,77938,1,2,3:0:0:0:
114,205,78100,1,0,3:0:0:0:
334,128,78263,1,8,0:0:0:0:
80,107,78425,1,2,0:0:0:0:
266,213,78587,6,0,P|323:215|366:196,1,90.9999958343508,2|0,3:0|3:0,3:0:0:0:
174,158,78911,2,0,P|166:206|192:273,1,94.499997116089,4|0,0:0|0:0,0:0:0:0:
197,270,79236,2,0,P|192:331|147:363,1,90.9999958343508,2|8,0:0|0:0,0:0:0:0:
145,348,79479,1,8,0:0:0:0:
183,309,79560,1,8,0:0:0:0:
233,288,79641,1,8,0:0:0:0:
287,287,79722,1,8,0:0:0:0:
338,306,79803,1,8,0:0:0:0:
378,343,79884,6,0,P|317:325|365:222,1,181.999991668702,6|4,0:0|0:0,0:0:0:0:
441,272,80371,1,0,0:0:0:0:
259,133,80533,2,8,L|271:225,1,93.0999961643983,8|0,3:0|3:0,3:0:0:0:
183,309,80858,2,8,L|153:220,1,93.0999961643983,8|0,3:0|3:0,3:0:0:0:
154,40,81182,6,8,L|172:131,1,93.0999961643983,8|0,3:0|3:0,3:0:0:0:
272,227,81506,2,8,L|289:318,1,93.0999961643983,8|0,3:0|3:0,3:0:0:0:
345,145,81831,2,8,P|391:67|479:43,1,186.199992328797,8|8,3:0|3:0,3:0:0:0:
433,203,82317,1,0,0:0:0:0:
277,91,82479,6,0,B|193:65|193:65|95:80,1,186.199992328797,12|8,3:0|3:0,0:0:0:0:
208,229,82966,1,0,0:0:0:0:
345,145,83128,2,0,L|356:52,1,93.0999961643983,8|0,3:0|0:0,0:0:0:0:
415,235,83452,2,0,L|425:327,1,93.0999961643983,8|0,3:0|0:0,0:0:0:0:
485,125,83777,6,0,P|444:47|356:53,1,186.199992328797,8|8,3:0|3:0,0:0:0:0:
298,216,84263,1,0,0:0:0:0:
219,132,84425,2,0,L|199:40,1,93.0999961643983,8|0,3:0|0:0,0:0:0:0:
173,252,84750,2,0,L|151:342,1,93.0999961643983,8|0,3:0|0:0,0:0:0:0:
345,97,85073,5,10,3:0:0:0:
75,188,85235,1,0,3:0:0:0:
430,239,85397,5,10,3:0:0:0:
87,286,85559,1,0,3:0:0:0:
410,163,85721,5,10,3:0:0:0:
159,120,85883,1,0,3:0:0:0:
403,294,86045,5,10,3:0:0:0:
125,219,86208,1,0,3:0:0:0:
377,362,86370,5,10,3:0:0:0:
264,95,86532,1,0,3:0:0:0:
228,358,86694,5,10,3:0:0:0:
375,107,86856,1,0,3:0:0:0:
148,327,87018,5,10,3:0:0:0:
459,208,87181,1,0,3:0:0:0:
86,194,87343,5,10,3:0:0:0:
405,119,87505,1,0,3:0:0:0:
203,93,87667,5,0,0:1:0:0:
