osu file format v14

[General]
AudioFilename: audio.mp3
AudioLeadIn: 0
PreviewTime: 37074
Countdown: 0
SampleSet: None
StackLeniency: 0.7
Mode: 0
LetterboxInBreaks: 0
WidescreenStoryboard: 1

[Editor]
DistanceSpacing: 1.31
BeatDivisor: 4
GridSize: 8
TimelineZoom: 0.8999999

[Metadata]
Title:Inferno - TV Size
TitleUnicode:Inferno - TV Size
Artist:Mrs. GREEN APPLE
ArtistUnicode:Mrs. GREEN APPLE
Creator:Darkpit
Version:MyLonelyAlpaca's 3rd Degree Burns
Source:炎炎ノ消防隊
Tags:fire brigade of flames opening one 1 op short version
BeatmapID:2197152
BeatmapSetID:1045080

[Difficulty]
HPDrainRate:6
CircleSize:3
OverallDifficulty:8.8
ApproachRate:9.1
SliderMultiplier:1.4
SliderTickRate:1

[Events]
//Background and Video events
0,0,"BG.jpg",0,0
//Break Periods
//Storyboard Layer 0 (Background)
//Storyboard Layer 1 (Fail)
//Storyboard Layer 2 (Pass)
//Storyboard Layer 3 (Foreground)
//Storyboard Layer 4 (Overlay)
//Storyboard Sound Samples

[TimingPoints]
750,324.324324324324,4,2,1,70,1,0
3344,-133.333333333333,4,2,1,70,0,0
16317,-117.647058823529,4,2,1,70,0,0
26695,-133.333333333333,4,1,1,70,0,0
37885,-66.6666666666667,4,1,1,70,0,0
38371,-80,4,2,1,85,0,0
53290,-80,4,2,1,70,0,0
53939,-100,4,2,1,70,0,0
59128,324.324324324324,4,2,1,70,1,1
64317,-133.333333333333,4,2,1,70,0,0
73398,-66.6666666666667,4,2,1,70,0,0
74533,-66.6666666666667,4,2,1,70,0,0
79398,-100,4,2,1,70,0,0
79884,-80,4,2,1,70,0,0
85073,324.324324324324,4,2,1,70,1,1
87667,-100,4,2,1,70,0,0

[HitObjects]
58,93,750,6,0,L|70:185,1,70,12|0,0:0|0:0,0:0:0:0:
115,286,1074,1,8,0:0:0:0:
177,147,1236,2,0,L|190:56,1,70,0|0,0:0|3:0,0:0:0:0:
294,5,1560,2,0,L|315:99,1,70,0|8,3:0|0:0,0:0:0:0:
376,219,1885,1,0,0:0:0:0:
493,16,2047,2,0,P|433:16|395:29,1,70,0|0,3:0|3:0,0:0:0:0:
292,98,2371,1,8,0:0:0:0:
166,45,2533,2,0,L|152:140,1,70,0|0,0:0|3:0,0:0:0:0:
25,165,2858,2,0,L|42:255,1,70,0|12,3:0|0:0,0:0:0:0:
123,334,3182,1,0,0:0:0:0:
170,181,3344,6,0,P|183:135|223:104,1,78.7500030040742,12|0,0:0|0:0,0:0:0:0:
277,172,3668,2,0,P|294:138|329:113,1,78.7500030040742,8|0,0:0|0:0,0:0:0:0:
381,193,3993,2,0,P|412:155|445:140,1,78.7500030040742,8|0,0:0|0:0,0:0:0:0:
489,243,4317,2,0,P|459:279|436:291,1,52.5000020027161,8|0,0:0|0:0,0:0:0:0:
347,349,4641,5,8,0:0:0:0:
283,88,4804,1,8,0:0:0:0:
457,65,4966,2,0,L|487:40,4,26.2500010013581,8|8|8|8|0,0:0|0:0|0:0|0:0|0:0,0:0:0:0:
209,258,5452,1,0,0:0:0:0:
48,108,5777,5,0,0:0:0:0:
48,108,5939,2,0,P|92:89|159:88,1,105.000004005432,6|2,3:0|3:0,0:0:0:0:
270,177,6587,2,0,P|233:199|168:201,1,105.000004005432,2|2,3:0|3:0,0:0:0:0:
35,112,7236,2,0,P|24:171|38:232,1,105.000004005432,2|0,3:0|3:0,0:0:0:0:
95,312,7722,1,2,0:0:0:0:
160,186,7885,2,0,P|200:152|302:140,1,157.500006008148,2|2,3:0|0:0,0:0:0:0:
448,258,8533,5,2,3:0:0:0:
301,160,8695,1,2,0:0:0:0:
336,259,8858,1,2,3:0:0:0:
418,101,9020,1,2,0:0:0:0:
266,147,9182,2,0,P|225:180|200:234,1,105.000004005432,2|2,3:0|3:0,0:0:0:0:
210,350,9668,1,2,0:0:0:0:
106,296,9831,2,0,P|60:307|41:319,1,52.5000020027161,2|2,3:0|0:0,0:0:0:0:
10,217,10155,2,0,P|57:199|132:196,1,105.000004005432,2|2,3:0|3:0,0:0:0:0:
208,47,10804,5,2,3:0:0:0:
228,168,10966,1,2,0:0:0:0:
303,70,11128,2,0,P|353:73|404:105,1,105.000004005432,2|2,3:0|3:0,0:0:0:0:
508,89,11777,2,0,P|510:139|490:212,1,105.000004005432,2|2,3:0|3:0,0:0:0:0:
512,336,12425,2,0,L|334:314,1,157.500006008148,2|2,3:0|0:0,0:0:0:0:
250,214,13074,1,2,3:0:0:0:
50,331,13398,6,0,P|40:285|40:276,1,52.5000020027161,0|2,3:0|0:0,0:0:0:0:
91,169,13722,1,2,3:0:0:0:
155,304,13885,1,2,0:0:0:0:
185,129,14047,1,2,3:0:0:0:
66,254,14209,1,0,0:0:0:0:
4,138,14371,2,0,L|18:70,1,52.5000020027161,2|2,3:0|0:0,0:0:0:0:
95,1,14695,1,2,3:0:0:0:
158,157,14858,1,2,0:0:0:0:
112,25,15020,5,2,3:0:0:0:
241,92,15182,2,0,L|313:105,1,52.5000020027161,2|0,0:0|3:0,0:0:0:0:
505,173,15506,1,2,0:0:0:0:
343,252,15668,2,0,L|237:266,1,105.000004005432,2|0,3:0|0:0,0:0:0:0:
159,331,16155,1,0,0:0:0:0:
29,364,16317,6,0,L|41:258,1,89.2500017023087,6|0,0:0|0:0,0:0:0:0:
106,125,16641,2,0,L|119:230,1,89.2500017023087,10|8,0:0|0:0,0:0:0:0:
209,320,16966,2,0,L|222:212,1,89.2500017023087,2|0,3:0|0:0,0:0:0:0:
288,71,17290,2,0,L|312:182,1,89.2500017023087,10|0,0:0|0:0,0:0:0:0:
428,155,17614,2,0,P|425:251|413:297,1,119.000002269745,2|8,3:0|0:0,0:0:0:0:
329,379,18101,1,2,0:0:0:0:
258,247,18263,2,0,P|191:225|140:227,1,119.000002269745,2|8,3:0|0:0,0:0:0:0:
41,322,18749,5,2,0:0:0:0:
120,186,18912,1,2,3:0:0:0:
164,308,19074,1,2,3:0:0:0:
108,159,19236,1,10,0:0:0:0:
241,164,19398,1,2,0:0:0:0:
55,246,19560,2,0,P|28:195|31:127,1,119.000002269745,2|10,3:0|0:0,0:0:0:0:
120,27,20047,5,2,0:0:0:0:
193,151,20209,2,0,L|206:230,1,59.5000011348725,2|2,3:0|3:0,0:0:0:0:
162,316,20533,2,0,P|219:331|286:311,1,119.000002269745,10|2,0:0|3:0,0:0:0:0:
331,203,21020,1,0,3:0:0:0:
435,284,21182,2,0,L|446:353,2,59.5000011348725,10|2|2,0:0|0:0|3:0,0:0:0:0:
425,155,21668,5,0,3:0:0:0:
486,84,21831,2,0,P|416:73|356:88,1,119.000002269745,10|2,0:0|3:0,0:0:0:0:
246,179,22317,1,0,3:0:0:0:
198,90,22479,2,0,P|163:141|164:221,1,119.000002269745,10|2,0:0|0:0,0:0:0:0:
250,285,22966,1,0,0:0:0:0:
227,372,23128,2,0,P|282:369|332:314,1,119.000002269745,8|2,0:0|3:0,0:0:0:0:
318,171,23614,1,0,3:0:0:0:
352,336,23777,1,8,0:0:0:0:
223,250,23939,1,2,0:0:0:0:
430,210,24101,6,0,L|445:134,1,59.5000011348725,2|2,3:0|3:0,0:0:0:0:
493,35,24425,1,10,0:0:0:0:
352,124,24587,1,0,0:0:0:0:
410,10,24749,1,2,3:0:0:0:
463,167,24912,1,2,3:0:0:0:
322,106,25074,1,10,0:0:0:0:
350,254,25236,1,2,0:0:0:0:
377,14,25398,2,0,L|311:22,1,59.5000011348725,2|2,3:0|3:0,0:0:0:0:
205,93,25722,1,8,0:0:0:0:
36,173,25885,2,0,L|109:180,1,59.5000011348725,0|8,3:0|0:0,0:0:0:0:
371,332,26695,6,0,P|386:284|386:211,1,105.000004005432,0|0,0:0|0:0,0:0:0:0:
336,115,27182,2,0,L|347:86,2,26.2500010013581,0|0|8,0:0|0:0|0:0,0:0:0:0:
279,244,27506,1,0,0:0:0:0:
204,121,27668,2,0,P|169:118|86:131,1,105.000004005432,0|8,0:0|0:0,0:0:0:0:
33,262,28155,1,0,0:0:0:0:
78,143,28317,1,0,0:0:0:0:
17,282,28479,1,0,0:0:0:0:
173,255,28641,6,0,P|211:242|299:248,1,105.000004005432,4|4,0:0|0:0,0:0:0:0:
364,311,29128,1,0,0:0:0:0:
427,196,29290,2,0,L|434:142,1,52.5000020027161,4|0,0:0|0:0,0:0:0:0:
485,34,29614,2,0,L|530:38,2,26.2500010013581,8|8|8,0:0|0:0|0:0,0:0:0:0:
340,50,29939,2,0,P|283:51|227:73,1,105.000004005432,8|4,0:0|0:0,0:0:0:0:
173,207,30425,5,0,0:0:0:0:
113,73,30587,1,4,0:0:0:0:
283,148,30749,1,0,0:0:0:0:
144,229,30912,1,4,0:0:0:0:
296,172,31074,1,0,0:0:0:0:
86,56,31236,1,8,0:0:0:0:
133,256,31398,2,0,L|123:278,3,17.500000667572,8|8|8|8,0:0|0:0|0:0|0:0,0:0:0:0:
209,15,31722,1,8,0:0:0:0:
282,70,31885,6,0,P|351:59|404:66,1,105.000004005432,4|0,0:0|0:0,0:0:0:0:
459,153,32371,1,8,0:0:0:0:
502,258,32533,2,0,P|456:273|387:267,1,105.000004005432,4|0,0:0|0:0,0:0:0:0:
305,213,33020,1,8,0:0:0:0:
233,115,33182,2,0,P|203:166|199:206,1,78.7500030040742,8|0,0:0|0:0,0:0:0:0:
104,229,33506,2,0,P|151:260|184:267,1,78.7500030040742,0|0,0:0|0:0,0:0:0:0:
226,344,33831,2,0,P|256:290|261:232,1,105.000004005432,4|4,0:0|0:0,0:0:0:0:
217,152,34317,1,0,0:0:0:0:
122,39,34479,6,0,L|114:112,1,52.5000020027161,4|0,0:0|0:0,0:0:0:0:
14,116,34804,2,0,L|27:187,1,52.5000020027161,0|8,0:0|0:0,0:0:0:0:
107,302,35128,1,4,0:0:0:0:
188,351,35290,1,8,0:0:0:0:
189,254,35452,1,4,0:0:0:0:
107,302,35614,1,0,0:0:0:0:
35,218,35777,6,0,L|19:151,1,52.5000020027161,0|8,0:0|0:0,0:0:0:0:
144,144,36101,2,0,L|165:74,1,52.5000020027161,0|8,0:0|0:0,0:0:0:0:
290,3,36425,1,0,0:0:0:0:
350,155,36587,2,0,L|364:175,3,17.500000667572,8|0|0|8,0:0|0:0|0:0|0:0,0:0:0:0:
180,138,36912,1,8,0:0:0:0:
381,164,37074,6,0,L|390:227,1,52.5000020027161,0|0,0:0|0:0,0:0:0:0:
493,222,37317,2,0,L|483:279,1,52.5000020027161,4|4,1:0|1:0,0:0:0:0:
406,344,37560,2,0,L|412:383,2,26.2500010013581,8|0|8,1:0|0:0|1:0,0:0:0:0:
297,258,37885,2,0,P|233:265|183:284,1,105.000004005432,8|0,1:0|0:0,0:0:0:0:
78,353,38209,5,0,0:0:0:0:
78,353,38371,2,0,P|70:270|88:177,1,175,6|8,0:0|0:0,0:0:0:0:
192,55,38858,1,2,0:0:0:0:
113,324,39020,2,0,P|109:236|133:146,1,175,2|8,3:0|0:0,0:0:0:0:
234,30,39506,5,2,0:0:0:0:
412,13,39668,2,0,P|416:85|396:197,1,175,2|8,3:0|0:0,0:0:0:0:
273,278,40155,1,2,0:0:0:0:
158,124,40317,2,0,P|229:106|281:109,1,87.5,2|0,3:0|3:0,0:0:0:0:
381,197,40641,1,8,0:0:0:0:
487,41,40804,5,2,0:0:0:0:
487,41,40966,2,0,P|489:135|466:233,1,175,2|8,3:0|0:0,0:0:0:0:
330,283,41452,1,2,0:0:0:0:
202,337,41614,2,0,P|215:262|279:160,1,175,2|8,3:0|0:0,0:0:0:0:
299,299,42101,1,2,0:0:0:0:
160,344,42263,2,0,P|168:258|219:174,1,175,2|8,3:0|0:0,0:0:0:0:
368,127,42749,5,0,0:0:0:0:
265,35,42912,2,0,P|199:34|157:50,1,87.5,0|0,0:0|0:0,0:0:0:0:
52,153,43236,1,8,0:0:0:0:
152,54,43398,5,2,0:0:0:0:
173,220,43560,2,0,P|241:282|327:303,1,175,6|8,0:0|0:0,0:0:0:0:
166,88,44047,1,2,0:0:0:0:
173,271,44209,2,0,P|242:321|340:332,1,175,2|8,3:0|0:0,0:0:0:0:
396,238,44695,5,2,0:0:0:0:
438,19,44858,2,0,P|465:75|483:194,1,175,2|8,3:0|0:0,0:0:0:0:
371,263,45344,1,2,0:0:0:0:
406,41,45506,2,0,P|426:108|425:165,1,87.5,2|0,3:0|3:0,0:0:0:0:
370,288,45831,1,8,0:0:0:0:
310,102,45993,5,2,0:0:0:0:
175,38,46155,2,0,P|175:167|195:213,1,175,2|8,3:0|0:0,0:0:0:0:
279,127,46641,1,2,0:0:0:0:
110,92,46804,2,0,P|118:177|167:263,1,175,2|10,3:0|0:0,0:0:0:0:
317,296,47290,1,0,0:0:0:0:
113,308,47452,6,0,L|21:331,1,87.5,8|8,0:0|0:0,0:0:0:0:
73,219,48101,2,0,L|164:183,1,87.5,8|8,0:0|0:0,0:0:0:0:
231,113,48425,2,0,L|210:65,3,43.75,8|8|10|8,0:0|0:0|0:0|0:0,0:0:0:0:
317,283,48749,2,0,P|368:201|378:106,1,175,6|8,0:0|0:0,0:0:0:0:
287,19,49236,1,2,0:0:0:0:
394,242,49398,2,0,P|413:170|396:65,1,175,2|8,3:0|0:0,0:0:0:0:
260,14,49885,5,2,0:0:0:0:
99,9,50047,2,0,P|94:75|112:184,1,175,2|8,3:0|0:0,0:0:0:0:
251,48,50533,1,2,0:0:0:0:
61,80,50695,2,0,P|68:169|82:199,1,87.5,2|0,3:0|3:0,0:0:0:0:
156,321,51020,1,8,0:0:0:0:
197,151,51182,1,2,0:0:0:0:
21,237,51344,6,0,P|10:167|43:62,1,175,2|8,3:0|0:0,0:0:0:0:
218,124,51831,1,2,0:0:0:0:
118,304,51993,2,0,P|61:224|49:139,1,175,2|8,3:0|0:0,0:0:0:0:
127,24,52479,1,2,0:0:0:0:
265,130,52641,2,0,L|311:152,2,43.75,2|0|0,3:0|0:0|3:0,0:0:0:0:
76,112,52966,1,4,0:0:0:0:
72,225,53128,1,0,0:0:0:0:
143,331,53290,6,0,L|131:386,3,43.75,0|0|8|8,3:0|0:0|0:0|0:0,0:0:0:0:
229,198,53614,2,0,L|225:146,3,43.75,8|8|8|8,0:0|0:0|0:0|0:0,0:0:0:0:
271,342,53939,2,0,P|342:336|403:303,1,140,4|8,0:0|3:0,0:0:0:0:
476,82,54587,2,0,P|409:93|335:128,1,140,8|8,3:0|3:0,0:0:0:0:
200,335,55236,2,0,P|193:234|156:186,1,140,8|8,3:0|3:0,0:0:0:0:
241,9,55885,2,0,P|242:103|271:152,1,140,8|8,3:0|3:0,0:0:0:0:
16,248,56533,6,0,P|142:258|165:276,1,140,12|8,3:0|3:0,0:0:0:0:
446,293,57182,2,0,P|325:314|314:324,1,140,8|8,3:0|3:0,0:0:0:0:
166,175,57831,2,0,L|138:35,1,140,8|8,3:0|3:0,0:0:0:0:
309,307,58479,2,0,L|338:162,1,140,8|8,3:0|3:0,0:0:0:0:
384,24,59128,5,10,3:0:0:0:
392,214,59290,1,0,0:0:0:0:
297,42,59452,1,2,3:0:0:0:
477,104,59614,1,0,0:0:0:0:
309,73,59776,1,2,3:0:0:0:
406,247,59938,1,0,0:0:0:0:
321,99,60100,1,2,3:0:0:0:
508,83,60263,1,0,0:0:0:0:
307,214,60425,5,2,3:0:0:0:
373,22,60587,1,0,0:0:0:0:
509,189,60749,1,2,3:0:0:0:
251,88,60911,1,0,0:0:0:0:
423,273,61073,1,2,3:0:0:0:
462,28,61236,1,0,0:0:0:0:
289,225,61398,1,2,3:0:0:0:
244,54,61560,1,0,0:0:0:0:
492,19,61722,5,2,3:0:0:0:
280,251,61884,1,0,0:0:0:0:
347,7,62046,1,2,3:0:0:0:
488,218,62209,1,0,0:0:0:0:
347,24,62371,1,2,3:0:0:0:
273,272,62533,1,0,0:0:0:0:
454,59,62695,1,2,3:0:0:0:
193,106,62857,1,2,0:0:0:0:
411,227,63019,6,0,L|500:244,1,70,10|8,3:0|3:0,0:0:0:0:
390,114,63668,2,0,L|306:136,1,70,10|8,3:0|3:0,0:0:0:0:
142,31,64155,5,0,0:0:0:0:
142,31,64317,2,0,P|132:105|134:192,1,157.500006008148,0|0,0:0|0:0,0:0:0:0:
75,274,64965,2,0,P|141:293|225:245,1,157.500006008148,0|0,0:0|0:0,0:0:0:0:
183,147,65614,2,0,L|346:120,1,157.500006008148,0|0,0:0|0:0,0:0:0:0:
417,13,66263,2,0,P|447:82|450:167,1,157.500006008148,0|0,0:0|0:0,0:0:0:0:
504,275,66911,6,0,L|336:254,1,157.500006008148,0|0,0:0|0:0,0:0:0:0:
341,125,67560,2,0,L|190:174,1,157.500006008148,0|0,0:0|0:0,0:0:0:0:
119,288,68209,2,0,P|77:239|73:144,1,157.500006008148,0|0,0:0|0:0,0:0:0:0:
150,19,68857,2,0,P|178:100|169:179,1,157.500006008148,0|0,0:0|0:0,0:0:0:0:
44,254,69506,6,0,L|220:288,1,157.500006008148,0|0,0:0|0:0,0:0:0:0:
281,368,70155,2,0,P|292:288|278:211,1,157.500006008148,0|0,0:0|0:0,0:0:0:0:
391,227,70803,2,0,P|361:150|286:108,1,157.500006008148,0|0,0:0|0:0,0:0:0:0:
226,19,71452,2,0,P|200:78|194:129,1,105.000004005432,0|0,0:0|0:0,0:0:0:0:
230,233,71938,1,0,0:0:0:0:
340,299,72100,2,0,P|356:235|340:134,1,157.500006008148,0|0,0:0|0:0,0:0:0:0:
398,33,72749,2,0,P|268:50|223:70,1,157.500006008148,0|0,0:0|0:0,0:0:0:0:
172,205,73398,6,0,L|146:88,1,105.000004005432,8|8,3:0|3:0,0:0:0:0:
54,10,74046,2,0,L|23:123,1,105.000004005432,8|8,3:0|3:0,0:0:0:0:
63,253,74533,5,0,0:0:0:0:
63,253,74695,2,0,P|145:269|259:212,1,210.000008010865,6|8,0:0|0:0,0:0:0:0:
298,59,75182,1,2,0:0:0:0:
132,338,75344,2,0,P|210:296|276:187,1,210.000008010865,2|8,3:0|0:0,0:0:0:0:
284,33,75830,1,2,0:0:0:0:
436,12,75992,6,0,P|443:95|407:218,1,210.000008010865,2|8,3:0|0:0,0:0:0:0:
280,308,76479,1,0,0:0:0:0:
491,53,76641,2,0,P|481:145|466:190,1,105.000004005432,0|0,3:0|3:0,0:0:0:0:
339,316,76965,1,8,0:0:0:0:
322,81,77127,1,2,0:0:0:0:
512,252,77290,6,0,P|478:302|330:356,1,210.000008010865,6|8,0:0|0:0,0:0:0:0:
298,54,77776,1,2,0:0:0:0:
211,358,77938,2,0,P|176:282|172:148,1,210.000008010865,2|8,3:0|0:0,0:0:0:0:
315,35,78425,1,2,0:0:0:0:
435,123,78587,2,0,P|438:197|427:247,1,105.000004005432,2|0,3:0|3:0,0:0:0:0:
356,346,78911,2,0,P|320:268|326:144,1,210.000008010865,4|2,0:0|0:0,0:0:0:0:
401,60,79398,6,0,L|392:18,2,35,8|8|8,0:0|0:0|0:0,0:0:0:0:
471,198,79641,2,0,L|504:223,2,35,8|8|8,0:0|0:0|0:0,0:0:0:0:
292,113,79884,6,0,P|279:188|295:296,1,175,6|4,0:0|0:0,0:0:0:0:
479,361,80533,2,0,P|493:293|468:179,1,175,8|8,3:0|3:0,0:0:0:0:
481,13,81182,2,0,L|285:36,1,175,8|8,3:0|3:0,0:0:0:0:
11,120,81830,2,0,L|201:143,1,175,8|0,3:0|0:0,0:0:0:0:
147,329,82479,2,0,P|63:251|-5:235,1,175,12|0,3:0|0:0,0:0:0:0:
239,205,83127,2,0,P|317:144|426:135,1,175,8|8,3:0|3:0,0:0:0:0:
60,6,83776,2,0,L|81:189,1,175,8|0,3:0|0:0,0:0:0:0:
433,64,84425,2,0,L|391:250,1,175,8|8,3:0|3:0,0:0:0:0:
271,360,85073,5,10,3:0:0:0:
241,142,85235,1,0,3:0:0:0:
164,358,85397,1,10,3:0:0:0:
139,110,85559,1,0,3:0:0:0:
369,238,85721,1,10,3:0:0:0:
86,265,85883,1,0,3:0:0:0:
273,22,86045,1,10,3:0:0:0:
279,337,86208,1,0,3:0:0:0:
286,2,86370,5,10,3:0:0:0:
48,116,86532,1,0,3:0:0:0:
398,139,86694,1,10,3:0:0:0:
171,4,86856,1,0,3:0:0:0:
167,328,87018,1,10,3:0:0:0:
379,57,87181,1,0,3:0:0:0:
20,205,87343,1,10,3:0:0:0:
358,329,87505,1,0,3:0:0:0:
154,12,87667,1,0,0:1:0:0:
