osu file format v14

[General]
AudioFilename: audio.mp3
AudioLeadIn: 0
PreviewTime: 37074
Countdown: 0
SampleSet: None
StackLeniency: 0.3
Mode: 0
LetterboxInBreaks: 0
WidescreenStoryboard: 1

[Editor]
DistanceSpacing: 1.3
BeatDivisor: 4
GridSize: 8
TimelineZoom: 1.5

[Metadata]
Title:Inferno - TV Size
TitleUnicode:Inferno - TV Size
Artist:Mrs. GREEN APPLE
ArtistUnicode:Mrs. GREEN APPLE
Creator:Darkpit
Version:Lil SnOwO's Extra
Source:炎炎ノ消防隊
Tags:fire brigade of flames opening one 1 op short version
BeatmapID:2188171
BeatmapSetID:1045080

[Difficulty]
HPDrainRate:4
CircleSize:3.6
OverallDifficulty:8
ApproachRate:9.1
SliderMultiplier:1.4
SliderTickRate:1

[Events]
//Background and Video events
0,0,"BG.jpg",0,0
//Break Periods
2,66263,72100
//Storyboard Layer 0 (Background)
//Storyboard Layer 1 (Fail)
//Storyboard Layer 2 (Pass)
//Storyboard Layer 3 (Foreground)
//Storyboard Layer 4 (Overlay)
//Storyboard Sound Samples

[TimingPoints]
750,324.324324324324,4,2,1,70,1,0
750,-90.9090909090909,4,2,1,70,0,0
26209,-111.111111111111,4,2,1,70,0,0
26695,-111.111111111111,4,1,1,70,0,0
37074,-81.9672131147541,4,1,1,70,0,0
38371,-81.9672131147541,4,2,1,85,0,0
53290,-88.4955752212389,4,2,1,70,0,0
59128,324.324324324324,4,2,1,70,1,1
64155,-111.111111111111,4,2,1,70,0,0
74695,-81.9672131147541,4,2,1,70,0,0
79236,-90.9090909090909,4,2,1,70,0,0
85073,324.324324324324,4,2,1,70,1,1
87667,-95.2380952380952,4,2,1,70,0,0
88964,-200,4,2,1,70,0,0

[HitObjects]
167,252,750,6,0,P|201:202|282:207,1,115.50000352478,12|0,0:0|0:0,0:0:0:0:
295,219,1074,2,0,L|399:214,1,77.0000023498536,8|0,0:0|0:0,0:0:0:0:
479,122,1398,2,0,L|403:119,1,77.0000023498536,0|0,3:0|3:0,0:0:0:0:
319,62,1722,1,8,0:0:0:0:
417,45,2047,6,0,P|415:90|385:140,1,77.0000023498536,0|0,3:0|3:0,0:0:0:0:
230,98,2371,2,0,L|150:97,1,77.0000023498536,8|0,0:0|0:0,0:0:0:0:
90,176,2695,1,0,3:0:0:0:
78,27,2858,1,0,3:0:0:0:
204,208,3020,1,12,0:0:0:0:
119,284,3344,6,0,P|161:313|205:324,1,77.0000023498536,12|0,0:0|0:0,0:0:0:0:
391,266,3668,5,8,0:0:0:0:
204,208,3831,1,0,0:0:0:0:
376,109,3993,5,8,0:0:0:0:
174,184,4155,1,0,0:0:0:0:
428,246,4317,5,8,0:0:0:0:
260,104,4479,1,0,0:0:0:0:
109,290,4641,5,8,0:0:0:0:
317,32,4804,1,8,0:0:0:0:
360,156,4966,2,0,L|376:197,3,38.5000011749268,8|8|8|8,0:0|0:0|0:0|0:0,0:0:0:0:
401,71,5290,5,0,0:0:0:0:
81,51,5452,1,0,0:0:0:0:
207,253,5777,5,0,0:0:0:0:
290,197,5939,2,0,L|304:276,1,77.0000023498536,6|0,3:0|0:0,0:0:0:0:
395,136,6263,2,0,L|381:215,1,77.0000023498536,2|0,3:0|0:0,0:0:0:0:
256,79,6587,2,0,P|311:74|346:86,1,77.0000023498536,2|0,3:0|0:0,0:0:0:0:
206,155,6912,2,0,P|151:160|116:148,1,77.0000023498536,2|0,3:0|0:0,0:0:0:0:
48,91,7236,2,0,P|22:161|59:226,1,154.000004699707,2|0,3:0|3:0,0:0:0:0:
5,311,7722,1,2,0:0:0:0:
224,271,7885,2,0,P|168:267|142:258,1,77.0000023498536,2|0,3:0|0:0,0:0:0:0:
292,345,8209,2,0,L|372:340,1,77.0000023498536,0|2,3:0|0:0,0:0:0:0:
428,259,8533,5,2,3:0:0:0:
286,192,8695,1,2,0:0:0:0:
464,122,8858,1,2,3:0:0:0:
464,122,9020,1,2,0:0:0:0:
345,62,9182,2,0,P|294:47|255:51,1,77.0000023498536,2|0,3:0|0:0,0:0:0:0:
185,101,9506,1,2,3:0:0:0:
247,284,9668,1,2,0:0:0:0:
287,163,9831,1,2,3:0:0:0:
87,162,9993,5,2,0:0:0:0:
196,196,10155,1,2,3:0:0:0:
97,61,10317,1,0,0:0:0:0:
31,252,10479,2,0,P|26:306|32:341,1,77.0000023498536,2|0,3:0|0:0,0:0:0:0:
124,295,10804,5,2,3:0:0:0:
201,359,10966,1,2,0:0:0:0:
180,211,11128,2,0,P|124:195|92:199,1,77.0000023498536,2|0,3:0|0:0,0:0:0:0:
248,277,11452,2,0,L|346:272,1,77.0000023498536,2|0,3:0|0:0,0:0:0:0:
379,187,11777,2,0,L|302:183,1,77.0000023498536,2|0,3:0|0:0,0:0:0:0:
219,293,12101,2,0,L|317:288,1,77.0000023498536,2|0,3:0|0:0,0:0:0:0:
409,170,12425,2,0,B|303:165|303:165|239:136,1,154.000004699707,2|0,3:0|3:0,0:0:0:0:
336,43,12912,1,2,0:0:0:0:
336,43,13074,2,0,L|449:49,1,77.0000023498536,2|0,3:0|0:0,0:0:0:0:
242,55,13398,2,0,L|129:61,1,77.0000023498536,0|2,3:0|0:0,0:0:0:0:
92,128,13722,5,2,3:0:0:0:
92,128,13885,1,2,0:0:0:0:
36,43,14047,1,2,3:0:0:0:
191,137,14209,1,0,0:0:0:0:
23,61,14371,1,2,3:0:0:0:
134,235,14533,5,2,0:0:0:0:
151,58,14695,1,2,3:0:0:0:
226,222,14858,1,2,0:0:0:0:
26,194,15020,5,2,3:0:0:0:
26,194,15182,2,0,P|56:152|82:132,1,77.0000023498536,2|0,0:0|3:0,0:0:0:0:
181,331,15506,5,2,0:0:0:0:
181,331,15668,2,0,P|152:306|132:274,1,77.0000023498536,2|0,3:0|0:0,0:0:0:0:
301,223,15993,6,0,P|245:216|215:226,1,77.0000023498536,0|0,0:0|0:0,0:0:0:0:
373,299,16317,6,0,L|405:223,1,77.0000023498536,6|0,0:0|0:0,0:0:0:0:
475,157,16641,2,0,L|507:233,1,77.0000023498536,10|0,0:0|0:0,0:0:0:0:
379,146,16966,2,0,P|395:99|432:70,1,77.0000023498536,2|0,3:0|3:0,0:0:0:0:
344,0,17290,2,0,P|328:47|291:76,1,77.0000023498536,10|0,0:0|0:0,0:0:0:0:
107,7,17614,2,0,B|203:-10|203:-10|266:1,1,154.000004699707,2|8,3:0|0:0,0:0:0:0:
206,86,18101,1,2,0:0:0:0:
262,169,18263,2,0,P|272:222|260:266,1,77.0000023498536,2|0,3:0|3:0,0:0:0:0:
93,274,18587,1,8,0:0:0:0:
188,210,18749,1,2,0:0:0:0:
194,325,18912,5,2,3:0:0:0:
127,149,19074,1,2,3:0:0:0:
15,327,19236,1,10,0:0:0:0:
51,196,19398,1,2,0:0:0:0:
109,363,19560,2,0,P|107:303|121:270,1,77.0000023498536,2|0,3:0|3:0,0:0:0:0:
278,368,19885,5,10,0:0:0:0:
214,174,20047,1,2,0:0:0:0:
406,141,20209,1,2,3:0:0:0:
289,258,20371,1,2,3:0:0:0:
354,59,20533,2,0,P|406:43|454:50,1,77.0000023498536,10|0,0:0|0:0,0:0:0:0:
470,71,20777,1,8,0:0:0:0:
470,71,20858,1,2,3:0:0:0:
319,144,21020,1,0,3:0:0:0:
489,184,21182,5,10,0:0:0:0:
288,159,21344,1,2,0:0:0:0:
345,343,21506,2,0,P|351:293|341:256,1,77.0000023498536,2|0,3:0|3:0,0:0:0:0:
207,125,21831,2,0,P|200:162|207:200,1,77.0000023498536,10|0,0:0|0:0,0:0:0:0:
366,367,22155,2,0,P|372:317|362:280,1,77.0000023498536,2|0,3:0|3:0,0:0:0:0:
182,105,22479,2,0,P|175:142|182:180,1,77.0000023498536,10|0,0:0|0:0,0:0:0:0:
319,135,22804,2,0,P|355:99|450:143,1,154.000004699707,2|8,0:0|0:0,0:0:0:0:
292,222,23290,1,2,0:0:0:0:
292,222,23452,2,0,P|370:211|377:206,1,77.0000023498536,2|0,3:0|3:0,0:0:0:0:
260,72,23777,5,8,0:0:0:0:
213,256,23939,1,2,0:0:0:0:
319,136,24101,5,2,3:0:0:0:
101,86,24263,1,2,3:0:0:0:
231,165,24425,1,10,0:0:0:0:
177,28,24587,2,0,L|146:5,1,38.5000011749268,0|8,0:0|0:0,0:0:0:0:
11,109,24749,1,2,3:0:0:0:
11,109,24912,1,2,3:0:0:0:
58,206,25074,2,0,P|111:199|147:207,1,77.0000023498536,10|2,0:0|0:0,0:0:0:0:
216,260,25398,1,2,3:0:0:0:
307,220,25560,1,2,3:0:0:0:
100,308,25722,5,8,0:0:0:0:
411,174,25885,1,0,3:0:0:0:
177,28,26047,2,0,L|171:94,1,38.5000011749268,8|0,0:0|0:0,0:0:0:0:
104,143,26695,6,0,P|141:162|229:156,3,125.999996154785,0|0|8|0,0:0|0:0|0:0|0:0,0:0:0:0:
314,89,27993,2,0,B|358:140|334:210|334:210|347:241|364:259|364:259|350:285|351:341,1,251.999992309571,8|4,0:0|0:0,0:0:0:0:
441,314,28966,1,4,0:0:0:0:
270,272,29290,5,4,0:0:0:0:
270,272,29614,1,8,0:0:0:0:
113,324,29939,5,8,0:0:0:0:
113,324,30263,1,4,0:0:0:0:
58,157,30587,6,0,B|132:130|189:174|189:174|240:137|299:148,1,251.999992309571,4|8,0:0|0:0,0:0:0:0:
269,253,31560,1,8,0:0:0:0:
381,72,31885,6,0,P|405:120|407:202,1,125.999996154785,4|0,0:0|0:0,0:0:0:0:
338,338,32533,1,4,0:0:0:0:
253,148,32858,1,0,0:0:0:0:
376,343,33182,5,8,0:0:0:0:
214,137,33506,1,0,0:0:0:0:
357,253,33831,1,4,0:0:0:0:
126,315,34155,1,4,0:0:0:0:
264,224,34479,1,4,0:0:0:0:
264,224,34804,1,0,0:0:0:0:
215,133,35128,2,0,P|261:123|363:235,1,188.999994232178,4|0,0:0|0:0,0:0:0:0:
423,261,35777,5,0,0:0:0:0:
447,131,35939,2,0,L|452:90,1,31.4999990386963,8|4,0:0|0:0,0:0:0:0:
410,109,36101,2,0,L|415:68,2,31.4999990386963,0|4|8,0:0|0:0|0:0,0:0:0:0:
326,22,36425,6,0,L|327:61,1,31.4999990386963,0|0,0:0|0:0,0:0:0:0:
298,83,36587,2,0,L|299:113,2,20.9999993591309,8|0|0,0:0|0:0|0:0,0:0:0:0:
238,21,36749,1,8,0:0:0:0:
265,218,36912,1,8,0:0:0:0:
178,148,37074,6,0,P|132:136|90:138,1,85.3999964816286,0|0,0:0|0:0,0:0:0:0:
119,245,37317,2,0,P|131:290|154:326,1,85.3999964816286,4|4,1:0|1:0,0:0:0:0:
233,248,37560,2,0,P|266:214|285:176,1,85.3999964816286,8|8,1:0|1:0,0:0:0:0:
391,72,37885,5,8,1:0:0:0:
426,315,38047,1,0,0:0:0:0:
360,199,38209,5,0,0:0:0:0:
174,343,38371,2,0,P|148:298|139:176,1,170.799992963257,6|8,0:0|0:0,0:0:0:0:
435,124,38858,1,2,0:0:0:0:
435,124,39020,2,0,P|373:101|249:111,1,170.799992963257,2|8,3:0|0:0,0:0:0:0:
247,213,39506,5,2,0:0:0:0:
95,8,39668,2,0,P|71:62|72:192,1,170.799992963257,2|8,3:0|0:0,0:0:0:0:
146,250,40155,1,2,0:0:0:0:
245,77,40317,2,0,P|295:67|431:87,1,170.799992963257,2|8,3:0|0:0,0:0:0:0:
335,160,40804,5,2,0:0:0:0:
466,347,40966,2,0,P|486:295|489:175,1,170.799992963257,2|8,3:0|0:0,0:0:0:0:
398,244,41452,1,2,0:0:0:0:
245,334,41614,2,0,P|189:347|61:317,1,170.799992963257,2|8,3:0|0:0,0:0:0:0:
177,125,42101,1,2,0:0:0:0:
282,187,42263,1,2,3:0:0:0:
104,227,42425,1,0,3:0:0:0:
155,21,42587,2,0,P|209:23|264:56,1,85.3999964816286,8|0,0:0|0:0,0:0:0:0:
338,83,42912,5,0,0:0:0:0:
94,93,43074,1,0,0:0:0:0:
306,273,43236,1,8,0:0:0:0:
237,34,43398,5,2,0:0:0:0:
184,327,43560,2,0,P|171:271|182:136,1,170.799992963257,6|8,0:0|0:0,0:0:0:0:
341,82,44047,1,2,0:0:0:0:
341,82,44209,2,0,P|348:166|332:250,1,170.799992963257,2|8,3:0|0:0,0:0:0:0:
261,165,44695,5,2,0:0:0:0:
84,55,44858,2,0,P|59:107|43:237,1,170.799992963257,2|8,3:0|0:0,0:0:0:0:
143,173,45344,1,2,0:0:0:0:
344,84,45506,2,0,P|422:73|522:95,1,170.799992963257,2|8,3:0|0:0,0:0:0:0:
426,201,45993,1,2,0:0:0:0:
266,4,46155,2,0,P|244:64|270:192,1,170.799992963257,2|8,3:0|0:0,0:0:0:0:
332,249,46641,1,2,0:0:0:0:
163,333,46804,2,0,P|115:329|59:331,1,85.3999964816286,2|0,3:0|3:0,0:0:0:0:
2,247,47128,5,10,0:0:0:0:
184,218,47290,1,0,0:0:0:0:
102,44,47452,5,8,0:0:0:0:
162,333,47614,1,8,0:0:0:0:
173,364,48101,5,8,0:0:0:0:
257,88,48263,1,8,0:0:0:0:
338,228,48425,1,8,0:0:0:0:
361,224,48506,1,8,0:0:0:0:
386,223,48587,6,0,P|434:224|447:227,1,42.6999982408143,10|8,0:0|0:0,0:0:0:0:
206,167,48749,2,0,P|116:164|33:149,1,170.799992963257,6|8,0:0|0:0,0:0:0:0:
319,15,49236,1,2,0:0:0:0:
319,15,49398,2,0,P|336:73|336:186,1,170.799992963257,2|8,3:0|0:0,0:0:0:0:
434,235,49885,5,2,0:0:0:0:
257,334,50047,2,0,P|188:323|85:336,1,170.799992963257,2|8,3:0|0:0,0:0:0:0:
6,259,50533,1,2,0:0:0:0:
145,91,50695,2,0,P|207:104|314:86,1,170.799992963257,2|8,3:0|0:0,0:0:0:0:
421,1,51182,5,2,0:0:0:0:
454,293,51344,2,0,P|473:247|477:126,1,170.799992963257,2|8,3:0|0:0,0:0:0:0:
376,175,51831,1,2,0:0:0:0:
187,134,51993,2,0,P|138:125|81:123,2,85.3999964816286,2|0|8,3:0|3:0|0:0,0:0:0:0:
269,228,52479,5,2,0:0:0:0:
346,66,52641,1,2,3:0:0:0:
417,293,52804,1,0,3:0:0:0:
255,60,52966,1,4,0:0:0:0:
207,305,53128,1,0,0:0:0:0:
452,210,53290,2,0,L|491:213,3,39.550000120697,0|0|8|8,3:0|0:0|0:0|0:0,0:0:0:0:
393,151,53614,2,0,L|354:148,3,39.550000120697,8|8|8|8,0:0|0:0|0:0|0:0,0:0:0:0:
465,62,53939,6,0,L|359:51,1,79.100000241394,4|0,0:0|0:0,0:0:0:0:
47,62,54263,2,0,L|153:51,1,79.100000241394,8|0,3:0|0:0,0:0:0:0:
380,226,54587,6,0,P|344:241|305:244,1,79.100000241394,8|0,3:0|3:0,0:0:0:0:
131,226,54912,2,0,P|167:241|207:244,1,79.100000241394,8|0,3:0|3:0,0:0:0:0:
474,258,55236,6,0,P|450:289|417:312,1,79.100000241394,8|0,3:0|3:0,0:0:0:0:
38,258,55560,2,0,P|61:289|94:312,1,79.100000241394,8|0,3:0|3:0,0:0:0:0:
302,79,55885,6,0,L|295:157,1,79.100000241394,8|0,3:0|0:0,0:0:0:0:
321,61,56209,2,0,L|314:139,1,79.100000241394,8|0,3:0|0:0,0:0:0:0:
215,307,56533,6,0,L|222:229,1,79.100000241394,12|0,3:0|0:0,0:0:0:0:
196,325,56857,2,0,L|203:247,1,79.100000241394,8|0,3:0|0:0,0:0:0:0:
146,109,57182,6,0,P|201:95|249:99,1,79.100000241394,8|0,3:0|0:0,0:0:0:0:
127,129,57506,2,0,P|182:115|230:119,1,79.100000241394,8|0,3:0|0:0,0:0:0:0:
241,301,57831,6,0,P|201:260|180:216,1,79.100000241394,8|0,3:0|0:0,0:0:0:0:
267,307,58155,2,0,P|227:266|206:222,1,79.100000241394,8|0,3:0|0:0,0:0:0:0:
354,127,58479,6,0,P|338:181|311:221,1,79.100000241394,8|0,3:0|0:0,0:0:0:0:
346,101,58803,2,0,P|330:155|303:195,1,79.100000241394,8|0,3:0|0:0,0:0:0:0:
245,39,59128,5,10,3:0:0:0:
461,114,59290,1,0,0:0:0:0:
246,176,59452,5,2,3:0:0:0:
411,42,59614,1,0,0:0:0:0:
421,284,59776,5,2,3:0:0:0:
331,92,59938,1,0,0:0:0:0:
304,338,60100,5,2,3:0:0:0:
386,165,60263,1,0,0:0:0:0:
114,108,60425,5,2,3:0:0:0:
343,61,60587,1,0,0:0:0:0:
244,266,60749,5,2,3:0:0:0:
146,13,60911,1,0,0:0:0:0:
41,299,61073,5,2,3:0:0:0:
213,88,61236,1,0,0:0:0:0:
269,368,61398,5,2,3:0:0:0:
83,184,61560,1,0,0:0:0:0:
300,47,61722,5,2,3:0:0:0:
72,170,61884,1,0,0:0:0:0:
378,138,62046,5,2,3:0:0:0:
54,160,62209,1,0,0:0:0:0:
387,270,62371,5,2,3:0:0:0:
35,149,62533,1,0,0:0:0:0:
300,209,62695,5,2,3:0:0:0:
39,351,62857,1,2,0:0:0:0:
151,46,63019,5,10,3:0:0:0:
258,359,63182,1,8,3:0:0:0:
258,359,63668,5,10,3:0:0:0:
343,80,63830,2,0,P|367:37|445:68,1,140,8|0,3:0|0:0,0:0:0:0:
467,142,64317,1,0,0:0:0:0:
490,133,73398,5,8,3:0:0:0:
178,373,73560,1,8,3:0:0:0:
12,82,74046,5,8,3:0:0:0:
343,247,74209,2,0,L|419:241,1,62.9999980773926,8|0,3:0|0:0,0:0:0:0:
295,157,74533,6,0,L|343:153,1,31.4999990386963,0|0,0:0|0:0,0:0:0:0:
443,46,74695,2,0,P|387:37|264:45,1,170.799992963257,6|8,0:0|0:0,0:0:0:0:
125,159,75182,1,2,0:0:0:0:
125,159,75344,2,0,P|181:150|304:158,1,170.799992963257,2|8,3:0|0:0,0:0:0:0:
421,218,75830,5,2,0:0:0:0:
332,370,75992,2,0,P|277:360|129:361,1,170.799992963257,2|8,3:0|0:0,0:0:0:0:
87,274,76479,1,0,0:0:0:0:
273,65,76641,2,0,P|290:118|293:242,1,170.799992963257,0|8,3:0|0:0,0:0:0:0:
91,117,77127,5,2,0:0:0:0:
451,7,77290,2,0,P|472:61|489:199,1,170.799992963257,6|8,0:0|0:0,0:0:0:0:
273,65,77776,1,2,0:0:0:0:
362,291,77938,2,0,P|370:236|369:192,1,85.3999964816286,2|0,3:0|3:0,0:0:0:0:
262,177,78263,1,8,0:0:0:0:
454,260,78425,1,2,0:0:0:0:
268,353,78587,2,0,P|260:298|261:254,1,85.3999964816286,2|0,3:0|3:0,0:0:0:0:
326,96,78911,2,0,P|256:82|165:135,1,170.799992963257,4|2,0:0|0:0,0:0:0:0:
131,252,79398,2,0,L|176:250,1,38.5000011749268,8|8,0:0|0:0,0:0:0:0:
266,183,79560,2,0,L|321:185,3,38.5000011749268,8|8|8|8,0:0|0:0|0:0|0:0,0:0:0:0:
387,241,79884,6,0,P|402:205|404:167,1,77.0000023498536,6|0,0:0|0:0,0:0:0:0:
145,121,80209,2,0,P|130:156|129:195,1,77.0000023498536,4|0,0:0|0:0,0:0:0:0:
367,148,80533,6,0,P|355:120|320:84,1,77.0000023498536,8|0,3:0|0:0,0:0:0:0:
161,218,80858,2,0,P|173:246|207:280,1,77.0000023498536,8|0,3:0|0:0,0:0:0:0:
318,53,81182,6,0,P|281:38|216:37,1,77.0000023498536,8|0,3:0|0:0,0:0:0:0:
193,306,81507,2,0,P|230:321|293:322,1,77.0000023498536,8|0,3:0|0:0,0:0:0:0:
406,136,81830,6,0,L|416:223,1,77.0000023498536,8|0,3:0|0:0,0:0:0:0:
251,229,82155,2,0,L|242:152,1,77.0000023498536,0|0,0:0|0:0,0:0:0:0:
450,192,82479,6,0,L|442:116,1,77.0000023498536,12|0,3:0|0:0,0:0:0:0:
208,170,82803,2,0,L|217:247,1,77.0000023498536,0|0,0:0|0:0,0:0:0:0:
227,77,83127,6,0,P|167:84|148:96,1,77.0000023498536,8|0,3:0|0:0,0:0:0:0:
280,237,83452,2,0,P|303:181|303:159,1,77.0000023498536,8|0,3:0|0:0,0:0:0:0:
115,205,83776,2,0,P|151:253|170:263,1,77.0000023498536,8|0,3:0|0:0,0:0:0:0:
276,60,84100,2,0,P|197:41|167:47,1,77.0000023498536,0|0,0:0|0:0,0:0:0:0:
323,233,84425,6,0,P|300:264|269:287,1,77.0000023498536,8|0,3:0|0:0,0:0:0:0:
75,170,84749,2,0,P|79:209|95:244,1,77.0000023498536,8|0,3:0|0:0,0:0:0:0:
205,170,85073,5,10,3:0:0:0:
235,381,85235,1,0,3:0:0:0:
328,119,85397,5,10,3:0:0:0:
165,304,85559,1,0,3:0:0:0:
428,197,85721,5,10,3:0:0:0:
93,216,85883,1,0,3:0:0:0:
342,268,86045,5,10,3:0:0:0:
239,85,86208,1,0,3:0:0:0:
165,304,86370,5,10,3:0:0:0:
356,102,86532,1,0,3:0:0:0:
53,45,86694,5,10,3:0:0:0:
284,178,86856,1,0,3:0:0:0:
7,238,87018,5,10,3:0:0:0:
239,85,87181,1,0,3:0:0:0:
3,136,87343,5,10,3:0:0:0:
196,233,87505,1,0,3:0:0:0:
126,139,87667,2,0,P|90:198|102:304,2,146.999995513916,0|0|0,0:1|0:0|0:0,0:0:0:0:
84,57,88640,6,0,P|134:45|164:51,1,73.4999977569581,0|0,0:0|0:0,0:0:0:0:
232,105,88964,2,0,P|287:103|316:99,1,70,0|0,0:0|0:0,0:0:0:0:
