osu file format v14

[General]
AudioFilename: audio.mp3
AudioLeadIn: 0
PreviewTime: 37074
Countdown: 0
SampleSet: None
StackLeniency: 0.7
Mode: 0
LetterboxInBreaks: 0
WidescreenStoryboard: 1

[Editor]
DistanceSpacing: 1.6
BeatDivisor: 4
GridSize: 8
TimelineZoom: 2.262

[Metadata]
Title:Inferno - TV Size
TitleUnicode:Inferno - TV Size
Artist:Mrs. GREEN APPLE
ArtistUnicode:Mrs. GREEN APPLE
Creator:Darkpit
Version:Flyzy's Extra
Source:炎炎ノ消防隊
Tags:fire brigade of flames opening one 1 op short version
BeatmapID:2188170
BeatmapSetID:1045080

[Difficulty]
HPDrainRate:5.3
CircleSize:4
OverallDifficulty:8.2
ApproachRate:9.3
SliderMultiplier:1.4
SliderTickRate:1

[Events]
//Background and Video events
0,0,"BG.jpg",0,0
//Break Periods
//Storyboard Layer 0 (Background)
//Storyboard Layer 1 (Fail)
//Storyboard Layer 2 (Pass)
//Storyboard Layer 3 (Foreground)
//Storyboard Layer 4 (Overlay)
//Storyboard Sound Samples

[TimingPoints]
750,324.324324324324,4,2,1,70,1,0
750,-100,4,2,1,70,0,0
5777,-116.279069767442,4,2,1,70,0,0
26371,-90.9090909090909,4,2,1,70,0,0
26695,-90.9090909090909,4,1,1,70,0,0
37074,-100,4,1,1,70,0,0
38209,-83.3333333333333,4,1,1,70,0,0
38371,-83.3333333333333,4,2,1,85,0,0
53290,-90.9090909090909,4,2,1,70,0,0
59128,324.324324324324,4,2,1,70,1,1
64155,-116.279069767442,4,2,1,70,0,0
74533,-83.3333333333333,4,2,1,70,0,0
79236,-90.9090909090909,4,2,1,70,0,0
79884,-116.279069767442,4,2,1,70,0,0
85073,324.324324324324,4,2,1,70,1,1
87667,-95.2380952380952,4,2,1,70,0,0

[HitObjects]
84,46,750,6,0,P|122:53|154:73,1,70,12|0,0:0|0:0,0:0:0:0:
161,193,1074,2,0,P|191:209|225:215,1,70,8|0,0:0|0:0,0:0:0:0:
343,44,1398,1,0,3:0:0:0:
343,44,1560,6,0,B|340:83|340:83|344:126,1,70,0|8,3:0|0:0,0:0:0:0:
451,178,1885,1,0,0:0:0:0:
451,178,2047,2,0,B|454:217|454:217|450:260,1,70,0|0,3:0|3:0,0:0:0:0:
408,351,2371,1,8,0:0:0:0:
384,241,2533,1,0,0:0:0:0:
327,369,2695,1,0,3:0:0:0:
339,228,2858,1,0,3:0:0:0:
339,228,3020,6,0,B|340:185|340:185|330:154,1,70,12|0,0:0|0:0,0:0:0:0:
266,32,3344,1,12,0:0:0:0:
216,175,3506,1,0,0:0:0:0:
128,14,3668,5,8,0:0:0:0:
284,110,3831,1,0,0:0:0:0:
86,189,3993,5,8,0:0:0:0:
199,8,4155,1,0,0:0:0:0:
229,250,4317,5,8,0:0:0:0:
90,48,4479,1,0,0:0:0:0:
327,105,4641,2,0,P|366:93|414:111,1,70,8|8,0:0|0:0,0:0:0:0:
282,303,4966,5,8,0:0:0:0:
282,303,5047,1,8,0:0:0:0:
282,303,5128,2,0,L|273:252,1,35,8|8,0:0|0:0,0:0:0:0:
265,185,5290,1,0,0:0:0:0:
426,231,5452,1,0,0:0:0:0:
79,97,5777,1,0,0:0:0:0:
79,97,5939,6,0,P|73:133|75:159,1,60.2000009185791,6|0,3:0|0:0,0:0:0:0:
180,177,6263,2,0,P|186:213|184:239,1,60.2000009185791,2|0,3:0|0:0,0:0:0:0:
242,327,6587,2,0,P|182:345|121:326,1,120.400001837158,2|2,3:0|3:0,0:0:0:0:
253,217,7074,1,0,0:0:0:0:
253,217,7236,6,0,P|280:204|370:226,1,120.400001837158,2|0,3:0|3:0,0:0:0:0:
442,72,7722,2,0,P|438:112|446:141,1,60.2000009185791,2|2,0:0|3:0,0:0:0:0:
305,30,8047,2,0,P|307:68|301:99,1,60.2000009185791,0|0,0:0|3:0,0:0:0:0:
291,257,8371,1,2,0:0:0:0:
291,257,8533,6,0,B|266:241|266:241|233:230,1,60.2000009185791,2|2,3:0|0:0,0:0:0:0:
73,276,8858,2,0,B|98:292|98:292|131:303,1,60.2000009185791,2|2,3:0|0:0,0:0:0:0:
301,256,9182,2,0,B|274:238|274:238|238:226,1,60.2000009185791,2|0,3:0|0:0,0:0:0:0:
186,99,9506,1,2,3:0:0:0:
350,133,9668,1,2,0:0:0:0:
186,178,9831,1,2,3:0:0:0:
313,67,9993,1,2,0:0:0:0:
231,293,10155,6,0,B|236:258|236:258|222:219|222:219|228:165,1,120.400001837158,2|2,3:0|3:0,0:0:0:0:
119,366,10641,1,0,0:0:0:0:
119,366,10804,2,0,L|123:291,1,60.2000009185791,2|2,3:0|0:0,0:0:0:0:
203,246,11128,2,0,L|198:174,1,60.2000009185791,2|0,3:0|0:0,0:0:0:0:
163,83,11452,2,0,P|195:74|221:77,1,60.2000009185791,2|0,3:0|0:0,0:0:0:0:
266,176,11777,2,0,P|298:185|324:182,1,60.2000009185791,2|0,3:0|0:0,0:0:0:0:
418,42,12101,1,2,3:0:0:0:
418,42,12263,1,0,0:0:0:0:
418,42,12425,6,0,P|430:111|422:178,1,120.400001837158,2|0,3:0|3:0,0:0:0:0:
313,287,12912,2,0,B|297:270|301:256|301:256|286:258|275:234,2,60.2000009185791,2|2|0,0:0|3:0|0:0,0:0:0:0:
471,344,13398,2,0,P|472:291|462:261,1,60.2000009185791,0|2,3:0|0:0,0:0:0:0:
420,149,13722,1,2,3:0:0:0:
341,299,13885,1,2,0:0:0:0:
308,133,14047,5,2,3:0:0:0:
452,220,14209,1,0,0:0:0:0:
377,69,14371,5,2,3:0:0:0:
349,235,14533,1,2,0:0:0:0:
463,111,14695,5,2,3:0:0:0:
295,84,14858,1,2,0:0:0:0:
404,212,15020,5,2,3:0:0:0:
424,44,15182,1,2,0:0:0:0:
424,44,15344,1,0,3:0:0:0:
424,44,15506,2,0,L|355:72,1,60.2000009185791,2|2,0:0|3:0,0:0:0:0:
33,334,15993,6,0,P|66:346|115:341,1,60.2000009185791,0|0,0:0|0:0,0:0:0:0:
129,245,16317,2,0,P|158:246|186:257,1,60.2000009185791,6|0,0:0|0:0,0:0:0:0:
243,350,16641,2,0,P|284:291|282:230,1,120.400001837158,10|2,0:0|3:0,0:0:0:0:
166,123,17128,1,0,3:0:0:0:
166,123,17290,6,0,P|188:146|206:192,1,60.2000009185791,10|0,0:0|0:0,0:0:0:0:
249,35,17614,2,0,B|240:21|240:21|274:27|274:27|307:24|307:24|347:36,1,120.400001837158,2|8,3:0|0:0,0:0:0:0:
285,168,18101,1,2,0:0:0:0:
285,168,18263,2,0,P|329:175|356:170,1,60.2000009185791,2|0,3:0|3:0,0:0:0:0:
154,357,18587,1,8,0:0:0:0:
154,357,18749,5,2,0:0:0:0:
154,357,18912,2,0,P|150:312|154:289,1,60.2000009185791,2|2,3:0|3:0,0:0:0:0:
253,258,19236,2,0,P|257:213|253:190,1,60.2000009185791,10|2,0:0|0:0,0:0:0:0:
187,70,19560,1,2,3:0:0:0:
187,70,19885,5,10,0:0:0:0:
142,207,20047,1,2,0:0:0:0:
87,47,20209,1,2,3:0:0:0:
213,157,20371,1,2,3:0:0:0:
29,213,20533,2,0,P|7:239|23:295,1,90.3000013778687,10|8,0:0|0:0,0:0:0:0:
48,289,20858,2,0,B|86:266|115:282|115:282|145:296|177:283,1,120.400001837158,2|10,3:0|0:0,0:0:0:0:
44,167,21344,1,2,0:0:0:0:
44,167,21506,6,0,B|36:136|36:136|45:99,1,60.2000009185791,2|0,3:0|3:0,0:0:0:0:
99,15,21831,2,0,B|130:7|130:7|167:15,1,60.2000009185791,10|0,0:0|0:0,0:0:0:0:
163,121,22155,2,0,L|141:195,1,60.2000009185791,2|0,3:0|3:0,0:0:0:0:
242,130,22479,2,0,L|278:197,1,60.2000009185791,10|0,0:0|0:0,0:0:0:0:
304,81,22804,2,0,L|424:116,1,120.400001837158,2|8,0:0|0:0,0:0:0:0:
384,298,23290,1,2,0:0:0:0:
384,298,23452,6,0,P|358:266|328:249,1,60.2000009185791,2|0,3:0|3:0,0:0:0:0:
232,160,23777,1,8,0:0:0:0:
400,150,23939,1,2,0:0:0:0:
400,150,24101,2,0,P|391:113|395:75,1,60.2000009185791,2|2,3:0|3:0,0:0:0:0:
477,207,24425,2,0,P|468:244|472:282,1,60.2000009185791,10|0,0:0|0:0,0:0:0:0:
348,345,24749,6,0,L|301:339,1,30.1000004592896,2|0,3:0|0:0,0:0:0:0:
314,268,24912,2,0,L|277:247,1,30.1000004592896,2|0,3:0|0:0,0:0:0:0:
220,280,25074,2,0,P|186:291|146:244,1,90.3000013778687,10|0,0:0|0:0,0:0:0:0:
150,228,25398,2,0,P|155:176|95:196,1,120.400001837158,2|8,3:0|0:0,0:0:0:0:
472,37,26047,1,8,0:0:0:0:
234,359,26371,6,0,P|231:310|208:273,1,77.0000023498536,0|0,0:0|0:0,0:0:0:0:
83,257,26695,2,0,B|125:230|124:191|124:191|126:149|159:128,1,154.000004699707,0|0,0:0|0:0,0:0:0:0:
351,35,27182,1,0,0:0:0:0:
351,35,27344,6,0,B|336:74|336:74|338:124,1,77.0000023498536,8|0,0:0|0:0,0:0:0:0:
452,32,27668,2,0,B|467:71|467:71|465:121,1,77.0000023498536,0|8,0:0|0:0,0:0:0:0:
351,35,27993,2,0,B|333:109|333:109|344:194,1,154.000004699707,8|0,0:0|0:0,0:0:0:0:
217,361,28479,1,0,0:0:0:0:
217,361,28641,6,0,P|231:327|161:302,1,115.50000352478,4|0,0:0|0:0,0:0:0:0:
157,283,28966,2,0,B|136:276|136:276|170:225|170:225|214:191,1,115.50000352478,4|0,0:0|0:0,0:0:0:0:
190,186,29290,2,0,L|312:245,1,115.50000352478,4|0,0:0|0:0,0:0:0:0:
307,222,29614,2,0,P|317:185|399:205,1,115.50000352478,8|8,0:0|0:0,0:0:0:0:
390,199,29939,2,0,B|380:128|430:158|423:63,1,115.50000352478,8|0,0:0|0:0,0:0:0:0:
405,84,30263,2,0,B|344:72|344:72|301:106|301:106,1,115.50000352478,4|0,0:0|0:0,0:0:0:0:
299,124,30587,2,0,B|281:182|281:182|243:206|223:263,1,154.000004699707,4|4,0:0|0:0,0:0:0:0:
480,35,31074,1,0,0:0:0:0:
480,35,31236,6,0,P|432:51|393:42,1,77.0000023498536,8|8,0:0|0:0,0:0:0:0:
475,167,31560,2,0,B|467:207|467:207|475:244,1,77.0000023498536,8|8,0:0|0:0,0:0:0:0:
340,278,31885,2,0,B|348:318|348:318|340:355,1,77.0000023498536,4|0,0:0|0:0,0:0:0:0:
221,282,32209,2,0,B|213:242|213:242|221:205,1,77.0000023498536,0|8,0:0|0:0,0:0:0:0:
349,158,32533,6,0,B|357:118|357:118|349:81,1,77.0000023498536,4|0,0:0|0:0,0:0:0:0:
218,34,32858,2,0,P|194:66|193:103,1,77.0000023498536,0|8,0:0|0:0,0:0:0:0:
251,223,33182,2,0,P|274:189|276:154,1,77.0000023498536,8|0,0:0|0:0,0:0:0:0:
217,31,33506,2,0,L|160:99,1,77.0000023498536,0|0,0:0|0:0,0:0:0:0:
251,223,33831,2,0,L|194:291,1,77.0000023498536,4|0,0:0|0:0,0:0:0:0:
77,219,34155,1,4,0:0:0:0:
77,219,34317,5,0,0:0:0:0:
77,219,34479,2,0,B|74:177|74:177|91:138,1,77.0000023498536,4|0,0:0|0:0,0:0:0:0:
220,14,34804,1,0,0:0:0:0:
247,227,35128,2,0,B|224:207|224:207|265:198|265:198|295:182|295:182|342:194,1,154.000004699707,4|4,0:0|0:0,0:0:0:0:
99,331,35777,5,0,0:0:0:0:
99,331,35939,2,0,L|87:288,2,38.5000011749268,8|4|0,0:0|0:0|0:0,0:0:0:0:
160,124,36263,1,8,0:0:0:0:
221,331,36425,1,0,0:0:0:0:
221,331,36587,2,0,L|233:288,1,38.5000011749268,8|8,0:0|0:0,0:0:0:0:
260,190,36749,1,8,0:0:0:0:
346,354,36912,1,8,0:0:0:0:
465,187,37074,6,0,L|433:165,2,35,0|0|0,0:0|0:0|0:0,0:0:0:0:
382,200,37317,2,0,L|324:185,1,35,4|0,1:0|0:0,0:0:0:0:
369,135,37479,2,0,L|311:151,1,35,4|8,1:0|1:0,0:0:0:0:
325,86,37641,2,0,L|283:129,1,35,0|8,0:0|1:0,0:0:0:0:
264,66,37804,2,0,L|249:123,1,35,0|8,0:0|1:0,0:0:0:0:
222,264,38047,1,0,0:0:0:0:
58,54,38209,1,0,0:0:0:0:
58,54,38371,6,0,B|77:100|77:100|125:140|125:140|135:195,1,167.999994873047,6|8,0:0|0:0,0:0:0:0:
321,49,38858,1,2,0:0:0:0:
321,49,39020,6,0,P|350:76|303:178,1,167.999994873047,2|8,3:0|0:0,0:0:0:0:
494,318,39506,1,2,0:0:0:0:
494,318,39668,6,0,B|499:281|499:281|459:286|459:286|411:280|411:280|338:297,1,167.999994873047,2|8,3:0|0:0,0:0:0:0:
148,370,40155,1,2,0:0:0:0:
148,370,40317,6,0,B|121:326|146:288|146:288|168:250|137:203,1,167.999994873047,2|8,3:0|0:0,0:0:0:0:
346,92,40804,1,2,0:0:0:0:
346,92,40966,6,0,B|275:72|275:72|292:164,1,167.999994873047,2|8,3:0|0:0,0:0:0:0:
81,60,41452,1,2,0:0:0:0:
81,60,41614,6,0,B|101:117|122:136|122:136|122:165|146:219,1,167.999994873047,2|8,3:0|0:0,0:0:0:0:
335,351,42101,1,2,0:0:0:0:
335,351,42263,6,0,L|376:173,1,167.999994873047,2|8,3:0|0:0,0:0:0:0:
248,87,42749,2,0,L|211:141,1,41.9999987182618,0|8,0:0|0:0,0:0:0:0:
146,122,42912,2,0,L|158:167,1,41.9999987182618,0|0,0:0|0:0,0:0:0:0:
215,171,43074,6,0,L|194:242,2,41.9999987182618,0|0|8,0:0|0:0|0:0,0:0:0:0:
418,52,43399,1,2,0:0:0:0:
418,52,43561,6,0,P|438:98|437:241,1,167.999994873047,6|8,0:0|0:0,0:0:0:0:
212,75,44048,1,2,0:0:0:0:
212,75,44210,6,0,B|177:63|177:63|201:129|201:129|199:226,1,167.999994873047,2|0,3:0|0:0,0:0:0:0:
439,310,44696,1,2,0:0:0:0:
439,310,44858,6,0,B|402:264|408:230|408:230|372:243|327:217,1,167.999994873047,2|8,3:0|0:0,0:0:0:0:
95,350,45345,1,2,0:0:0:0:
95,350,45507,6,0,B|54:246|139:284|90:177,1,167.999994873047,2|8,3:0|0:0,0:0:0:0:
319,38,45994,1,2,0:0:0:0:
319,38,46156,6,0,L|376:216,1,167.999994873047,2|0,3:0|0:0,0:0:0:0:
193,38,46642,1,2,0:0:0:0:
193,38,46804,6,0,L|136:216,1,167.999994873047,2|10,3:0|0:0,0:0:0:0:
411,125,47290,6,0,L|351:125,2,41.9999987182618,0|0|8,0:0|0:0|0:0,0:0:0:0:
142,125,47614,1,8,0:0:0:0:
308,337,48101,5,8,0:0:0:0:
308,68,48263,1,8,0:0:0:0:
285,58,48425,6,0,L|267:105,1,41.9999987182618,8|8,0:0|0:0,0:0:0:0:
206,137,48587,2,0,L|230:199,1,41.9999987182618,10|8,0:0|0:0,0:0:0:0:
207,250,48749,2,0,B|130:205|130:205|86:124,1,167.999994873047,6|8,0:0|0:0,0:0:0:0:
382,44,49236,1,2,0:0:0:0:
382,44,49398,6,0,P|334:85|392:160,1,167.999994873047,2|8,3:0|0:0,0:0:0:0:
134,334,49885,1,2,0:0:0:0:
134,334,50047,6,0,B|104:275|104:275|115:226|115:226|99:169,1,167.999994873047,2|8,3:0|0:0,0:0:0:0:
372,309,50533,1,2,0:0:0:0:
372,309,50695,6,0,B|352:259|313:248|313:248|274:236|246:201,1,167.999994873047,2|8,3:0|0:0,0:0:0:0:
495,26,51182,1,2,0:0:0:0:
495,26,51344,6,0,B|476:82|476:82|489:135|473:191,1,167.999994873047,2|8,3:0|0:0,0:0:0:0:
225,14,51831,1,2,0:0:0:0:
225,14,51993,6,0,P|183:40|207:147,1,167.999994873047,2|8,3:0|0:0,0:0:0:0:
485,243,52479,1,2,0:0:0:0:
485,243,52641,6,0,B|441:193|390:207|390:207|325:185,1,167.999994873047,2|4,3:0|0:0,0:0:0:0:
91,363,53290,6,0,L|86:315,1,38.5000011749268,0|0,3:0|0:0,0:0:0:0:
171,287,53452,2,0,L|152:243,1,38.5000011749268,8|8,0:0|0:0,0:0:0:0:
65,230,53614,2,0,L|83:179,1,38.5000011749268,8|8,0:0|0:0,0:0:0:0:
96,151,53777,1,8,0:0:0:0:
126,116,53858,1,8,0:0:0:0:
163,88,53939,2,0,P|208:62|251:149,1,154.000004699707,4|8,0:0|3:0,0:0:0:0:
415,321,54587,2,0,B|416:266|441:247|441:247|473:227|473:157,1,154.000004699707,8|8,3:0|3:0,0:0:0:0:
270,39,55236,6,0,L|220:194,1,154.000004699707,8|8,3:0|3:0,0:0:0:0:
61,372,55885,2,0,P|76:337|192:354,1,154.000004699707,8|8,3:0|3:0,0:0:0:0:
392,211,56533,6,0,B|370:136|370:136|323:211,1,154.000004699707,12|8,3:0|3:0,0:0:0:0:
132,50,57182,2,0,B|90:46|90:46|100:83|126:95|126:95|147:107|175:144,1,154.000004699707,8|8,3:0|3:0,0:0:0:0:
291,337,57831,6,0,B|316:282|293:242|293:242|326:181,1,154.000004699707,8|8,3:0|3:0,0:0:0:0:
494,20,58479,2,0,L|382:132,1,154.000004699707,8|8,3:0|3:0,0:0:0:0:
84,47,59128,5,10,3:0:0:0:
82,260,59290,1,0,0:0:0:0:
211,58,59452,5,2,3:0:0:0:
15,197,59614,1,0,0:0:0:0:
275,254,59776,5,2,3:0:0:0:
140,24,59938,1,0,0:0:0:0:
130,316,60100,5,2,3:0:0:0:
313,84,60263,1,0,0:0:0:0:
16,203,60425,5,2,3:0:0:0:
332,245,60587,1,0,0:0:0:0:
63,42,60749,5,2,3:0:0:0:
153,357,60911,1,0,0:0:0:0:
151,31,61073,5,2,3:0:0:0:
241,347,61235,1,0,0:0:0:0:
239,22,61398,5,2,3:0:0:0:
328,337,61560,1,0,0:0:0:0:
396,85,61722,5,2,3:0:0:0:
184,247,61884,1,0,0:0:0:0:
322,20,62046,5,2,3:0:0:0:
282,284,62209,1,0,0:0:0:0:
190,34,62371,5,2,3:0:0:0:
398,200,62533,1,0,0:0:0:0:
133,169,62695,5,2,3:0:0:0:
359,308,62857,1,2,0:0:0:0:
251,64,63019,5,10,3:0:0:0:
252,331,63182,1,8,3:0:0:0:
384,187,63668,5,10,3:0:0:0:
117,188,63831,1,8,3:0:0:0:
415,371,64155,5,0,0:0:0:0:
415,371,64317,2,0,P|399:314|338:266,1,120.400001837158,0|0,0:0|0:0,0:0:0:0:
481,40,64803,5,0,0:0:0:0:
481,40,64965,2,0,B|442:37|442:37|412:50|412:50|358:44,1,120.400001837158,0|0,0:0|0:0,0:0:0:0:
182,239,65452,5,0,0:0:0:0:
182,239,65614,2,0,P|157:199|210:142,1,120.400001837158,0|0,0:0|0:0,0:0:0:0:
428,267,66100,5,0,0:0:0:0:
428,267,66263,2,0,B|408:226|420:206|420:206|400:198|386:158,1,120.400001837158,0|0,0:0|0:0,0:0:0:0:
181,328,66749,5,0,0:0:0:0:
181,328,66911,2,0,L|147:208,1,120.400001837158,0|0,0:0|0:0,0:0:0:0:
359,50,67398,5,0,0:0:0:0:
359,50,67560,2,0,L|403:164,1,120.400001837158,0|0,0:0|0:0,0:0:0:0:
160,55,68046,5,0,0:0:0:0:
159,55,68209,2,0,B|109:125|170:104|121:179,1,120.400001837158,0|0,0:0|0:0,0:0:0:0:
323,345,68695,5,0,0:0:0:0:
323,345,68857,2,0,P|310:343|302:255,1,120.400001837158,0|0,0:0|0:0,0:0:0:0:
48,353,69344,5,0,0:0:0:0:
48,353,69506,2,0,B|70:317|70:317|97:296|97:296|117:248,1,120.400001837158,0|0,0:0|0:0,0:0:0:0:
354,146,69992,5,0,0:0:0:0:
354,146,70155,2,0,B|324:112|292:111|292:111|262:111|236:88,1,120.400001837158,0|0,0:0|0:0,0:0:0:0:
194,356,70641,5,0,0:0:0:0:
194,356,70803,2,0,P|218:317|203:238,1,120.400001837158,0|0,0:0|0:0,0:0:0:0:
453,141,71290,5,0,0:0:0:0:
453,141,71452,2,0,P|429:102|444:23,1,120.400001837158,0|0,0:0|0:0,0:0:0:0:
175,60,71938,5,0,0:0:0:0:
175,60,72100,2,0,B|159:101|159:101|128:125|128:172,1,120.400001837158,0|0,0:0|0:0,0:0:0:0:
364,290,72587,5,0,0:0:0:0:
364,290,72749,2,0,P|324:220|336:167,1,120.400001837158,0|0,0:0|0:0,0:0:0:0:
122,103,73398,5,8,3:0:0:0:
413,215,73560,1,8,3:0:0:0:
414,187,74046,5,8,3:0:0:0:
108,127,74208,1,8,3:0:0:0:
16,259,74533,5,0,0:0:0:0:
16,259,74695,2,0,B|72:242|98:262|98:262|125:283|182:275,1,167.999994873047,6|8,0:0|0:0,0:0:0:0:
258,167,75182,1,2,0:0:0:0:
350,69,75344,2,0,B|347:44|347:44|381:80|381:80|420:98|420:98|473:149,1,167.999994873047,2|8,3:0|0:0,0:0:0:0:
380,243,75830,5,2,0:0:0:0:
360,375,75992,2,0,P|328:378|269:277,1,167.999994873047,2|8,3:0|0:0,0:0:0:0:
153,345,76479,1,0,0:0:0:0:
83,230,76641,2,0,B|171:163|159:238|251:171,1,167.999994873047,0|8,3:0|0:0,0:0:0:0:
290,56,77127,5,2,0:0:0:0:
414,109,77290,2,0,L|393:280,1,167.999994873047,6|8,0:0|0:0,0:0:0:0:
296,183,77776,1,2,0:0:0:0:
170,135,77938,2,0,B|153:93|153:93|104:64|89:118|89:118|104:161,1,167.999994873047,2|8,3:0|0:0,0:0:0:0:
148,280,78425,5,2,0:0:0:0:
261,351,78587,2,0,B|284:304|280:264|280:264|348:208,1,167.999994873047,2|4,3:0|0:0,0:0:0:0:
246,117,79073,5,0,0:0:0:0:
131,68,79236,2,0,L|81:110,1,38.5000011749268,2|0,0:0|0:0,0:0:0:0:
87,111,79398,1,8,0:0:0:0:
82,137,79479,1,8,0:0:0:0:
84,167,79560,1,8,0:0:0:0:
94,199,79641,1,8,0:0:0:0:
112,232,79722,2,0,L|154:266,1,38.5000011749268,8|8,0:0|0:0,0:0:0:0:
171,253,79884,2,0,B|233:268|233:268|305:251,1,120.400001837158,6|4,0:0|0:0,0:0:0:0:
398,96,80533,2,0,B|339:83|339:83|280:97,1,120.400001837158,8|8,3:0|3:0,0:0:0:0:
126,212,81182,6,0,P|110:173|136:96,1,120.400001837158,8|8,3:0|3:0,0:0:0:0:
305,182,81830,2,0,P|327:236|310:293,1,120.400001837158,8|0,3:0|0:0,0:0:0:0:
443,152,82479,6,0,B|404:122|401:88|401:88|366:54,1,120.400001837158,12|0,3:0|0:0,0:0:0:0:
178,58,83127,2,0,B|217:88|220:122|220:122|255:156,1,120.400001837158,8|8,3:0|3:0,0:0:0:0:
154,319,83776,6,0,L|130:190,1,120.400001837158,8|0,3:0|0:0,0:0:0:0:
314,264,84425,2,0,L|338:135,1,120.400001837158,8|8,3:0|3:0,0:0:0:0:
72,67,85073,5,10,3:0:0:0:
90,289,85235,1,0,3:0:0:0:
166,49,85397,5,10,3:0:0:0:
196,298,85559,1,0,3:0:0:0:
317,46,85721,5,10,3:0:0:0:
87,206,85883,1,0,3:0:0:0:
357,278,86045,5,10,3:0:0:0:
133,106,86208,1,0,3:0:0:0:
283,374,86370,5,10,3:0:0:0:
237,69,86532,1,0,3:0:0:0:
391,334,86694,5,10,3:0:0:0:
339,39,86856,1,0,3:0:0:0:
97,272,87018,5,10,3:0:0:0:
425,192,87181,1,0,3:0:0:0:
89,186,87343,5,10,3:0:0:0:
414,102,87505,1,0,3:0:0:0:
218,26,87667,2,0,P|202:64|202:108,1,73.4999977569581,0|0,0:1|0:0,0:0:0:0:
311,134,87991,2,0,P|327:172|327:216,1,73.4999977569581,0|0,0:0|0:0,0:0:0:0:
203,207,88316,2,0,P|187:245|187:289,1,73.4999977569581,0|0,0:0|0:0,0:0:0:0:
296,315,88640,2,0,P|312:353|312:397,1,73.4999977569581,0|0,0:0|0:0,0:0:0:0:
205,204,88964,1,0,0:0:0:0:
