osu file format v14

[General]
AudioFilename: 01. Inferno.mp3
AudioLeadIn: 0
PreviewTime: 54666
Countdown: 0
SampleSet: Soft
StackLeniency: 0.3
Mode: 0
LetterboxInBreaks: 0
WidescreenStoryboard: 1

[Editor]
Bookmarks: 342,1639,22396,43152,54828,80774,91152,101531,122287,147585,163477,172558,173855,186828,188125,206287
DistanceSpacing: 1.5
BeatDivisor: 4
GridSize: 4
TimelineZoom: 2.5

[Metadata]
Title:Inferno
TitleUnicode:インフェルノ
Artist:Mrs. GREEN APPLE
ArtistUnicode:Mrs. GREEN APPLE
Creator:gokugohan12468
Version:moph's Another
Source:炎炎ノ消防隊
Tags:Enen no Shouboutai OP Opening 1 one ミセスグリーンアップル Full Version Size Fire Force Attitude KittyAdventure FunnyA milr_ [_white_music_] william_k william k Fall _tranquility -_Frontier_- Frontier shockolatte moph hausenberg Jian Kaguya_Sama Dora- Doraemonelf collab collaboration 髙野清宗 藤澤涼架 山中綾華 大森元貴 若井滉斗 Hiroto Wakai Motoki Omori Ayaka Yamanaka Ryoka Fujisawa Kiyokazu Takano
BeatmapID:2127072
BeatmapSetID:1005253

[Difficulty]
HPDrainRate:6
CircleSize:4
OverallDifficulty:8
ApproachRate:9
SliderMultiplier:1.75
SliderTickRate:1

[Events]
//Background and Video events
Video,-160,"video.mp4"
0,0,"moph's BG.jpg",0,0
//Break Periods
2,164774,171260
//Storyboard Layer 0 (Background)
//Storyboard Layer 1 (Fail)
//Storyboard Layer 2 (Pass)
//Storyboard Layer 3 (Foreground)
//Storyboard Layer 4 (Overlay)
//Storyboard Sound Samples

[TimingPoints]
342,324.324324324324,4,2,1,75,1,0
1639,-100,4,2,1,85,0,0
10639,-100,4,2,99,5,0,0
10720,-100,4,2,1,85,0,0
11693,-100,4,2,1,75,0,0
12017,-100,4,2,1,85,0,0
20044,-100,4,2,99,5,0,0
20125,-100,4,2,1,85,0,0
22396,-153.846153846154,4,2,2,60,0,0
25882,-153.846153846154,4,2,99,5,0,0
25963,-153.846153846154,4,2,2,60,0,0
32206,-153.846153846154,4,2,99,5,0,0
32450,-153.846153846154,4,2,1,65,0,0
32774,-117.647058823529,4,2,1,70,0,0
33990,-117.647058823529,4,2,99,5,0,0
34071,-117.647058823529,4,2,1,70,0,0
39179,-117.647058823529,4,2,99,5,0,0
39260,-117.647058823529,4,2,1,70,0,0
42504,-117.647058823529,4,2,1,80,0,0
42585,-117.647058823529,4,2,99,5,0,0
43152,-153.846153846154,4,2,3,55,0,0
43801,-153.846153846154,4,2,2,55,0,0
44287,-153.846153846154,4,2,3,55,0,0
45098,-153.846153846154,4,2,2,55,0,0
45585,-153.846153846154,4,2,3,55,0,0
46396,-153.846153846154,4,2,2,55,0,0
46882,-153.846153846154,4,2,3,55,0,0
47693,-153.846153846154,4,2,2,55,0,0
47855,-153.846153846154,4,2,3,55,0,0
48989,-153.846153846154,4,2,2,55,0,0
49477,-153.846153846154,4,2,3,55,0,0
50287,-153.846153846154,4,2,2,55,0,0
50774,-153.846153846154,4,2,3,55,0,0
51585,-153.846153846154,4,2,2,55,0,0
52071,-153.846153846154,4,2,3,55,0,0
52233,-117.647058823529,4,2,2,60,0,0
52476,-117.647058823529,4,2,3,60,0,0
52882,-117.647058823529,4,2,2,60,0,0
54504,-117.647058823529,4,2,2,75,0,0
54828,-83.3333333333333,4,2,4,85,0,1
56044,-83.3333333333333,4,2,99,5,0,1
56125,-83.3333333333333,4,2,4,85,0,1
57341,-83.3333333333333,4,2,99,5,0,1
57423,-83.3333333333333,4,2,4,85,0,1
58639,-83.3333333333333,4,2,99,5,0,1
58720,-83.3333333333333,4,2,4,85,0,1
59287,-83.3333333333333,4,2,99,5,0,1
59369,-83.3333333333333,4,2,4,85,0,1
59936,-83.3333333333333,4,2,99,5,0,1
60017,-83.3333333333333,4,2,4,85,0,1
61233,-83.3333333333333,4,2,99,5,0,1
61314,-83.3333333333333,4,2,4,85,0,1
62531,-83.3333333333333,4,2,99,5,0,1
62612,-83.3333333333333,4,2,4,85,0,1
63828,-83.3333333333333,4,2,99,5,0,1
63909,-83.3333333333333,4,2,5,85,0,0
64882,-83.3333333333333,4,2,3,70,0,0
65206,-83.3333333333333,4,2,4,85,0,1
66422,-83.3333333333333,4,2,99,5,0,1
66504,-83.3333333333333,4,2,4,85,0,1
67720,-83.3333333333333,4,2,99,5,0,1
67801,-83.3333333333333,4,2,4,85,0,1
69017,-83.3333333333333,4,2,99,5,0,1
69098,-83.3333333333333,4,2,4,85,0,1
69666,-83.3333333333333,4,2,99,5,0,1
69747,-83.3333333333333,4,2,4,30,0,1
69828,-83.3333333333333,4,2,4,35,0,1
69909,-83.3333333333333,4,2,4,40,0,1
69990,-83.3333333333333,4,2,4,45,0,1
70071,-83.3333333333333,4,2,4,50,0,1
70152,-83.3333333333333,4,2,4,55,0,1
70233,-83.3333333333333,4,2,4,60,0,1
70314,-83.3333333333333,4,2,4,65,0,1
70396,-83.3333333333333,4,2,4,85,0,0
75585,-83.3333333333333,4,2,4,90,0,1
75747,-83.3333333333333,4,2,5,90,0,1
78179,-83.3333333333333,4,2,4,90,0,1
78341,-83.3333333333333,4,2,5,90,0,1
79477,-83.3333333333333,4,2,5,100,0,0
80774,-83.3333333333333,4,2,6,60,0,0
81423,-83.3333333333333,4,2,2,60,0,0
81909,-83.3333333333333,4,2,6,60,0,0
82071,-200,4,2,6,60,0,0
82719,-200,4,2,2,60,0,0
82882,-200,4,2,6,60,0,0
84017,-200,4,2,2,60,0,0
84504,-200,4,2,6,60,0,0
85314,-200,4,2,2,60,0,0
85477,-200,4,2,6,60,0,0
86612,-200,4,2,2,60,0,0
87098,-200,4,2,6,60,0,0
87909,-200,4,2,2,60,0,0
88071,-200,4,2,6,60,0,0
89206,-200,4,2,2,60,0,0
89531,-200,4,2,6,60,0,0
89855,-200,4,2,2,60,0,0
90098,-200,4,2,6,60,0,0
90504,-200,4,2,2,60,0,0
90585,-200,4,2,6,60,0,0
90828,-133.333333333333,4,2,6,60,0,0
91071,-133.333333333333,4,2,99,5,0,0
91152,-117.647058823529,4,2,1,70,0,0
96909,-117.647058823529,4,2,99,5,0,0
96990,-117.647058823529,4,2,1,70,0,0
97557,-117.647058823529,4,2,99,5,0,0
97639,-117.647058823529,4,2,1,70,0,0
100801,-117.647058823529,4,2,99,5,0,0
100882,-117.647058823529,4,2,1,55,0,0
101531,-200,4,2,3,55,0,0
102179,-200,4,2,2,55,0,0
102828,-200,4,2,3,55,0,0
103476,-200,4,2,2,55,0,0
104125,-200,4,2,3,55,0,0
104773,-200,4,2,2,55,0,0
106396,-200,4,2,3,55,0,0
107368,-200,4,2,2,55,0,0
108017,-200,4,2,3,55,0,0
108665,-200,4,2,2,55,0,0
109314,-200,4,2,3,55,0,0
109962,-200,4,2,2,55,0,0
110612,-200,4,2,3,55,0,0
111260,-200,4,2,2,55,0,0
111909,-153.846153846154,4,2,3,60,0,0
112558,-153.846153846154,4,2,2,60,0,0
114342,-153.846153846154,4,2,3,60,0,0
115152,-153.846153846154,4,2,2,60,0,0
115638,-153.846153846154,4,2,3,60,0,0
115801,-153.846153846154,4,2,2,60,0,0
116125,-153.846153846154,4,2,3,60,0,0
116450,-153.846153846154,4,2,2,60,0,0
116612,-153.846153846154,4,2,3,60,0,0
117746,-153.846153846154,4,2,2,60,0,0
118396,-153.846153846154,4,2,3,60,0,0
119044,-153.846153846154,4,2,2,60,0,0
119531,-153.846153846154,4,2,3,60,0,0
119693,-153.846153846154,4,2,2,60,0,0
120017,-153.846153846154,4,2,3,60,0,0
120341,-153.846153846154,4,2,2,60,0,0
120504,-153.846153846154,4,2,3,60,0,0
120990,-500,4,2,1,65,0,0
122287,-83.3333333333333,4,2,4,85,0,1
123503,-83.3333333333333,4,2,99,5,0,1
123584,-83.3333333333333,4,2,4,85,0,1
124800,-83.3333333333333,4,2,99,5,0,1
124882,-83.3333333333333,4,2,4,85,0,1
126098,-83.3333333333333,4,2,99,5,0,1
126179,-83.3333333333333,4,2,4,85,0,1
127395,-83.3333333333333,4,2,99,5,0,1
127477,-83.3333333333333,4,2,4,85,0,1
128692,-83.3333333333333,4,2,99,5,0,1
128773,-83.3333333333333,4,2,4,85,0,1
129990,-83.3333333333333,4,2,99,5,0,1
130071,-83.3333333333333,4,2,4,85,0,1
131287,-83.3333333333333,4,2,99,5,0,1
131368,-83.3333333333333,4,2,5,85,0,1
131369,-83.3333333333333,4,2,5,85,0,0
132341,-83.3333333333333,4,2,3,70,0,0
132665,-83.3333333333333,4,2,4,85,0,0
132666,-83.3333333333333,4,2,4,85,0,1
133881,-83.3333333333333,4,2,99,5,0,1
133963,-83.3333333333333,4,2,4,85,0,1
135179,-83.3333333333333,4,2,99,5,0,1
135260,-83.3333333333333,4,2,4,85,0,1
136476,-83.3333333333333,4,2,99,5,0,1
136558,-83.3333333333333,4,2,4,85,0,1
137125,-83.3333333333333,4,2,99,5,0,1
137206,-83.3333333333333,4,2,4,30,0,1
137287,-83.3333333333333,4,2,4,35,0,1
137369,-83.3333333333333,4,2,4,40,0,1
137450,-83.3333333333333,4,2,4,45,0,1
137530,-83.3333333333333,4,2,4,50,0,1
137611,-83.3333333333333,4,2,4,55,0,1
137692,-83.3333333333333,4,2,4,60,0,1
137773,-83.3333333333333,4,2,4,65,0,1
137855,-83.3333333333333,4,2,4,85,0,0
143044,-83.3333333333333,4,2,4,85,0,1
143045,-83.3333333333333,4,2,4,90,0,1
143207,-83.3333333333333,4,2,5,90,0,1
145639,-83.3333333333333,4,2,4,90,0,1
145801,-83.3333333333333,4,2,5,90,0,1
146936,-83.3333333333333,4,2,5,100,0,0
147585,-83.3333333333333,4,2,1,70,0,0
147909,-83.3333333333333,4,2,1,75,0,0
148233,-100,4,2,4,75,0,0
148801,-100,4,2,99,5,0,0
148882,-100,4,2,4,75,0,0
153990,-100,4,2,99,5,0,0
154071,-100,4,2,4,75,0,0
156990,-100,4,2,2,80,0,0
157314,-100,4,2,4,85,0,0
157639,-83.3333333333333,4,2,4,95,0,0
157720,-83.3333333333333,4,2,99,5,0,0
157801,-83.3333333333333,4,2,4,95,0,0
157882,-83.3333333333333,4,2,99,5,0,0
157963,-83.3333333333333,4,2,4,95,0,0
158044,-83.3333333333333,4,2,99,5,0,0
158287,324.324324324324,4,2,4,75,1,0
158287,-83.3333333333333,4,2,4,75,0,0
162097,-83.3333333333333,4,2,99,5,0,0
162178,-83.3333333333333,4,2,4,65,0,0
162422,-83.3333333333333,4,2,4,70,0,0
162665,-83.3333333333333,4,2,4,80,0,0
162827,-83.3333333333333,4,2,4,70,0,0
163151,-83.3333333333333,4,2,4,85,0,0
163477,324.324324324324,4,2,5,60,1,0
172558,-100,4,2,5,90,0,0
173855,-83.3333333333333,4,2,4,85,0,1
175071,-83.3333333333333,4,2,99,5,0,1
175153,-83.3333333333333,4,2,4,85,0,1
176369,-83.3333333333333,4,2,99,5,0,1
176449,-83.3333333333333,4,2,4,85,0,1
177666,-83.3333333333333,4,2,99,5,0,1
177747,-83.3333333333333,4,2,4,85,0,1
178314,-83.3333333333333,4,2,99,5,0,1
178396,-83.3333333333333,4,2,4,30,0,1
178477,-83.3333333333333,4,2,4,35,0,1
178558,-83.3333333333333,4,2,4,40,0,1
178639,-83.3333333333333,4,2,4,45,0,1
178720,-83.3333333333333,4,2,4,50,0,1
178801,-83.3333333333333,4,2,4,55,0,1
178882,-83.3333333333333,4,2,4,60,0,1
178963,-83.3333333333333,4,2,4,65,0,1
179044,-83.3333333333333,4,2,4,65,0,0
179045,-83.3333333333333,4,2,4,85,0,0
184233,-83.3333333333333,4,2,4,85,0,1
184234,-83.3333333333333,4,2,4,90,0,1
184396,-83.3333333333333,4,2,5,90,0,1
186828,-83.3333333333333,4,2,5,90,0,0
188125,-83.3333333333333,4,2,7,85,0,0
189422,-100,4,2,7,85,0,0
189990,-100,4,2,99,5,0,0
190071,-100,4,2,7,85,0,0
195179,-100,4,2,99,5,0,0
195260,-100,4,2,1,85,0,0
197855,-100,4,2,1,30,0,0
198017,-100,4,2,1,40,0,0
198098,-100,4,2,1,45,0,0
198179,-100,4,2,1,50,0,0
198260,-100,4,2,1,55,0,0
198341,-100,4,2,1,60,0,0
198422,-100,4,2,1,65,0,0
198504,-100,4,2,1,85,0,0
198828,-100,4,2,7,85,0,0
203693,-100,4,2,1,85,0,0
205314,-100,4,2,7,85,0,0
206287,-100,4,2,1,70,0,0
206449,-153.846153846154,4,2,1,70,0,0
207747,-153.846153846154,4,2,1,75,0,0
208720,-153.846153846154,4,2,1,80,0,0
209693,-153.846153846154,4,2,1,85,0,0
210666,-153.846153846154,4,2,1,90,0,0
210828,-153.846153846154,4,2,1,5,0,0

[Colours]
Combo1 : 255,45,45
Combo2 : 0,128,192
Combo3 : 0,215,215
Combo4 : 130,192,255
Combo5 : 255,0,0
Combo6 : 255,128,64
Combo7 : 255,66,66
Combo8 : 255,128,0

[HitObjects]
202,84,342,53,2,2:3:0:0:
147,251,666,53,2,2:3:0:0:
315,301,990,53,2,2:3:0:0:
365,133,1314,53,2,2:3:0:0:
365,133,1639,6,0,P|328:162|323:218,1,87.5,4|0,3:1|2:0,2:0:0:0:
468,342,1963,2,0,P|366:286|305:308,1,175,0|0,1:0|3:0,2:0:0:0:
238,342,2450,1,0,3:0:0:0:
163,222,2612,2,0,P|216:231|246:274,1,87.5,0|0,1:0|2:0,2:0:0:0:
238,342,2936,5,0,3:0:0:0:
229,344,3098,1,0,3:0:0:0:
139,365,3260,2,0,P|110:326|115:268,1,87.5,0|0,1:0|2:0,2:0:0:0:
229,344,3585,5,0,3:0:0:0:
220,346,3747,1,0,3:0:0:0:
130,368,3909,2,0,P|101:329|106:271,1,87.5,0|0,1:0|2:0,2:0:0:0:
239,90,4233,6,0,P|242:133|221:171,1,87.5,0|0,3:0|3:0,2:0:0:0:
22,164,4558,2,0,P|64:106|170:123,1,175,0|0,1:0|3:0,2:0:0:0:
221,171,5044,1,0,3:0:0:0:
160,277,5206,2,0,P|138:239|141:196,1,87.5,0|0,1:0|2:0,2:0:0:0:
239,90,5531,5,0,3:0:0:0:
245,83,5693,1,0,3:0:0:0:
314,136,5855,2,0,L|407:117,1,87.5,0|0,1:0|2:0,2:0:0:0:
438,37,6179,5,0,3:0:0:0:
371,212,6341,1,0,1:0:0:0:
314,136,6504,5,0,3:0:0:0:
512,167,6666,1,0,1:0:0:0:
408,290,6828,6,0,B|429:103,2,175,4|0|0,3:2|1:0|3:0,2:0:0:0:
474,347,7639,1,0,3:0:0:0:
314,378,7801,2,0,P|305:333|331:286,1,87.5,0|0,1:0|2:0,2:0:0:0:
503,180,8125,6,0,P|512:225|486:272,1,87.5,0|0,3:0|3:0,2:0:0:0:
254,193,8450,2,0,L|447:216,1,175,0|0,1:0|3:0,2:0:0:0:
503,180,8936,1,0,3:0:0:0:
325,96,9098,2,0,P|322:139|340:177,1,87.5,0|0,1:0|2:0,2:0:0:0:
473,359,9423,5,0,3:0:0:0:
398,313,9585,1,0,3:0:0:0:
329,366,9747,2,0,P|279:370|247:350,1,87.5,0|0,1:0|2:0,2:0:0:0:
260,192,10071,2,0,P|297:171|340:177,1,87.5,0|0,3:0|3:0,2:0:0:0:
439,379,10396,2,0,L|428:219,1,131.25,0|0,1:0|2:0,2:0:0:0:
429,228,10720,1,0,3:0:0:0:
304,289,10882,1,0,3:0:0:0:
512,302,11044,1,4,1:2:0:0:
512,302,11369,5,0,3:0:0:0:
304,289,11531,1,0,3:0:0:0:
394,350,11693,1,8,2:0:0:0:
402,352,11774,1,8,2:0:0:0:
410,354,11855,1,8,2:0:0:0:
418,356,11936,1,8,2:0:0:0:
426,357,12017,6,0,L|416:165,1,175,4|0,3:1|3:0,2:0:0:0:
87,23,12666,2,0,L|97:215,1,175,0|4,1:0|3:2,2:0:0:0:
37,262,13152,1,0,2:0:0:0:
181,326,13314,2,0,P|189:282|159:226,1,87.5,0|0,3:0|2:0,2:0:0:0:
264,372,13639,2,0,P|306:356|339:302,1,87.5,0|0,1:0|2:0,2:0:0:0:
174,242,13963,6,0,P|202:209|243:194,1,87.5,0|0,3:0|2:0,2:0:0:0:
326,240,14288,2,0,P|317:283|332:324,1,87.5,0|0,3:0|2:0,2:0:0:0:
410,364,14612,5,0,1:0:0:0:
418,360,14774,1,0,2:0:0:0:
486,290,14936,2,0,L|368:270,1,87.5,4|0,3:2|2:0,2:0:0:0:
256,250,15260,5,0,3:0:0:0:
264,254,15422,1,0,2:0:0:0:
332,324,15584,2,0,L|214:344,1,87.5,0|0,1:0|2:0,2:0:0:0:
91,383,15909,6,0,P|133:354|134:224,2,175,0|0|0,3:0|3:0|1:0,2:0:0:0:
7,355,16720,1,0,3:0:0:0:
39,165,16882,2,0,P|38:208|64:242,1,87.5,0|0,1:0|2:0,2:0:0:0:
249,295,17206,6,0,B|263:224|263:224|250:197|250:197|265:103,1,175,4|0,3:1|1:0,2:0:0:0:
261,125,17855,1,0,3:0:0:0:
183,164,18017,1,0,3:0:0:0:
110,114,18179,2,0,P|107:49|134:15,1,87.5,0|0,1:0|2:0,2:0:0:0:
200,4,18504,5,0,3:0:0:0:
204,11,18666,1,0,3:0:0:0:
288,42,18828,2,0,L|255:140,1,87.5,0|0,1:0|2:0,2:0:0:0:
299,246,19152,5,0,3:0:0:0:
295,253,19314,1,0,3:0:0:0:
211,284,19476,2,0,L|244:382,1,87.5,0|0,1:0|2:0,2:0:0:0:
8,355,19801,6,0,P|87:320|146:341,1,131.25,4|0,3:1|2:0,2:0:0:0:
141,340,20125,1,0,1:0:0:0:
20,244,20287,1,0,2:0:0:0:
150,154,20450,2,0,P|154:195|109:256,1,87.5,0|0,1:0|2:0,2:0:0:0:
0,113,20774,2,0,P|-3:69|15:30,1,87.5,0|0,1:0|2:0,2:0:0:0:
99,9,21098,5,0,1:0:0:0:
231,94,21260,1,0,1:0:0:0:
121,193,21423,1,8,2:0:0:0:
119,184,21504,1,8,2:0:0:0:
117,175,21585,1,8,2:0:0:0:
115,166,21666,1,8,2:0:0:0:
113,157,21747,1,0,1:0:0:0:
29,201,21909,1,0,1:0:0:0:
29,201,22396,6,0,P|102:193|126:220,1,113.749994792938,4|2,3:2|3:2,2:0:0:0:
137,384,23044,6,0,P|93:324|104:290,1,113.749994792938,0|2,3:0|3:2,2:0:0:0:
245,197,23693,6,0,P|215:264|180:271,1,113.749994792938,0|2,3:0|3:2,2:0:0:0:
125,215,24179,1,0,2:0:0:0:
102,292,24341,2,0,P|79:320|56:328,2,56.8749973964692,0|0|2,3:0|2:0|3:2,2:0:0:0:
125,215,24828,1,0,2:0:0:0:
33,120,24990,6,0,L|16:60,1,56.8749973964692,0|0,3:0|2:0,2:0:0:0:
114,75,25314,2,0,L|115:13,1,56.8749973964692,2|0,3:2|2:0,2:0:0:0:
196,136,25639,2,0,L|216:26,1,85.3124960947039,0|0,3:0|2:0,2:0:0:0:
216,36,25963,2,0,P|237:64|264:75,1,56.8749973964692,2|0,3:2|2:0,2:0:0:0:
394,129,26287,5,0,3:0:0:0:
459,83,26450,1,0,2:0:0:0:
404,24,26612,2,0,L|344:46,1,56.8749973964692,2|0,3:2|2:0,2:0:0:0:
275,68,26936,1,0,3:0:0:0:
275,68,27260,5,2,3:2:0:0:
314,137,27423,1,0,2:0:0:0:
242,172,27585,2,0,P|227:216|261:272,1,113.749994792938,0|2,3:0|3:2,2:0:0:0:
252,381,28233,6,0,P|297:371|329:314,1,113.749994792938,0|2,3:0|3:2,2:0:0:0:
430,287,28720,5,0,2:0:0:0:
429,278,28801,1,0,2:0:0:0:
426,269,28882,2,0,P|395:234|329:235,1,113.749994792938,0|2,3:0|3:2,2:0:0:0:
259,270,29369,1,0,2:0:0:0:
328,316,29531,2,0,P|327:343|318:372,1,56.8749973964692,0|0,3:0|2:0,2:0:0:0:
239,383,29855,1,2,3:2:0:0:
111,299,30017,5,0,2:0:0:0:
119,300,30098,1,0,2:0:0:0:
127,301,30179,1,0,3:0:0:0:
169,233,30341,1,0,2:0:0:0:
102,188,30504,2,0,P|65:187|33:200,1,56.8749973964692,2|0,3:2|2:0,2:0:0:0:
121,95,30828,2,0,P|84:87|56:67,2,56.8749973964692,0|0|2,3:0|2:0|3:2,2:0:0:0:
197,73,31314,5,0,2:0:0:0:
204,77,31396,1,0,2:0:0:0:
211,80,31477,1,2,3:2:0:0:
272,29,31639,2,0,L|336:42,1,56.8749973964692,2|0,2:0|3:0,2:0:0:0:
361,159,31963,1,2,2:0:0:0:
422,108,32125,2,0,L|457:115,1,28.4374986982346,2|0,3:2|2:0,2:0:0:0:
505,174,32450,5,2,3:0:0:0:
449,113,32774,6,0,P|418:110|370:136,1,74.3750014185906,6|0,3:1|2:0,2:0:0:0:
252,82,33098,2,0,P|264:110|311:138,1,74.3750014185906,2|0,1:2|2:0,2:0:0:0:
325,269,33423,2,0,P|343:243|344:189,1,74.3750014185906,2|0,3:2|3:0,2:0:0:0:
353,37,33747,6,0,P|314:58|296:126,1,111.562502127886,2|0,1:2|2:0,2:0:0:0:
299,135,34071,2,0,L|196:131,1,74.3750014185906,2|0,3:2|3:0,2:0:0:0:
181,53,34396,1,0,1:0:0:0:
99,196,34558,1,2,2:0:0:0:
53,119,34720,2,0,P|61:85|110:45,1,74.3750014185906,2|0,3:2|3:0,2:0:0:0:
185,232,35044,2,0,P|209:259|217:295,1,74.3750014185906,0|0,1:0|2:0,2:0:0:0:
218,306,35287,1,0,2:0:0:0:
216,317,35369,5,2,3:2:0:0:
284,373,35531,1,2,3:2:0:0:
369,348,35693,1,2,1:2:0:0:
373,258,35855,1,2,2:0:0:0:
364,251,35936,1,0,2:0:0:0:
354,245,36017,2,0,P|357:205|375:167,1,74.3750014185906,2|0,3:2|3:0,2:0:0:0:
477,274,36341,2,0,P|491:239|493:202,1,74.3750014185906,2|2,1:2|2:0,2:0:0:0:
512,36,36666,5,2,3:2:0:0:
446,96,36828,1,2,3:2:0:0:
381,33,36990,2,0,L|306:37,1,74.3750014185906,2|0,1:2|2:0,2:0:0:0:
300,45,37233,1,0,2:0:0:0:
292,52,37314,2,0,L|217:56,1,74.3750014185906,2|0,3:2|3:0,2:0:0:0:
18,81,37639,5,2,1:2:0:0:
92,31,37801,1,2,2:0:0:0:
149,99,37963,2,0,P|150:129|129:178,1,74.3750014185906,2|0,3:2|2:0,2:0:0:0:
0,220,38287,2,0,P|-1:250|19:299,1,74.3750014185906,2|0,1:2|2:0,2:0:0:0:
19,300,38531,1,0,2:0:0:0:
28,305,38612,2,0,L|102:283,1,74.3750014185906,2|0,3:2|3:0,2:0:0:0:
231,367,38936,2,0,P|187:335|198:260,1,111.562502127886,2|0,1:2|2:0,2:0:0:0:
188,271,39260,6,0,P|223:246|256:244,1,74.3750014185906,2|0,3:2|3:0,2:0:0:0:
326,295,39585,1,0,1:0:0:0:
508,286,39747,1,2,2:0:0:0:
499,292,39828,1,0,2:0:0:0:
488,294,39909,2,0,P|451:289|422:266,1,74.3750014185906,2|0,3:2|3:0,2:0:0:0:
375,190,40233,1,0,1:0:0:0:
495,32,40396,5,0,2:0:0:0:
498,42,40477,1,0,2:0:0:0:
502,52,40558,1,2,3:2:0:0:
455,128,40720,1,2,3:2:0:0:
377,83,40882,2,0,L|302:76,1,74.3750014185906,2|0,1:2|2:0,2:0:0:0:
291,76,41125,1,0,2:0:0:0:
279,75,41206,1,2,3:2:0:0:
221,5,41369,1,2,3:2:0:0:
137,35,41531,1,2,1:2:0:0:
145,123,41693,1,2,2:0:0:0:
136,129,41774,1,0,2:0:0:0:
127,136,41855,5,2,3:2:0:0:
236,170,42017,2,0,L|267:243,2,74.3750014185906,2|0|0,3:2|1:0|2:0,2:0:0:0:
236,170,42504,2,0,L|223:134,1,37.1875007092953,0|0,1:0|2:0,2:0:0:0:
223,135,43152,6,0,P|238:181|205:239,1,113.749994792938,4|0,3:2|2:0,2:0:0:0:
34,299,43801,2,0,P|66:263|133:262,1,113.749994792938,0|0,1:0|2:0,2:0:0:0:
189,311,44287,1,0,3:0:0:0:
209,236,44450,1,0,3:0:0:0:
209,236,45098,1,0,1:0:0:0:
445,328,45423,5,0,2:0:0:0:
373,363,45585,1,0,3:0:0:0:
439,319,45747,2,0,L|458:202,1,113.749994792938,0|0,3:0|3:0,2:0:0:0:
399,152,46233,1,0,3:0:0:0:
506,69,46396,6,0,L|318:62,1,170.624992189408,0|0,1:0|3:0,2:0:0:0:
259,36,47044,2,0,B|301:76|301:76|283:145,1,113.749994792938,0|0,2:0|2:0,2:0:0:0:
286,129,47693,6,0,P|259:181|260:188,1,56.8749973964692,0|0,1:0|3:0,2:0:0:0:
155,166,48017,2,0,P|182:218|181:225,1,56.8749973964692,0|0,3:0|3:0,2:0:0:0:
271,258,48341,2,0,P|227:282|210:359,2,113.749994792938,0|0|0,3:0|2:0|1:0,2:0:0:0:
271,258,49314,5,0,2:0:0:0:
344,289,49477,1,0,3:0:0:0:
330,367,49639,2,0,P|301:382|276:384,1,56.8749973964692,0|0,3:0|2:0,2:0:0:0:
409,344,49963,2,0,P|437:347|461:361,1,56.8749973964692,0|0,2:0|2:0,2:0:0:0:
343,288,50287,2,0,L|355:175,1,113.749994792938,0|0,1:0|2:0,2:0:0:0:
291,126,50774,1,0,3:0:0:0:
442,47,50936,6,0,B|465:99|465:99|424:161,1,113.749994792938,0|0,3:0|3:0,2:0:0:0:
197,112,51585,2,0,L|394:92,1,170.624992189408,0|0,1:0|3:0,2:0:0:0:
464,219,52233,6,0,P|401:221|362:178,2,111.562502127886,0|0|0,1:0|3:0|3:0,2:0:0:0:
457,2,52882,2,0,B|442:63|442:63|449:83|449:83|431:151,1,148.750002837181,0|0,1:0|1:0,2:0:0:0:
411,224,53369,1,0,1:0:0:0:
256,192,53531,12,2,54504,2:1:0:0:
256,192,54666,5,0,2:0:0:0:
83,213,54828,6,0,P|151:210|179:340,1,209.999993591309,6|0,3:1|1:0,2:0:0:0:
122,377,55314,1,2,2:0:0:0:
11,257,55477,2,0,P|-2:203|18:155,1,104.999996795654,2|0,3:2|3:0,2:0:0:0:
89,119,55801,1,0,1:0:0:0:
148,295,55963,6,0,P|165:315|197:327,1,52.4999983978272,2|0,2:0|2:0,2:0:0:0:
315,261,56125,2,0,P|278:294|280:367,2,104.999996795654,2|0|0,3:2|3:0|1:0,2:0:0:0:
437,351,56612,1,2,2:0:0:0:
442,360,56693,1,0,2:0:0:0:
447,368,56774,2,0,L|454:257,1,104.999996795654,2|0,3:2|3:0,2:0:0:0:
389,210,57098,1,0,1:0:0:0:
506,93,57260,6,0,P|500:118|483:139,1,52.4999983978272,2|0,2:0|2:0,2:0:0:0:
355,102,57423,2,0,B|353:50|353:50|400:-1,2,104.999996795654,2|0|0,3:2|3:0|1:0,2:0:0:0:
399,228,57909,1,2,2:0:0:0:
394,219,57990,1,0,2:0:0:0:
389,210,58071,2,0,L|352:316,1,104.999996795654,2|0,3:2|3:0,2:0:0:0:
417,365,58396,1,0,1:0:0:0:
261,287,58558,6,0,P|224:297|195:334,1,52.4999983978272,2|0,2:0|2:0,2:0:0:0:
167,381,58720,1,2,3:2:0:0:
354,309,58882,1,0,3:0:0:0:
176,220,59044,2,0,L|173:44,1,157.499995193482,0|0,1:0|2:0,2:0:0:0:
172,45,59369,1,0,3:0:0:0:
257,124,59531,1,0,3:0:0:0:
80,51,59693,1,0,1:0:0:0:
36,138,59855,6,0,P|52:165|83:183,1,52.4999983978272,2|0,2:0|2:0,2:0:0:0:
176,220,60017,2,0,P|126:234|94:275,1,104.999996795654,6|0,3:2|3:0,2:0:0:0:
278,342,60341,2,0,P|284:290|261:244,1,104.999996795654,0|2,1:0|2:0,2:0:0:0:
176,220,60666,1,2,3:2:0:0:
122,365,60828,1,0,3:0:0:0:
278,342,60990,1,0,1:0:0:0:
97,242,61152,6,0,P|81:268|80:294,1,52.4999983978272,2|0,2:0|2:0,2:0:0:0:
278,342,61314,2,0,P|272:301|309:239,2,104.999996795654,2|0|0,3:2|3:0|1:0,2:0:0:0:
418,228,61801,1,2,2:0:0:0:
428,231,61882,1,0,2:0:0:0:
438,236,61963,2,0,P|477:264|491:318,1,104.999996795654,2|0,3:2|3:0,2:0:0:0:
438,381,62287,1,0,1:0:0:0:
350,181,62450,6,0,P|369:159|401:145,1,52.4999983978272,2|0,2:0|2:0,2:0:0:0:
510,134,62612,2,0,P|458:104|439:62,2,104.999996795654,2|0|0,3:2|3:0|1:0,2:0:0:0:
367,11,63098,1,2,2:0:0:0:
355,12,63179,1,0,2:0:0:0:
345,15,63260,2,0,P|309:54|302:111,1,104.999996795654,2|0,3:2|3:0,2:0:0:0:
178,191,63585,2,0,B|242:183|242:183|258:195|258:195|337:185,1,157.499995193482,4|0,1:2|2:0,2:0:0:0:
348,186,63909,5,2,3:2:0:0:
256,375,64071,1,0,3:0:0:0:
268,227,64558,5,0,3:0:0:0:
336,334,64720,1,0,3:0:0:0:
206,294,64882,1,8,2:0:0:0:
197,299,64963,1,8,2:0:0:0:
188,304,65044,1,10,2:0:0:0:
179,309,65125,1,8,2:0:0:0:
170,314,65206,6,0,B|260:333|260:333|281:323|281:323|379:343,1,209.999993591309,6|0,3:1|1:0,2:0:0:0:
443,293,65693,1,2,2:0:0:0:
303,163,65855,2,0,P|262:194|266:265,1,104.999996795654,2|0,3:2|3:0,2:0:0:0:
283,325,66179,1,0,1:0:0:0:
415,212,66341,6,0,P|392:197|377:156,1,52.4999983978272,2|0,2:0|2:0,2:0:0:0:
438,43,66504,2,0,P|398:85|335:88,2,104.999996795654,2|0|0,3:2|3:0|1:0,2:0:0:0:
210,14,66990,1,2,2:0:0:0:
221,16,67071,1,0,2:0:0:0:
231,21,67152,2,0,P|267:62|261:121,1,104.999996795654,2|0,3:2|3:0,2:0:0:0:
203,166,67477,1,0,1:0:0:0:
82,132,67639,6,0,P|70:108|67:82,1,52.4999983978272,2|0,2:0|2:0,2:0:0:0:
202,165,67801,2,0,P|153:181|129:227,2,104.999996795654,2|0|0,3:2|3:0|1:0,2:0:0:0:
243,332,68287,1,2,2:0:0:0:
234,338,68369,1,0,2:0:0:0:
223,340,68450,2,0,P|170:337|121:293,1,104.999996795654,2|0,3:2|3:0,2:0:0:0:
129,226,68774,1,0,1:0:0:0:
16,371,68936,6,0,P|42:371|72:353,1,52.4999983978272,2|0,2:0|2:0,2:0:0:0:
41,185,69098,2,0,L|21:308,1,104.999996795654,2|0,3:2|3:0,2:0:0:0:
242,331,69423,2,0,L|233:171,1,157.499995193482,4|0,1:2|2:0,2:0:0:0:
233,155,69747,6,0,P|209:173|178:184,1,52.4999983978272,10|8,3:2|2:0,2:0:0:0:
37,212,69909,2,0,P|61:222|81:238,1,52.4999983978272,8|8,2:0|2:0,2:0:0:0:
154,337,70071,1,8,2:0:0:0:
146,343,70152,1,8,2:0:0:0:
138,349,70233,1,8,2:0:0:0:
129,355,70314,1,8,2:0:0:0:
121,362,70396,6,0,L|237:374,1,104.999996795654,6|0,3:2|2:0,2:0:0:0:
366,313,70720,2,0,L|250:301,1,104.999996795654,0|0,1:0|2:0,2:0:0:0:
166,246,71044,6,0,B|134:292|134:292|157:345,1,104.999996795654,2|0,3:2|2:0,2:0:0:0:
321,223,71369,2,0,B|340:178|340:178|308:132,1,104.999996795654,0|0,1:0|2:0,2:0:0:0:
65,157,71693,6,0,B|149:174|149:174|188:220|188:220|247:188,1,209.999993591309,2|0,3:2|1:0,2:0:0:0:
244,189,72341,6,0,P|204:222|201:288,1,104.999996795654,2|0,3:2|2:0,2:0:0:0:
336,303,72666,2,0,P|350:253|329:207,1,104.999996795654,0|0,1:0|2:0,2:0:0:0:
87,303,72990,6,0,B|134:254|196:274|196:274|214:325|263:327,1,209.999993591309,6|0,3:2|1:0,2:0:0:0:
261,326,73639,6,0,P|303:313|350:350,1,104.999996795654,2|0,3:2|2:0,2:0:0:0:
476,236,73963,2,0,P|434:223|387:260,1,104.999996795654,0|0,1:0|2:0,2:0:0:0:
467,369,74287,6,0,B|486:280|486:280|474:249|474:249|498:116,1,209.999993591309,2|0,3:2|1:0,2:0:0:0:
45,15,74936,2,0,B|26:104|26:104|38:135|38:135|14:268,1,209.999993591309,2|0,3:2|1:0,2:0:0:0:
22,219,75585,6,0,P|70:199|133:225,1,104.999996795654,6|8,3:2|2:0,2:0:0:0:
185,160,75909,2,0,P|204:207|191:257,1,104.999996795654,2|8,1:2|2:0,2:0:0:0:
243,323,76233,2,0,P|196:342|146:329,1,104.999996795654,2|8,1:2|2:0,2:0:0:0:
80,381,76558,2,0,P|61:334|74:284,1,104.999996795654,2|8,1:2|2:0,2:0:0:0:
191,257,76882,5,2,1:2:0:0:
74,284,77044,1,8,2:0:0:0:
244,323,77206,5,2,1:2:0:0:
22,219,77369,1,8,2:0:0:0:
146,329,77531,5,2,1:2:0:0:
119,212,77693,1,8,2:0:0:0:
81,382,77855,5,2,1:2:0:0:
185,160,78017,1,8,2:0:0:0:
80,381,78179,2,0,P|61:334|74:284,1,104.999996795654,6|8,1:2|2:0,2:0:0:0:
243,323,78504,2,0,P|196:342|146:329,1,104.999996795654,2|8,1:2|2:0,2:0:0:0:
185,160,78828,2,0,P|204:207|191:257,1,104.999996795654,2|8,1:2|2:0,2:0:0:0:
22,219,79152,2,0,P|70:199|133:225,1,104.999996795654,2|0,1:2|2:0,2:0:0:0:
243,323,79477,5,2,1:2:0:0:
392,301,79639,1,0,1:0:0:0:
118,82,80125,5,0,1:0:0:0:
268,60,80287,1,0,1:0:0:0:
268,60,80774,5,6,3:2:0:0:
246,324,81423,1,2,1:2:0:0:
246,324,81909,5,0,3:0:0:0:
328,293,82071,2,0,L|416:309,2,87.5,2|0|2,3:2|3:0|1:2,2:0:0:0:
270,226,82882,1,0,3:0:0:0:
270,226,83206,5,0,3:0:0:0:
190,252,83369,1,2,3:2:0:0:
206,170,83531,2,0,L|221:78,1,87.5,0|0,3:0|3:0,2:0:0:0:
234,1,84017,1,2,1:2:0:0:
234,1,84504,5,0,3:0:0:0:
295,57,84666,2,0,L|385:24,2,87.5,2|2|2,3:2|3:2|1:2,2:0:0:0:
291,140,85477,1,0,3:0:0:0:
291,140,85801,5,0,2:0:0:0:
358,188,85963,2,0,P|376:220|376:277,1,87.5,2|0,3:2|2:0,2:0:0:0:
206,187,86612,2,0,P|191:248|221:309,1,131.25,2|0,1:2|3:0,2:0:0:0:
300,340,87260,5,2,3:2:0:0:
127,368,87585,1,0,3:0:0:0:
300,340,87909,5,2,1:2:0:0:
376,381,88071,2,0,L|468:364,1,87.5,0|0,3:0|3:0,2:0:0:0:
509,291,88558,1,2,3:2:0:0:
509,291,89044,5,0,3:0:0:0:
431,250,89206,1,2,1:2:0:0:
505,79,89531,1,2,3:2:0:0:
502,88,89612,1,0,3:0:0:0:
500,98,89693,1,2,3:2:0:0:
498,108,89774,1,0,3:0:0:0:
496,118,89855,2,0,L|481:184,2,65.625,2|0|2,1:2|3:0|3:2,2:0:0:0:
400,87,90504,5,2,1:2:0:0:
398,77,90585,1,0,3:0:0:0:
395,67,90666,1,0,3:0:0:0:
315,97,90828,6,0,B|268:83|268:83|264:76|264:76|217:65,1,98.4375037550928,2|0,3:2|2:0,2:0:0:0:
210,63,91152,6,0,P|215:112|192:140,1,74.3750014185906,6|0,3:1|2:0,2:0:0:0:
117,155,91477,1,2,1:2:0:0:
106,145,91638,1,0,2:0:0:0:
0,262,91801,6,0,P|40:233|76:238,1,74.3750014185906,2|0,3:2|3:0,2:0:0:0:
127,296,92126,1,2,1:2:0:0:
123,310,92287,1,0,2:0:0:0:
271,338,92450,6,0,P|225:317|212:284,1,74.3750014185906,2|0,3:2|3:0,2:0:0:0:
236,211,92775,1,0,1:0:0:0:
321,186,92936,1,2,2:0:0:0:
329,193,93017,1,0,2:0:0:0:
336,201,93098,2,0,L|422:197,1,74.3750014185906,2|0,3:2|3:0,2:0:0:0:
507,358,93423,2,0,L|421:362,1,74.3750014185906,0|2,1:0|2:0,2:0:0:0:
425,353,93666,1,0,2:0:0:0:
416,345,93747,5,2,3:2:0:0:
335,307,93909,1,2,3:2:0:0:
269,367,94071,2,0,L|183:371,1,74.3750014185906,2|2,1:2|2:0,2:0:0:0:
183,372,94314,1,0,2:0:0:0:
171,372,94396,1,2,3:2:0:0:
104,312,94558,1,2,3:2:0:0:
169,251,94720,2,0,L|255:247,1,74.3750014185906,2|2,1:2|2:0,2:0:0:0:
255,246,94963,1,0,2:0:0:0:
267,246,95045,5,2,3:2:0:0:
335,307,95206,1,2,3:2:0:0:
394,240,95369,1,2,1:2:0:0:
327,180,95531,1,0,2:0:0:0:
326,168,95612,1,0,2:0:0:0:
325,156,95693,2,0,L|320:62,1,74.3750014185906,2|0,3:2|3:0,2:0:0:0:
377,12,96017,1,2,1:2:0:0:
235,130,96179,5,2,2:0:0:0:
224,127,96260,1,0,2:0:0:0:
215,120,96341,2,0,P|190:91|186:43,1,74.3750014185906,2|0,3:2|2:0,2:0:0:0:
29,92,96666,2,0,P|63:122|68:208,1,111.562502127886,2|0,1:2|2:0,2:0:0:0:
70,199,96990,6,0,L|161:210,1,74.3750014185906,2|0,3:2|3:0,2:0:0:0:
60,342,97314,2,0,L|182:322,1,111.562502127886,2|0,1:2|2:0,2:0:0:0:
186,321,97639,1,2,3:2:0:0:
188,179,97801,6,0,P|154:209|152:260,1,74.3750014185906,0|0,3:0|1:0,2:0:0:0:
304,360,98125,1,2,2:0:0:0:
312,352,98206,1,0,2:0:0:0:
320,345,98287,2,0,L|296:259,1,74.3750014185906,2|0,3:2|3:0,2:0:0:0:
274,187,98612,1,0,1:0:0:0:
486,215,98774,5,2,2:0:0:0:
482,225,98855,1,0,2:0:0:0:
477,235,98936,1,2,3:2:0:0:
392,261,99098,1,2,3:2:0:0:
360,177,99260,2,0,L|386:100,1,74.3750014185906,2|2,1:2|2:0,2:0:0:0:
388,96,99504,1,0,2:0:0:0:
392,85,99585,5,2,3:2:0:0:
352,5,99747,1,2,3:2:0:0:
298,76,99909,2,0,P|261:95|210:90,1,74.3750014185906,2|2,1:2|2:0,2:0:0:0:
218,94,100152,1,0,2:0:0:0:
207,88,100233,1,2,3:2:0:0:
135,33,100396,1,2,3:2:0:0:
13,136,100558,6,0,P|61:118|127:146,1,111.562502127886,2|0,1:3|2:0,2:0:0:0:
126,148,100882,2,0,P|135:163|142:189,7,37.1875007092953,8|8|8|8|8|8|8|8,1:2|2:0|2:0|2:0|2:0|2:0|2:0|2:0,2:0:0:0:
249,173,101531,6,0,P|205:239|209:349,1,175,4|0,3:2|1:0,2:0:0:0:
390,380,102828,2,0,P|434:314|430:204,1,175,0|0,3:0|1:0,2:0:0:0:
435,220,104125,6,0,P|388:292|309:328,1,175,0|0,3:0|1:0,2:0:0:0:
178,186,105422,2,0,P|224:113|303:77,1,175,0|0,2:0|1:0,2:0:0:0:
380,95,106396,1,0,3:0:0:0:
303,78,106720,6,0,P|284:46|283:-8,2,87.5,0|0|0,3:0|2:0|1:0,2:0:0:0:
303,78,108017,6,0,P|302:121|281:159,2,87.5,0|0|0,3:0|2:0|1:0,2:0:0:0:
247,22,108990,1,0,2:0:0:0:
33,121,109314,6,0,B|140:110|94:188|204:176,1,175,0|0,3:0|1:0,2:0:0:0:
73,374,110612,2,0,L|55:190,1,175,4|0,3:2|1:0,2:0:0:0:
100,133,111585,1,0,2:0:0:0:
190,318,111909,6,0,P|245:327|299:296,1,113.749994792938,4|0,3:2|3:0,2:0:0:0:
493,332,112558,2,0,P|443:305|388:314,1,113.749994792938,0|0,1:0|2:0,2:0:0:0:
332,371,113044,1,0,2:0:0:0:
294,300,113207,1,0,1:0:0:0:
294,300,113855,1,0,1:0:0:0:
481,233,114180,5,0,2:0:0:0:
401,235,114342,1,0,3:0:0:0:
478,215,114504,2,0,L|463:94,1,113.749994792938,0|0,3:0|3:0,2:0:0:0:
456,22,114990,1,0,3:0:0:0:
363,159,115152,2,0,B|293:139|293:139|283:123|283:123|206:104,1,170.624992189408,0|0,1:0|3:0,2:0:0:0:
170,32,115801,2,0,P|137:60|128:127,1,113.749994792938,0|0,1:0|3:0,2:0:0:0:
127,126,116450,6,0,P|107:148|82:159,1,56.8749973964692,0|0,1:0|3:0,2:0:0:0:
0,218,116774,2,0,P|29:224|51:240,1,56.8749973964692,0|0,2:0|2:0,2:0:0:0:
146,336,117098,6,0,L|134:211,2,113.749994792938,4|0|0,3:2|3:0|1:0,2:0:0:0:
146,336,118071,5,0,2:0:0:0:
216,374,118234,1,0,2:0:0:0:
249,302,118396,2,0,P|278:287|303:285,1,56.8749973964692,0|0,3:0|3:0,2:0:0:0:
380,311,118720,2,0,P|401:330|413:356,1,56.8749973964692,0|0,2:0|3:0,2:0:0:0:
361,228,119044,2,0,P|364:188|414:126,1,113.749994792938,0|0,1:0|2:0,2:0:0:0:
486,133,119531,1,0,3:0:0:0:
289,161,119693,6,0,P|247:140|210:77,1,113.749994792938,0|0,1:0|3:0,2:0:0:0:
211,84,120341,1,0,1:0:0:0:
389,32,120504,2,0,P|398:87|378:139,1,113.749994792938,0|0,3:0|3:0,2:0:0:0:
352,259,120990,6,0,L|373:327,1,70,2|0,2:3|2:0,2:0:0:0:
372,325,122125,5,0,2:0:0:0:
510,245,122287,6,0,B|421:249|421:249|397:233|397:233|295:238,1,209.999993591309,6|0,3:1|1:0,2:0:0:0:
262,310,122773,1,2,2:0:0:0:
276,116,122936,2,0,P|331:123|368:159,1,104.999996795654,2|0,3:2|3:0,2:0:0:0:
395,233,123260,1,0,1:0:0:0:
221,182,123422,6,0,P|202:163|194:138,1,52.4999983978272,2|0,2:0|2:0,2:0:0:0:
350,54,123584,2,0,P|324:98|276:115,2,104.999996795654,2|0|0,3:2|3:0|1:0,2:0:0:0:
124,65,124071,1,2,2:0:0:0:
119,56,124152,1,0,2:0:0:0:
114,46,124233,2,0,P|163:33|209:57,1,104.999996795654,2|0,3:2|3:0,2:0:0:0:
274,115,124557,1,0,1:0:0:0:
104,153,124719,6,0,P|78:147|57:131,1,52.4999983978272,2|0,2:0|2:0,2:0:0:0:
53,285,124882,2,0,P|117:247|163:254,2,104.999996795654,2|0|0,3:2|3:0|1:0,2:0:0:0:
218,376,125368,1,2,2:0:0:0:
227,380,125449,1,0,2:0:0:0:
236,384,125531,2,0,P|236:309|207:273,1,104.999996795654,2|0,3:2|3:0,2:0:0:0:
145,248,125855,1,0,1:0:0:0:
332,318,126017,6,0,P|369:308|398:271,1,52.4999983978272,2|0,2:0|2:0,2:0:0:0:
414,218,126179,1,2,3:2:0:0:
220,285,126341,1,0,3:0:0:0:
416,375,126503,2,0,L|413:199,1,157.499995193482,0|0,1:0|2:0,2:0:0:0:
414,197,126828,1,0,3:0:0:0:
316,133,126990,1,0,3:0:0:0:
498,77,127152,1,0,1:0:0:0:
406,25,127314,6,0,P|374:32|347:55,1,52.4999983978272,2|0,2:0|2:0,2:0:0:0:
229,84,127477,2,0,P|279:95|315:132,1,104.999996795654,6|0,3:2|3:0,2:0:0:0:
499,168,127801,2,0,P|448:179|412:216,1,104.999996795654,0|2,1:0|2:0,2:0:0:0:
408,226,128044,1,0,2:0:0:0:
405,236,128125,1,2,3:2:0:0:
473,315,128287,1,0,3:0:0:0:
295,250,128449,1,0,1:0:0:0:
317,372,128611,6,0,P|333:346|334:320,1,52.4999983978272,2|0,2:0|2:0,2:0:0:0:
209,239,128773,2,0,P|223:303|268:329,2,104.999996795654,2|0|0,3:2|3:0|1:0,2:0:0:0:
103,327,129260,1,2,2:0:0:0:
93,331,129341,1,0,2:0:0:0:
83,335,129423,2,0,P|97:271|142:245,1,104.999996795654,2|0,3:2|3:0,2:0:0:0:
209,239,129746,1,0,1:0:0:0:
41,193,129909,6,0,P|18:180|1:159,1,52.4999983978272,2|0,2:0|2:0,2:0:0:0:
80,17,130071,2,0,P|62:65|75:115,2,104.999996795654,2|0|0,3:2|3:0|1:0,2:0:0:0:
240,78,130557,1,2,2:0:0:0:
248,84,130638,1,0,2:0:0:0:
256,90,130719,2,0,L|136:68,1,104.999996795654,2|0,3:2|3:0,2:0:0:0:
357,43,131044,2,0,B|347:109|347:109|333:125|333:125|325:193,1,157.499995193482,4|0,1:2|2:0,2:0:0:0:
322,211,131368,5,2,3:2:0:0:
489,337,131530,1,0,3:0:0:0:
346,297,132017,5,0,3:0:0:0:
465,250,132179,1,0,3:0:0:0:
406,359,132341,1,8,2:0:0:0:
399,365,132422,1,8,2:0:0:0:
391,371,132503,1,10,2:0:0:0:
383,378,132584,1,8,2:0:0:0:
375,383,132665,6,0,B|391:302|391:302|378:271|378:271|391:160,1,209.999993591309,6|0,3:1|1:0,2:0:0:0:
464,139,133152,1,2,2:0:0:0:
269,84,133314,2,0,P|267:129|310:174,1,104.999996795654,2|0,3:2|3:0,2:0:0:0:
388,177,133638,1,0,1:0:0:0:
318,12,133800,6,0,P|294:0|268:0,1,52.4999983978272,2|0,2:0|2:0,2:0:0:0:
180,92,133963,2,0,P|182:47|139:2,2,104.999996795654,2|0|0,3:2|3:0|1:0,2:0:0:0:
77,198,134449,1,2,2:0:0:0:
67,191,134530,1,0,2:0:0:0:
61,182,134612,2,0,P|60:130|96:93,1,104.999996795654,2|0,3:2|3:0,2:0:0:0:
180,92,134936,1,0,1:0:0:0:
64,283,135098,6,0,P|33:275|6:241,1,52.4999983978272,2|0,2:0|2:0,2:0:0:0:
181,210,135260,2,0,P|148:250|153:301,2,104.999996795654,2|0|0,3:2|3:0|1:0,2:0:0:0:
312,290,135746,1,2,2:0:0:0:
309,300,135828,1,0,2:0:0:0:
306,311,135909,2,0,P|270:348|218:350,1,104.999996795654,2|0,3:2|3:0,2:0:0:0:
153,300,136233,1,0,1:0:0:0:
389,333,136395,6,0,P|411:345|429:375,1,52.4999983978272,2|0,2:0|2:0,2:0:0:0:
384,249,136558,2,0,P|375:200|408:133,1,104.999996795654,2|0,3:2|3:0,2:0:0:0:
294,21,136882,2,0,P|309:96|272:164,1,157.499995193482,4|0,1:2|2:0,2:0:0:0:
265,180,137206,6,0,P|284:203|296:233,1,52.4999983978272,10|8,3:2|2:0,2:0:0:0:
238,340,137369,2,0,P|208:345|175:340,1,52.4999983978272,8|8,2:0|2:0,2:0:0:0:
115,235,137530,1,8,2:0:0:0:
109,244,137611,1,8,2:0:0:0:
102,253,137692,1,8,2:0:0:0:
97,263,137773,1,8,2:0:0:0:
91,272,137855,6,0,L|197:246,1,104.999996795654,6|0,3:2|2:0,2:0:0:0:
120,116,138179,2,0,L|14:142,1,104.999996795654,0|0,1:0|2:0,2:0:0:0:
210,145,138504,6,0,B|221:97|221:97|184:41,1,104.999996795654,2|0,3:2|2:0,2:0:0:0:
6,245,138828,2,0,B|-5:293|-5:293|32:349,1,104.999996795654,0|0,1:0|2:0,2:0:0:0:
192,246,139152,6,0,B|110:205|110:205|106:185|106:185|7:136,1,209.999993591309,2|0,3:2|1:0,2:0:0:0:
18,141,139800,6,0,P|76:132|106:93,1,104.999996795654,2|0,3:2|2:0,2:0:0:0:
268,106,140125,2,0,P|233:68|181:63,1,104.999996795654,0|0,1:0|2:0,2:0:0:0:
18,141,140450,2,0,B|82:152|104:98|104:98|84:154|136:209,1,209.999993591309,6|0,3:2|1:0,2:0:0:0:
124,195,141098,6,0,P|97:240|105:311,1,104.999996795654,2|0,3:2|2:0,2:0:0:0:
359,375,141423,2,0,P|386:330|378:259,1,104.999996795654,2|0,1:2|2:0,2:0:0:0:
182,263,141747,6,0,P|182:315|209:360,1,104.999996795654,2|0,3:2|2:0,2:0:0:0:
302,305,142072,2,0,P|302:253|276:209,1,104.999996795654,2|0,1:2|2:0,2:0:0:0:
171,180,142396,6,0,B|261:185|261:185|275:208|275:208|382:213,1,209.999993591309,2|0,3:2|1:0,2:0:0:0:
367,212,143045,6,0,P|378:160|341:102,1,104.999996795654,6|8,3:2|2:0,2:0:0:0:
222,8,143368,2,0,P|210:58|233:104,1,104.999996795654,2|8,1:2|2:0,2:0:0:0:
395,37,143692,2,0,P|343:25|297:48,1,104.999996795654,2|8,1:2|2:0,2:0:0:0:
195,182,144018,2,0,P|246:192|292:169,1,104.999996795654,2|8,1:2|2:0,2:0:0:0:
298,46,144341,5,2,1:2:0:0:
367,212,144504,1,8,2:0:0:0:
195,182,144665,5,2,1:2:0:0:
356,114,144828,1,8,2:0:0:0:
222,8,144990,5,2,1:2:0:0:
291,169,145152,1,8,2:0:0:0:
394,34,145314,5,2,1:2:0:0:
233,104,145476,1,8,2:0:0:0:
367,212,145639,6,0,P|378:160|341:102,1,104.999996795654,6|8,1:2|2:0,2:0:0:0:
195,182,145963,2,0,P|246:192|292:169,1,104.999996795654,2|8,1:2|2:0,2:0:0:0:
222,8,146287,2,0,P|210:58|233:104,1,104.999996795654,2|8,1:2|2:0,2:0:0:0:
395,37,146612,2,0,P|343:25|297:48,1,104.999996795654,8|0,1:2|2:0,2:0:0:0:
277,279,146936,5,2,1:2:0:0:
233,104,147098,1,0,1:0:0:0:
233,104,147585,5,8,2:0:0:0:
229,116,147666,1,8,2:0:0:0:
224,128,147747,1,8,2:0:0:0:
220,140,147828,1,8,2:0:0:0:
216,152,147909,1,0,3:0:0:0:
144,200,148071,1,0,3:0:0:0:
98,125,148233,6,0,P|59:117|12:140,1,87.5,2|0,3:2|2:0,2:0:0:0:
29,297,148558,2,0,B|63:293|85:264|85:264|111:287|160:283,1,131.25,2|0,3:2|2:0,2:0:0:0:
162,281,148882,1,2,3:2:0:0:
202,358,149044,2,0,P|245:364|290:342,1,87.5,2|0,2:0|3:0,2:0:0:0:
304,261,149369,1,10,2:0:0:0:
450,347,149531,6,0,L|361:325,1,87.5,2|2,3:2|2:0,2:0:0:0:
408,196,149855,1,10,3:2:0:0:
420,199,149936,1,8,2:0:0:0:
432,202,150017,1,8,2:0:0:0:
444,205,150098,1,8,2:0:0:0:
456,209,150179,2,0,B|482:174|482:174|469:111,1,87.5,10|0,3:2|2:0,2:0:0:0:
450,46,150504,5,8,3:2:0:0:
326,156,150666,1,8,2:0:0:0:
377,87,150828,6,0,P|340:67|319:26,1,87.5,2|0,3:2|2:0,2:0:0:0:
237,151,151152,2,0,P|253:96|214:18,1,131.25,2|0,3:2|2:0,2:0:0:0:
216,18,151477,1,2,3:2:0:0:
72,63,151639,2,0,B|62:104|62:104|91:146,2,87.5,2|0|2,2:0|3:0|2:0,2:0:0:0:
160,186,152125,5,10,3:2:0:0:
82,225,152287,1,10,2:0:0:0:
72,312,152450,2,0,P|80:328|106:350,1,43.75,2|0,3:2|3:0,2:0:0:0:
173,375,152612,1,0,3:0:0:0:
220,301,152774,1,2,3:2:0:0:
228,299,152855,1,0,2:0:0:0:
236,297,152936,1,0,2:0:0:0:
244,295,153017,1,0,2:0:0:0:
252,293,153098,1,0,3:0:0:0:
323,343,153260,1,8,2:0:0:0:
379,169,153423,6,0,B|351:204|351:204|369:264,1,87.5,2|0,3:2|2:0,2:0:0:0:
445,365,153747,2,0,L|448:218,1,131.25,10|0,3:2|2:0,2:0:0:0:
450,216,154071,1,2,3:2:0:0:
482,134,154233,2,0,B|494:93|494:93|466:58,1,87.5,2|0,2:0|3:0,2:0:0:0:
381,35,154558,1,10,2:0:0:0:
298,179,154720,6,0,B|270:144|270:144|282:103,1,87.5,10|2,3:2|2:0,2:0:0:0:
285,95,154963,1,0,2:0:0:0:
288,86,155044,1,10,3:2:0:0:
291,78,155125,1,8,2:0:0:0:
294,70,155206,1,8,2:0:0:0:
220,22,155369,5,2,3:2:0:0:
157,82,155531,1,8,2:0:0:0:
294,70,155693,5,2,3:2:0:0:
83,34,155855,1,8,2:0:0:0:
187,168,156017,6,0,P|207:212|194:272,1,87.5,2|0,3:2|2:0,2:0:0:0:
33,291,156341,2,0,P|13:247|26:187,1,87.5,2|8,3:2|2:0,2:0:0:0:
69,139,156666,1,10,3:2:0:0:
132,312,156828,2,0,B|102:333|102:333|100:346|100:346|62:367,2,87.5,8|4|0,2:0|3:2|2:0,2:0:0:0:
199,353,157314,6,0,L|348:362,1,131.25,6|0,1:2|2:0,2:0:0:0:
405,348,157639,6,0,P|432:311|432:279,1,52.4999983978272,2|0,1:2|2:0,2:0:0:0:
461,235,157801,6,0,P|415:230|387:246,1,52.4999983978272,2|0,1:2|2:0,2:0:0:0:
335,243,157963,6,0,P|353:284|381:300,1,52.4999983978272,2|0,1:2|2:0,2:0:0:0:
357,288,158287,6,0,L|234:274,1,104.999996795654,6|0,3:1|2:0,2:0:0:0:
155,96,158611,2,0,L|278:110,1,104.999996795654,6|0,1:2|2:0,2:0:0:0:
179,305,158935,6,0,B|173:250|173:250|208:211,1,104.999996795654,2|0,3:2|2:0,2:0:0:0:
333,79,159259,2,0,B|339:134|339:134|304:173,1,104.999996795654,2|0,1:2|2:0,2:0:0:0:
90,117,159584,6,0,L|213:95,1,104.999996795654,6|0,3:2|2:0,2:0:0:0:
422,267,159908,2,0,L|299:289,1,104.999996795654,2|0,1:2|2:0,2:0:0:0:
10,184,160232,6,0,L|133:209,1,104.999996795654,2|0,3:2|2:0,2:0:0:0:
502,200,160557,2,0,L|379:175,1,104.999996795654,2|0,1:2|2:0,2:0:0:0:
256,192,160881,5,6,3:2:0:0:
256,192,160962,12,0,162097,2:0:0:0:
181,96,162178,5,0,1:0:0:0:
376,175,162422,5,0,1:0:0:0:
210,304,162665,5,0,1:0:0:0:
258,200,162827,5,0,3:0:0:0:
248,197,162908,1,0,3:0:0:0:
248,186,162989,1,0,3:0:0:0:
258,183,163070,1,0,3:0:0:0:
265,192,163151,1,0,1:0:0:0:
0,192,163477,5,4,2:0:0:0:
312,75,172558,5,0,1:0:0:0:
198,310,172720,1,0,1:0:0:0:
213,126,173207,5,0,1:0:0:0:
297,259,173369,1,0,1:0:0:0:
256,192,173693,5,0,2:0:0:0:
434,70,173855,6,0,B|420:158|420:158|434:177|434:177|413:285,1,209.999993591309,6|0,3:1|1:0,2:0:0:0:
404,356,174342,1,2,2:0:0:0:
223,367,174504,2,0,B|211:316|211:316|245:269,1,104.999996795654,2|0,3:2|3:0,2:0:0:0:
323,252,174828,1,0,1:0:0:0:
131,294,174990,6,0,P|108:279|93:238,1,52.4999983978272,2|0,2:0|2:0,2:0:0:0:
156,129,175153,2,0,P|116:171|53:174,2,104.999996795654,2|0|0,3:2|3:0|1:0,2:0:0:0:
48,21,175639,1,2,2:0:0:0:
37,22,175720,1,0,2:0:0:0:
28,28,175801,2,0,P|0:79|17:139,1,104.999996795654,2|0,3:2|3:0,2:0:0:0:
71,178,176126,1,0,1:0:0:0:
219,86,176288,6,0,P|202:66|179:52,1,52.4999983978272,2|0,2:0|2:0,2:0:0:0:
71,178,176449,2,0,P|111:136|174:133,2,104.999996795654,6|0|0,3:2|3:0|1:0,2:0:0:0:
197,283,176936,1,2,2:0:0:0:
186,288,177018,1,0,2:0:0:0:
177,290,177098,2,0,P|118:291|72:248,1,104.999996795654,2|0,3:2|3:0,2:0:0:0:
71,178,177423,1,0,1:0:0:0:
234,163,177585,6,0,P|238:167|247:212,1,52.4999983978272,2|0,2:0|2:0,2:0:0:0:
271,362,177747,2,0,P|286:302|331:263,1,104.999996795654,0|0,3:0|3:0,2:0:0:0:
499,364,178071,2,0,P|423:342|401:262,1,157.499995193482,4|0,1:2|2:0,2:0:0:0:
401,258,178396,6,0,P|414:233|436:215,1,52.4999983978272,10|8,3:2|2:0,2:0:0:0:
512,140,178558,2,0,P|483:141|457:131,1,52.4999983978272,8|8,2:0|2:0,2:0:0:0:
393,43,178720,1,8,2:0:0:0:
384,47,178801,1,8,2:0:0:0:
375,52,178882,1,8,2:0:0:0:
365,57,178963,1,8,2:0:0:0:
354,63,179045,6,0,L|219:24,1,104.999996795654,6|0,3:2|2:0,2:0:0:0:
234,177,179368,2,0,L|369:216,1,104.999996795654,0|0,1:0|2:0,2:0:0:0:
482,139,179693,6,0,B|405:134|405:134|363:151,1,104.999996795654,2|0,3:2|2:0,2:0:0:0:
106,101,180017,2,0,B|183:106|183:106|225:89,1,104.999996795654,0|0,1:0|2:0,2:0:0:0:
307,19,180341,6,0,B|303:111|303:111|284:134|284:134|279:225,1,209.999993591309,2|0,3:2|1:0,2:0:0:0:
279,221,180990,6,0,B|231:208|231:208|180:253,1,104.999996795654,2|0,3:2|2:0,2:0:0:0:
31,256,181314,2,0,B|79:243|79:243|130:288,1,104.999996795654,0|0,1:0|2:0,2:0:0:0:
163,158,181639,6,0,L|143:387,1,209.999993591309,6|0,3:2|1:0,2:0:0:0:
144,367,182288,6,0,B|217:349|217:349|261:370,1,104.999996795654,2|0,3:2|2:0,2:0:0:0:
379,280,182612,2,0,B|306:298|306:298|262:277,1,104.999996795654,0|0,1:0|2:0,2:0:0:0:
181,278,182936,6,0,B|273:317|273:317|269:336|269:336|368:378,1,209.999993591309,2|0,3:2|1:0,2:0:0:0:
331,106,183585,2,0,B|239:67|239:67|243:48|243:48|144:6,1,209.999993591309,2|0,3:2|1:0,2:0:0:0:
159,12,184234,6,0,P|183:58|162:123,1,104.999996795654,6|8,3:2|2:0,2:0:0:0:
0,82,184558,2,0,P|46:57|111:78,1,104.999996795654,2|8,1:2|2:0,2:0:0:0:
73,240,184882,2,0,P|48:193|69:128,1,104.999996795654,2|8,1:2|2:0,2:0:0:0:
229,166,185207,2,0,P|182:190|117:169,1,104.999996795654,2|8,1:2|2:0,2:0:0:0:
58,143,185531,5,2,1:2:0:0:
159,12,185693,1,8,2:0:0:0:
132,180,185855,5,2,1:2:0:0:
0,82,186018,1,8,2:0:0:0:
172,105,186180,5,2,1:2:0:0:
73,240,186342,1,8,2:0:0:0:
96,67,186504,5,2,1:2:0:0:
229,166,186666,1,8,2:0:0:0:
229,166,188125,5,6,3:1:0:0:
178,237,188287,1,0,2:0:0:0:
253,281,188449,1,2,1:2:0:0:
304,210,188611,1,0,2:0:0:0:
226,155,188774,5,2,3:2:0:0:
166,239,188936,1,0,3:0:0:0:
255,291,189098,1,2,1:2:0:0:
315,207,189260,1,0,2:0:0:0:
226,155,189422,6,0,L|207:66,1,87.5,2|2,3:2|3:2,2:0:0:0:
45,76,189747,2,0,B|30:140|30:140|79:200,1,131.25,2|0,1:2|2:0,2:0:0:0:
83,203,190071,1,2,3:2:0:0:
27,270,190233,1,2,3:2:0:0:
73,343,190395,2,0,P|122:351|162:333,1,87.5,2|0,1:2|2:0,2:0:0:0:
267,244,190720,5,2,3:2:0:0:
317,319,190882,1,2,3:2:0:0:
388,261,191044,1,2,1:2:0:0:
336,185,191206,1,0,2:0:0:0:
275,244,191368,5,2,3:2:0:0:
319,308,191530,1,2,3:2:0:0:
378,259,191692,1,2,1:2:0:0:
333,195,191854,1,0,2:0:0:0:
275,244,192017,6,0,B|185:231,1,87.5,2|2,3:2|3:2,2:0:0:0:
1,125,192341,2,0,L|139:148,1,131.25,2|0,1:2|2:0,2:0:0:0:
148,150,192666,5,2,3:2:0:0:
215,29,192828,1,0,1:0:0:0:
92,62,192990,5,2,3:2:0:0:
271,117,193152,1,0,1:0:0:0:
96,235,193314,5,6,3:2:0:0:
177,259,193476,1,2,2:0:0:0:
141,339,193638,1,2,1:2:0:0:
60,311,193800,1,0,2:0:0:0:
90,221,193963,5,2,3:2:0:0:
189,254,194125,1,2,3:2:0:0:
146,348,194287,1,2,1:2:0:0:
50,316,194449,1,0,2:0:0:0:
90,221,194612,6,0,L|47:121,1,87.5,2|2,3:2|3:2,2:0:0:0:
201,3,194936,2,0,B|217:61|217:61|169:141,1,131.25,2|0,1:2|2:0,2:0:0:0:
172,137,195260,1,2,3:2:0:0:
251,173,195422,1,2,3:2:0:0:
309,107,195585,2,0,L|400:127,1,87.5,2|0,1:2|2:0,2:0:0:0:
339,274,195909,6,0,B|329:230|329:230|366:187,1,87.5,2|2,3:2|3:2,2:0:0:0:
498,176,196233,2,0,B|478:249|478:249|489:269|489:269|462:366,1,175,2|2,1:2|3:2,2:0:0:0:
384,369,196720,1,2,3:2:0:0:
356,197,196882,2,0,B|366:241|366:241|329:284,1,87.5,2|0,1:2|2:0,2:0:0:0:
234,368,197206,5,2,3:2:0:0:
162,317,197368,2,0,B|152:273|152:273|189:230,1,87.5,2|6,3:2|1:2,2:0:0:0:
258,201,197693,1,0,2:0:0:0:
74,225,197855,1,10,3:2:0:0:
112,146,198017,1,8,2:0:0:0:
108,138,198098,1,8,2:0:0:0:
104,129,198179,1,10,2:0:0:0:
100,121,198260,1,8,2:0:0:0:
97,112,198341,1,8,2:0:0:0:
94,104,198422,1,8,2:0:0:0:
91,95,198504,6,0,B|74:226|74:226|41:285,1,175,6|6,3:1|3:2,2:0:0:0:
257,371,199152,2,0,B|274:240|274:240|307:181,1,175,2|2,1:2|3:2,2:0:0:0:
294,202,199801,5,2,3:2:0:0:
53,263,200125,1,2,1:2:0:0:
53,263,200449,5,2,3:2:0:0:
294,202,200774,1,2,3:2:0:0:
512,223,201098,6,0,B|435:239|435:239|425:259|425:259|337:273,1,175,2|6,1:2|3:2,2:0:0:0:
351,270,201747,1,2,3:2:0:0:
144,108,202071,6,0,B|221:92|221:92|231:72|231:72|319:58,1,175,2|2,1:2|3:2,2:0:0:0:
305,61,202720,1,2,3:2:0:0:
305,61,203044,5,2,1:2:0:0:
406,144,203206,1,0,3:0:0:0:
282,189,203368,1,2,1:2:0:0:
282,189,203693,5,6,3:1:0:0:
296,273,203855,1,2,2:0:0:0:
210,279,204017,1,2,1:2:0:0:
195,194,204179,1,0,2:0:0:0:
290,178,204342,5,2,3:2:0:0:
306,280,204504,1,2,3:2:0:0:
204,287,204666,1,2,1:2:0:0:
187,186,204828,1,0,2:0:0:0:
290,178,204990,6,0,L|354:95,1,87.5,2|2,3:2|3:2,2:0:0:0:
487,196,205314,2,0,B|450:239|450:239|451:254|451:254|389:321,1,131.25,6|0,1:2|2:0,2:0:0:0:
398,309,205639,1,2,3:2:0:0:
306,280,205801,1,2,3:2:0:0:
325,374,205963,1,2,1:2:0:0:
325,374,206287,5,6,2:1:0:0:
243,347,206449,2,0,L|185:357,1,56.8749973964692,2|0,2:0|2:0,2:0:0:0:
186,356,206774,6,0,L|127:369,3,56.8749973964692,2|2|2|2,2:0|2:0|2:0|2:0,2:0:0:0:
53,332,207422,1,2,2:0:0:0:
53,332,207747,6,0,L|39:273,3,56.8749973964692,2|2|2|2,2:0|2:0|2:0|2:0,2:0:0:0:
77,199,208395,1,2,2:0:0:0:
77,199,208720,6,0,L|135:185,3,56.8749973964692,2|2|2|2,2:0|2:0|2:0|2:0,2:0:0:0:
210,223,209368,1,2,2:0:0:0:
210,223,209693,6,0,L|223:281,3,56.8749973964692,2|2|2|2,2:0|2:0|2:0|2:0,2:0:0:0:
186,356,210341,1,2,2:0:0:0:
186,356,210666,6,0,L|127:369,1,56.8749973964692,2|0,2:0|2:0,2:0:0:0:
