osu file format v14

[General]
AudioFilename: 01. Inferno.mp3
AudioLeadIn: 0
PreviewTime: 54666
Countdown: 0
SampleSet: Soft
StackLeniency: 0.3
Mode: 0
LetterboxInBreaks: 0
WidescreenStoryboard: 0

[Editor]
Bookmarks: 101531
DistanceSpacing: 1.2
BeatDivisor: 4
GridSize: 4
TimelineZoom: 2.5

[Metadata]
Title:Inferno
TitleUnicode:インフェルノ
Artist:Mrs. GREEN APPLE
ArtistUnicode:Mrs. GREEN APPLE
Creator:gokugohan12468
Version:Will x Kitty's Hard
Source:炎炎ノ消防隊
Tags:Enen no Shouboutai OP Opening 1 one ミセスグリーンアップル Full Version Size Fire Force Attitude KittyAdventure FunnyA milr_ [_white_music_] william_k william k Fall _tranquility -_Frontier_- Frontier shockolatte moph hausenberg Jian Kaguya_Sama Dora- Doraemonelf collab collaboration 髙野清宗 藤澤涼架 山中綾華 大森元貴 若井滉斗 Hiroto Wakai Motoki Omori Ayaka Yamanaka Ryoka Fujisawa Kiyokazu Takano
BeatmapID:2148499
BeatmapSetID:1005253

[Difficulty]
HPDrainRate:5
CircleSize:3.5
OverallDifficulty:7
ApproachRate:8
SliderMultiplier:1.40000000596046
SliderTickRate:1

[Events]
//Background and Video events
Video,-160,"video.mp4"
0,0,"Will x Kitty's BG.jpg",0,0
//Break Periods
2,163677,171808
//Storyboard Layer 0 (Background)
//Storyboard Layer 1 (Fail)
//Storyboard Layer 2 (Pass)
//Storyboard Layer 3 (Foreground)
//Storyboard Layer 4 (Overlay)
//Storyboard Sound Samples

[TimingPoints]
342,324.324324324324,4,2,1,75,1,0
1639,-90.9090909090909,4,2,1,85,0,0
11693,-90.9090909090909,4,2,1,75,0,0
12017,-111.111111111111,4,2,1,85,0,0
17206,-90.9090909090909,4,2,1,85,0,0
22396,-117.647058823529,4,2,2,60,0,0
32450,-117.647058823529,4,2,1,65,0,0
32774,-105.263157894737,4,2,1,70,0,0
42504,-105.263157894737,4,2,1,80,0,0
43152,-117.647058823529,4,2,3,55,0,0
43801,-117.647058823529,4,2,2,55,0,0
44450,-117.647058823529,4,2,3,55,0,0
45098,-117.647058823529,4,2,2,55,0,0
45747,-117.647058823529,4,2,3,55,0,0
46396,-117.647058823529,4,2,2,55,0,0
46882,-117.647058823529,4,2,3,55,0,0
47693,-117.647058823529,4,2,2,55,0,0
48017,-117.647058823529,4,2,3,55,0,0
48990,-117.647058823529,4,2,2,55,0,0
49639,-117.647058823529,4,2,3,55,0,0
50287,-117.647058823529,4,2,2,55,0,0
50936,-117.647058823529,4,2,3,55,0,0
51585,-117.647058823529,4,2,2,55,0,0
52071,-117.647058823529,4,2,3,55,0,0
52233,-117.647058823529,4,2,2,60,0,0
52396,-105.263157894737,4,2,2,60,0,0
53044,-105.263157894737,4,2,3,60,0,0
53206,-105.263157894737,4,2,2,60,0,0
53531,-105.263157894737,4,2,3,70,0,0
53693,-105.263157894737,4,2,2,70,0,0
53774,-105.263157894737,4,2,3,70,0,0
53936,-105.263157894737,4,2,2,70,0,0
54017,-105.263157894737,4,2,3,70,0,0
54179,-133.333333333333,4,2,2,70,0,0
54503,-133.333333333333,4,2,2,75,0,0
54828,-86.9565217391304,4,2,4,85,0,1
55314,-86.9565217391304,4,2,3,85,0,1
55477,-86.9565217391304,4,2,4,85,0,1
55963,-86.9565217391304,4,2,3,85,0,1
56125,-86.9565217391304,4,2,4,85,0,1
56612,-86.9565217391304,4,2,3,85,0,1
56774,-86.9565217391304,4,2,4,85,0,1
57260,-86.9565217391304,4,2,3,85,0,1
57423,-86.9565217391304,4,2,4,85,0,1
57909,-86.9565217391304,4,2,3,85,0,1
58071,-86.9565217391304,4,2,4,85,0,1
58558,-86.9565217391304,4,2,3,85,0,1
58720,-86.9565217391304,4,2,4,85,0,1
60504,-86.9565217391304,4,2,3,85,0,1
60666,-86.9565217391304,4,2,4,85,0,1
61152,-86.9565217391304,4,2,3,85,0,1
61314,-86.9565217391304,4,2,4,85,0,1
61801,-86.9565217391304,4,2,3,85,0,1
61963,-86.9565217391304,4,2,4,85,0,1
62450,-86.9565217391304,4,2,3,85,0,1
62612,-86.9565217391304,4,2,4,85,0,1
63098,-86.9565217391304,4,2,3,85,0,1
63260,-86.9565217391304,4,2,4,85,0,1
63747,-86.9565217391304,4,2,5,85,0,1
63909,-86.9565217391304,4,2,5,85,0,0
64882,-86.9565217391304,4,2,3,70,0,0
65206,-86.9565217391304,4,2,4,85,0,1
65693,-86.9565217391304,4,2,3,85,0,1
65855,-86.9565217391304,4,2,4,85,0,1
66341,-86.9565217391304,4,2,3,85,0,1
66504,-86.9565217391304,4,2,4,85,0,1
66990,-86.9565217391304,4,2,3,85,0,1
67152,-86.9565217391304,4,2,4,85,0,1
67639,-86.9565217391304,4,2,3,85,0,1
67801,-86.9565217391304,4,2,4,85,0,1
68287,-86.9565217391304,4,2,3,85,0,1
68450,-86.9565217391304,4,2,4,85,0,1
68936,-86.9565217391304,4,2,3,85,0,1
69098,-86.9565217391304,4,2,4,85,0,1
69747,-86.9565217391304,4,2,4,30,0,1
69909,-86.9565217391304,4,2,1,40,0,1
70071,-86.9565217391304,4,2,1,50,0,1
70152,-86.9565217391304,4,2,1,55,0,1
70233,-86.9565217391304,4,2,1,60,0,1
70314,-86.9565217391304,4,2,1,65,0,1
70396,-86.9565217391304,4,2,4,85,0,1
75585,-86.9565217391304,4,2,4,90,0,1
75747,-86.9565217391304,4,2,5,90,0,1
78179,-86.9565217391304,4,2,4,90,0,1
78341,-86.9565217391304,4,2,5,90,0,1
79477,-86.9565217391304,4,2,5,100,0,0
80774,-125,4,2,6,60,0,0
81423,-125,4,2,2,60,0,0
82071,-125,4,2,6,60,0,0
82720,-125,4,2,2,60,0,0
83369,-125,4,2,6,60,0,0
84017,-125,4,2,2,60,0,0
84666,-125,4,2,6,60,0,0
85314,-125,4,2,2,60,0,0
85963,-125,4,2,6,60,0,0
86612,-125,4,2,2,60,0,0
87260,-125,4,2,6,60,0,0
87909,-125,4,2,2,60,0,0
88558,-125,4,2,6,60,0,0
88882,-125,4,2,1,60,0,0
89206,-125,4,2,2,60,0,0
89531,-125,4,2,6,60,0,0
89855,-125,4,2,2,60,0,0
90341,-125,4,2,6,60,0,0
90504,-125,4,2,2,60,0,0
90828,-125,4,2,6,60,0,0
91152,-105.263157894737,4,2,1,70,0,0
100882,-105.263157894737,4,2,1,55,0,0
101531,-133.333333333333,4,2,3,55,0,0
102179,-133.333333333333,4,2,2,55,0,0
102666,-133.333333333333,4,2,3,55,0,0
103477,-133.333333333333,4,2,2,55,0,0
103963,-133.333333333333,4,2,3,55,0,0
104773,-133.333333333333,4,2,2,55,0,0
105909,-133.333333333333,4,2,3,55,0,0
106071,-133.333333333333,4,2,2,55,0,0
106233,-133.333333333333,4,2,3,55,0,0
107368,-133.333333333333,4,2,2,55,0,0
107855,-133.333333333333,4,2,3,55,0,0
108666,-133.333333333333,4,2,2,55,0,0
109314,-133.333333333333,4,2,3,55,0,0
109963,-133.333333333333,4,2,2,55,0,0
110612,-133.333333333333,4,2,3,55,0,0
111260,-133.333333333333,4,2,2,55,0,0
111747,-133.333333333333,4,2,3,55,0,0
111909,-133.333333333333,4,2,3,60,0,0
112557,-133.333333333333,4,2,2,60,0,0
112882,-133.333333333333,4,2,2,55,0,0
113206,-133.333333333333,4,2,2,60,0,0
114017,-133.333333333333,4,2,2,55,0,0
114341,-133.333333333333,4,2,3,60,0,0
115152,-133.333333333333,4,2,2,60,0,0
115477,-133.333333333333,4,2,2,55,0,0
115639,-133.333333333333,4,2,3,60,0,0
115801,-133.333333333333,4,2,2,60,0,0
116125,-133.333333333333,4,2,3,60,0,0
116450,-133.333333333333,4,2,2,60,0,0
116612,-133.333333333333,4,2,3,60,0,0
116774,-133.333333333333,4,2,3,55,0,0
117098,-133.333333333333,4,2,3,60,0,0
117747,-133.333333333333,4,2,2,60,0,0
118071,-133.333333333333,4,2,2,55,0,0
118396,-133.333333333333,4,2,3,60,0,0
118720,-133.333333333333,4,2,3,55,0,0
118882,-133.333333333333,4,2,3,60,0,0
119044,-133.333333333333,4,2,2,60,0,0
119368,-133.333333333333,4,2,2,55,0,0
119531,-133.333333333333,4,2,3,60,0,0
119693,-133.333333333333,4,2,2,60,0,0
120017,-133.333333333333,4,2,3,60,0,0
120341,-133.333333333333,4,2,2,60,0,0
120665,-133.333333333333,4,2,2,55,0,0
120828,-133.333333333333,4,2,3,60,0,0
120909,-133.333333333333,4,2,3,55,0,0
120990,-133.333333333333,4,2,1,65,0,0
121638,-133.333333333333,4,2,1,55,0,0
122287,-95.2380952380954,4,2,4,85,0,1
122774,-95.2380952380954,4,2,3,85,0,1
122936,-95.2380952380954,4,2,4,85,0,1
123422,-95.2380952380954,4,2,3,85,0,1
123585,-95.2380952380954,4,2,4,85,0,1
124071,-95.2380952380954,4,2,3,85,0,1
124152,-95.2380952380954,4,2,3,55,0,1
124233,-95.2380952380954,4,2,4,85,0,1
124720,-95.2380952380954,4,2,3,85,0,1
124801,-95.2380952380954,4,2,3,55,0,1
124882,-95.2380952380954,4,2,4,85,0,1
125369,-95.2380952380954,4,2,3,85,0,1
125450,-95.2380952380954,4,2,3,55,0,1
125531,-95.2380952380954,4,2,4,85,0,1
126017,-95.2380952380954,4,2,3,85,0,1
126179,-95.2380952380954,4,2,4,85,0,1
126666,-95.2380952380954,4,2,4,55,0,1
126828,-95.2380952380954,4,2,4,85,0,1
127314,-95.2380952380954,4,2,3,85,0,1
127477,-95.2380952380954,4,2,4,85,0,1
127963,-95.2380952380954,4,2,3,85,0,1
128125,-95.2380952380954,4,2,4,85,0,1
128612,-95.2380952380954,4,2,3,85,0,1
128774,-95.2380952380954,4,2,4,85,0,1
129260,-95.2380952380954,4,2,3,85,0,1
129341,-95.2380952380954,4,2,3,55,0,1
129423,-95.2380952380954,4,2,4,85,0,1
129909,-95.2380952380954,4,2,3,85,0,1
129990,-95.2380952380954,4,2,3,55,0,1
130071,-95.2380952380954,4,2,4,85,0,1
130558,-95.2380952380954,4,2,3,85,0,1
130720,-95.2380952380954,4,2,4,85,0,1
131206,-95.2380952380954,4,2,5,85,0,1
131369,-95.2380952380954,4,2,5,85,0,0
132341,-95.2380952380954,4,2,3,70,0,0
132666,-95.2380952380954,4,2,4,85,0,1
133152,-95.2380952380954,4,2,3,85,0,1
133314,-95.2380952380954,4,2,4,85,0,1
133801,-95.2380952380954,4,2,3,85,0,1
133963,-95.2380952380954,4,2,4,85,0,1
134450,-95.2380952380954,4,2,3,85,0,1
134531,-95.2380952380954,4,2,3,55,0,1
134612,-95.2380952380954,4,2,4,85,0,1
135098,-95.2380952380954,4,2,3,85,0,1
135179,-95.2380952380954,4,2,3,55,0,1
135260,-95.2380952380954,4,2,4,85,0,1
135747,-95.2380952380954,4,2,3,85,0,1
135828,-95.2380952380954,4,2,3,55,0,1
135909,-95.2380952380954,4,2,4,85,0,1
136396,-95.2380952380954,4,2,3,85,0,1
136558,-95.2380952380954,4,2,4,85,0,1
137044,-95.2380952380954,4,2,4,55,0,1
137206,-95.2380952380954,4,2,4,30,0,1
137287,-95.2380952380954,4,2,1,35,0,1
137368,-95.2380952380954,4,2,1,40,0,1
137449,-95.2380952380954,4,2,1,45,0,1
137531,-95.2380952380954,4,2,1,50,0,1
137612,-95.2380952380954,4,2,1,55,0,1
137693,-95.2380952380954,4,2,1,60,0,1
137774,-95.2380952380954,4,2,1,65,0,1
137855,-95.2380952380954,4,2,4,85,0,1
138341,-95.2380952380954,4,2,4,55,0,1
138504,-95.2380952380954,4,2,4,85,0,1
138990,-95.2380952380954,4,2,4,55,0,1
139152,-95.2380952380954,4,2,4,85,0,1
139963,-95.2380952380954,4,2,4,55,0,1
140125,-95.2380952380954,4,2,4,85,0,1
140287,-95.2380952380954,4,2,4,55,0,1
140450,-95.2380952380954,4,2,4,85,0,1
140936,-95.2380952380954,4,2,4,55,0,1
141098,-95.2380952380954,4,2,4,85,0,1
141260,-95.2380952380954,4,2,4,55,0,1
141423,-95.2380952380954,4,2,4,85,0,1
141585,-95.2380952380954,4,2,4,55,0,1
141747,-95.2380952380954,4,2,4,85,0,1
141909,-95.2380952380954,4,2,4,55,0,1
142071,-95.2380952380954,4,2,4,85,0,1
142233,-95.2380952380954,4,2,4,55,0,1
142396,-95.2380952380954,4,2,4,85,0,1
143044,-95.2380952380954,4,2,4,90,0,1
143206,-95.2380952380954,4,2,5,90,0,1
145639,-95.2380952380954,4,2,4,90,0,1
145801,-95.2380952380954,4,2,5,90,0,1
146774,-95.2380952380954,4,2,5,55,0,1
146936,-95.2380952380954,4,2,5,100,0,0
147585,-95.2380952380954,4,2,1,70,0,0
147909,-95.2380952380954,4,2,1,75,0,0
148233,-117.647058823529,4,2,4,75,0,0
149044,-117.647058823529,4,2,3,75,0,0
149206,-117.647058823529,4,2,1,75,0,0
149368,-117.647058823529,4,2,3,75,0,0
149531,-117.647058823529,4,2,4,75,0,0
149693,-117.647058823529,4,2,3,75,0,0
149855,-117.647058823529,4,2,4,75,0,0
149936,-117.647058823529,4,2,1,75,0,0
150179,-117.647058823529,4,2,4,75,0,0
150503,-117.647058823529,4,2,1,75,0,0
150828,-117.647058823529,4,2,4,75,0,0
151639,-117.647058823529,4,2,3,75,0,0
151801,-117.647058823529,4,2,1,75,0,0
151963,-117.647058823529,4,2,3,75,0,0
152125,-117.647058823529,4,2,4,75,0,0
152287,-117.647058823529,4,2,3,75,0,0
152450,-117.647058823529,4,2,4,75,0,0
153260,-117.647058823529,4,2,1,75,0,0
153423,-117.647058823529,4,2,4,75,0,0
154233,-117.647058823529,4,2,3,75,0,0
154395,-117.647058823529,4,2,1,75,0,0
154558,-117.647058823529,4,2,3,75,0,0
154720,-117.647058823529,4,2,4,75,0,0
154882,-117.647058823529,4,2,3,75,0,0
155044,-117.647058823529,4,2,4,75,0,0
155125,-117.647058823529,4,2,1,75,0,0
155369,-117.647058823529,4,2,4,75,0,0
155531,-117.647058823529,4,2,1,75,0,0
155693,-117.647058823529,4,2,4,75,0,0
155855,-117.647058823529,4,2,1,75,0,0
156017,-117.647058823529,4,2,4,75,0,0
156990,-117.647058823529,4,2,2,80,0,0
157152,-117.647058823529,4,2,2,55,0,0
157314,-117.647058823529,4,2,4,85,0,0
157639,-117.647058823529,4,2,4,95,0,0
158287,324.324324324324,4,2,4,75,1,1
158287,-95.2380952380952,4,2,4,75,0,1
158773,-95.2380952380952,4,2,4,55,0,1
158935,-95.2380952380952,4,2,4,75,0,1
159097,-95.2380952380952,4,2,4,55,0,1
159259,-95.2380952380952,4,2,4,75,0,1
159421,-95.2380952380952,4,2,4,55,0,1
159584,-95.2380952380952,4,2,4,75,0,1
160070,-95.2380952380952,4,2,4,55,0,1
160232,-95.2380952380952,4,2,4,75,0,1
160394,-95.2380952380952,4,2,4,55,0,1
160557,-95.2380952380952,4,2,4,75,0,1
160719,-95.2380952380952,4,2,4,55,0,1
160881,-95.2380952380952,4,2,4,75,0,1
161368,-95.2380952380952,4,2,4,55,0,1
161530,-95.2380952380952,4,2,4,75,0,1
162016,-95.2380952380952,4,2,4,55,0,1
162178,-95.2380952380952,4,2,4,65,0,1
162421,-95.2380952380952,4,2,4,70,0,1
162664,-95.2380952380952,4,2,4,80,0,1
162827,-95.2380952380952,4,2,4,70,0,1
163151,-95.2380952380952,4,2,4,85,0,1
163313,-95.2380952380952,4,2,4,55,0,1
163477,324.324324324324,4,2,5,60,1,0
163477,-100,4,2,5,60,0,0
172558,-100,4,2,4,90,0,0
173693,-100,4,2,4,55,0,0
173855,-86.9565217391304,4,2,4,85,0,1
174341,-86.9565217391304,4,2,3,85,0,1
174504,-86.9565217391304,4,2,4,85,0,1
174990,-86.9565217391304,4,2,3,85,0,1
175152,-86.9565217391304,4,2,4,85,0,1
175639,-86.9565217391304,4,2,3,85,0,1
175720,-86.9565217391304,4,2,3,55,0,1
175801,-86.9565217391304,4,2,4,85,0,1
176287,-86.9565217391304,4,2,3,85,0,1
176449,-86.9565217391304,4,2,4,85,0,1
176936,-86.9565217391304,4,2,3,85,0,1
177098,-86.9565217391304,4,2,4,85,0,1
177585,-86.9565217391304,4,2,3,85,0,1
177747,-86.9565217391304,4,2,4,85,0,1
178233,-86.9565217391304,4,2,4,55,0,1
178395,-86.9565217391304,4,2,4,30,0,1
178476,-86.9565217391304,4,2,1,35,0,1
178557,-86.9565217391304,4,2,1,40,0,1
178638,-86.9565217391304,4,2,1,45,0,1
178720,-86.9565217391304,4,2,1,50,0,1
178801,-86.9565217391304,4,2,1,55,0,1
178882,-86.9565217391304,4,2,1,60,0,1
178963,-86.9565217391304,4,2,1,65,0,1
179044,-86.9565217391304,4,2,4,85,0,1
179531,-86.9565217391304,4,2,4,55,0,1
179693,-86.9565217391304,4,2,4,85,0,1
179855,-86.9565217391304,4,2,4,55,0,1
180017,-86.9565217391304,4,2,4,85,0,1
180179,-86.9565217391304,4,2,4,55,0,1
180341,-86.9565217391304,4,2,4,85,0,1
180828,-86.9565217391304,4,2,4,55,0,1
180990,-86.9565217391304,4,2,4,85,0,1
181476,-86.9565217391304,4,2,4,55,0,1
181639,-86.9565217391304,4,2,4,85,0,1
182125,-86.9565217391304,4,2,4,55,0,1
182287,-86.9565217391304,4,2,4,85,0,1
182774,-86.9565217391304,4,2,4,55,0,1
182936,-86.9565217391304,4,2,4,85,0,1
183422,-86.9565217391304,4,2,4,55,0,1
183585,-86.9565217391304,4,2,4,85,0,1
183747,-86.9565217391304,4,2,4,55,0,1
183909,-86.9565217391304,4,2,4,85,0,1
184071,-86.9565217391304,4,2,4,55,0,1
184233,-86.9565217391304,4,2,4,90,0,1
184395,-86.9565217391304,4,2,5,90,0,1
186828,-117.647058823529,4,2,1,80,0,0
187963,-117.647058823529,4,2,1,55,0,0
188125,-86.9565217391304,4,2,7,85,0,1
188612,-86.9565217391304,4,2,7,55,0,1
188774,-86.9565217391304,4,2,7,85,0,1
189260,-86.9565217391304,4,2,7,55,0,1
189422,-86.9565217391304,4,2,7,85,0,1
190558,-86.9565217391304,4,2,7,55,0,1
190720,-86.9565217391304,4,2,7,85,0,1
191855,-86.9565217391304,4,2,7,55,0,1
192017,-86.9565217391304,4,2,7,85,0,1
192504,-86.9565217391304,4,2,7,55,0,1
192666,-86.9565217391304,4,2,7,85,0,1
193638,-86.9565217391304,4,2,1,85,0,1
193801,-86.9565217391304,4,2,1,55,0,1
193963,-86.9565217391304,4,2,1,85,0,1
194449,-86.9565217391304,4,2,1,55,0,1
194612,-86.9565217391304,4,2,1,85,0,1
195098,-86.9565217391304,4,2,1,55,0,1
195260,-86.9565217391304,4,2,1,85,0,1
195747,-86.9565217391304,4,2,1,55,0,1
195909,-86.9565217391304,4,2,1,85,0,1
196395,-86.9565217391304,4,2,1,55,0,1
196558,-86.9565217391304,4,2,1,85,0,1
197044,-86.9565217391304,4,2,1,55,0,1
197206,-86.9565217391304,4,2,1,85,0,1
197693,-86.9565217391304,4,2,1,55,0,1
197855,-86.9565217391304,4,2,1,30,0,1
197936,-86.9565217391304,4,2,1,35,0,1
198017,-86.9565217391304,4,2,1,40,0,1
198098,-86.9565217391304,4,2,1,45,0,1
198179,-86.9565217391304,4,2,1,50,0,1
198260,-86.9565217391304,4,2,1,55,0,1
198341,-86.9565217391304,4,2,1,60,0,1
198422,-86.9565217391304,4,2,1,65,0,1
198504,-86.9565217391304,4,2,1,85,0,1
198666,-86.9565217391304,4,2,1,55,0,1
198828,-86.9565217391304,4,2,7,85,0,1
198990,-86.9565217391304,4,2,7,55,0,1
199152,-86.9565217391304,4,2,7,85,0,1
199639,-86.9565217391304,4,2,7,55,0,1
199801,-86.9565217391304,4,2,7,85,0,1
200287,-86.9565217391304,4,2,7,55,0,1
200449,-86.9565217391304,4,2,7,85,0,1
201585,-86.9565217391304,4,2,7,55,0,1
201747,-86.9565217391304,4,2,7,85,0,1
202233,-86.9565217391304,4,2,7,55,0,1
202395,-86.9565217391304,4,2,7,85,0,1
202557,-86.9565217391304,4,2,7,55,0,1
202720,-86.9565217391304,4,2,7,85,0,1
202882,-86.9565217391304,4,2,7,55,0,1
203044,-86.9565217391304,4,2,7,85,0,1
203530,-86.9565217391304,4,2,7,55,0,1
203693,-86.9565217391304,4,2,1,85,0,1
204179,-86.9565217391304,4,2,1,55,0,1
204341,-86.9565217391304,4,2,1,85,0,1
204828,-86.9565217391304,4,2,1,55,0,1
204990,-86.9565217391304,4,2,1,85,0,1
205314,-86.9565217391304,4,2,7,85,0,1
205476,-86.9565217391304,4,2,7,55,0,1
205639,-86.9565217391304,4,2,7,85,0,1
206125,-86.9565217391304,4,2,7,55,0,1
206287,-100,4,2,1,70,0,0
207747,-100,4,2,1,75,0,0
208720,-100,4,2,1,80,0,0
209693,-100,4,2,1,85,0,0
210666,-100,4,2,1,90,0,0

[Colours]
Combo1 : 255,45,45
Combo2 : 0,128,192
Combo3 : 0,215,215
Combo4 : 130,192,255
Combo5 : 255,0,0
Combo6 : 255,128,64
Combo7 : 255,66,66
Combo8 : 255,128,0

[HitObjects]
90,324,342,6,0,P|79:268|61:164,3,140.000000596046,2|2|2|2,0:3|0:3|0:3|0:3,2:0:0:0:
64,186,1639,6,0,B|160:184|99:241|225:237,1,154.000005355358,4|0,3:1|1:0,2:0:0:0:
260,175,2125,1,0,2:0:0:0:
329,222,2287,2,0,P|322:290|318:318,2,77.0000026776791,0|0|0,3:0|3:0|1:0,2:0:0:0:
386,22,2936,6,0,P|430:32|452:149,1,154.000005355358,0|0,3:0|1:0,2:0:0:0:
390,164,3423,1,0,2:0:0:0:
339,97,3585,2,0,P|275:112|240:117,1,77.0000026776791,0|0,3:0|3:0,2:0:0:0:
209,178,3909,2,0,P|145:163|110:158,1,77.0000026776791,0|0,1:0|2:0,2:0:0:0:
32,125,4233,6,0,P|51:169|58:298,1,154.000005355358,0|0,3:0|1:0,2:0:0:0:
35,354,4720,1,0,2:0:0:0:
114,383,4882,2,0,P|151:373|188:342,2,77.0000026776791,0|0|0,3:0|3:0|1:0,2:0:0:0:
252,243,5531,6,0,P|289:253|326:284,1,77.0000026776791,0|0,3:0|3:0,2:0:0:0:
357,352,5855,1,0,1:0:0:0:
357,352,6179,1,0,3:0:0:0:
403,279,6341,2,0,L|396:112,1,154.000005355358,0|0,1:0|1:0,2:0:0:0:
474,49,6828,6,0,L|481:216,1,154.000005355358,4|0,3:2|1:0,2:0:0:0:
493,286,7314,1,0,2:0:0:0:
413,255,7477,2,0,P|366:264|343:290,2,77.0000026776791,0|0|0,3:0|3:0|1:0,2:0:0:0:
253,379,8125,6,0,P|212:381|138:305,1,154.000005355358,0|0,3:0|1:0,2:0:0:0:
159,223,8612,1,0,2:0:0:0:
244,213,8774,2,0,P|240:251|220:284,1,77.0000026776791,0|0,3:0|3:0,2:0:0:0:
159,223,9098,2,0,P|163:185|183:152,1,77.0000026776791,0|0,1:0|2:0,2:0:0:0:
296,151,9423,6,0,P|360:150|417:74,1,154.000005355358,0|0,3:0|1:0,2:0:0:0:
390,6,9909,1,0,2:0:0:0:
330,68,10071,2,0,P|283:55|250:31,2,77.0000026776791,0|0|0,3:0|3:0|1:0,2:0:0:0:
499,202,10720,6,0,P|491:250|487:285,1,77.0000026776791,0|0,3:0|3:0,2:0:0:0:
479,380,11044,1,4,1:2:0:0:
479,380,11369,1,0,3:0:0:0:
413,323,11531,1,0,3:0:0:0:
348,380,11693,2,0,L|300:368,3,38.5000013388396,8|8|8|8,0:2|0:2|0:2|0:2,2:0:0:0:
289,349,12017,6,0,P|185:358|146:369,1,125.999996691227,4|0,3:1|3:0,2:0:0:0:
43,254,12666,2,0,L|60:321,1,62.9999983456135,0|0,1:0|2:0,2:0:0:0:
150,265,12990,2,0,B|145:240|145:240|146:223|146:223|142:200,1,62.9999983456135,4|0,3:2|2:0,2:0:0:0:
114,130,13314,6,0,P|148:165|226:158,1,125.999996691227,0|0,3:0|1:0,2:0:0:0:
373,170,13963,2,0,P|325:181|292:252,1,125.999996691227,0|0,3:0|3:0,2:0:0:0:
385,362,14612,2,0,P|389:315|389:273,1,62.9999983456135,0|0,1:0|2:0,2:0:0:0:
468,223,14936,2,0,B|465:190|465:190|470:181|470:181|467:150,1,62.9999983456135,4|0,3:2|2:0,2:0:0:0:
454,84,15260,2,0,P|450:116|364:163,1,125.999996691227,0|0,3:0|1:0,2:0:0:0:
224,125,15909,6,0,P|198:105|200:7,2,125.999996691227,0|0|0,3:0|3:0|1:0,2:0:0:0:
302,137,16720,1,0,3:0:0:0:
252,198,16882,2,0,P|258:239|265:271,1,62.9999983456135,0|0,1:0|2:0,2:0:0:0:
327,369,17206,6,0,B|305:338|305:338|177:360,1,154.000005355358,4|0,3:1|1:0,2:0:0:0:
134,296,17693,1,0,2:0:0:0:
74,358,17855,2,0,B|33:352|31:352|-30:354,2,77.0000026776791,0|0|0,3:0|3:0|1:0,2:0:0:0:
154,169,18504,6,0,P|145:134|134:84,2,77.0000026776791,0|0|0,3:0|3:0|1:0,2:0:0:0:
202,240,18990,1,0,2:0:0:0:
262,180,19152,2,0,P|302:188|349:215,1,77.0000026776791,0|0,3:0|3:0,2:0:0:0:
383,274,19477,2,0,P|423:266|470:239,1,77.0000026776791,0|0,1:0|2:0,2:0:0:0:
511,125,19801,6,0,P|474:156|367:104,1,154.000005355358,4|0,3:1|1:0,2:0:0:0:
365,47,20287,1,0,2:0:0:0:
286,81,20450,2,0,P|236:77|188:76,1,77.0000026776791,0|0,1:0|2:0,2:0:0:0:
183,156,20774,2,0,P|133:160|85:161,1,77.0000026776791,0|0,1:0|2:0,2:0:0:0:
20,90,21098,5,0,1:0:0:0:
44,305,21423,2,0,L|52:374,3,38.5000013388396,8|8|8|8,0:2|0:2|0:2|0:2,2:0:0:0:
54,382,21747,1,0,1:0:0:0:
145,337,21909,1,0,1:0:0:0:
145,337,22396,6,0,P|192:326|253:362,2,119.000002776384,4|2|0,3:2|3:2|3:0,2:0:0:0:
84,233,23369,1,2,3:2:0:0:
196,191,23693,2,0,P|206:146|162:90,1,119.000002776384,0|2,3:0|3:2,2:0:0:0:
88,111,24179,1,0,2:0:0:0:
88,111,24341,2,0,P|78:156|122:212,1,119.000002776384,0|2,3:0|3:2,2:0:0:0:
226,266,24990,6,0,P|281:260|348:255,1,119.000002776384,0|2,3:0|3:2,2:0:0:0:
461,289,25639,2,0,P|455:234|450:167,1,119.000002776384,0|2,3:0|3:2,2:0:0:0:
442,46,26287,2,0,P|413:63|384:71,2,59.500001388192,0|0|2,3:0|2:0|3:2,2:0:0:0:
327,15,26936,1,0,3:0:0:0:
227,75,27260,2,0,P|239:125|243:150,1,59.500001388192,2|0,3:2|2:0,2:0:0:0:
212,209,27585,6,0,P|202:169|116:132,2,119.000002776384,0|2|0,3:0|3:2|3:0,2:0:0:0:
200,340,28558,1,2,3:2:0:0:
301,277,28882,2,0,P|339:260|427:296,1,119.000002776384,0|2,3:0|3:2,2:0:0:0:
410,364,29369,1,0,2:0:0:0:
410,364,29531,2,0,P|372:381|284:345,1,119.000002776384,0|2,3:0|3:2,2:0:0:0:
217,277,30179,6,0,P|219:227|229:145,1,119.000002776384,0|2,3:0|3:2,2:0:0:0:
269,46,30828,2,0,P|219:44|137:34,1,119.000002776384,0|2,3:0|3:2,2:0:0:0:
36,65,31477,1,2,3:2:0:0:
36,65,31639,2,0,P|61:113|60:184,1,119.000002776384,2|2,0:2|0:2,2:0:0:0:
12,242,32125,1,2,3:2:0:0:
99,330,32450,2,0,P|134:321|163:316,1,59.500001388192,2|2,3:3|0:2,2:0:0:0:
201,237,32774,6,0,P|232:263|235:363,1,132.999997014761,6|2,3:1|1:2,2:0:0:0:
376,324,33423,2,0,P|431:313|447:308,1,66.4999985073803,2|0,3:2|3:0,2:0:0:0:
492,248,33747,2,0,P|496:194|502:153,1,66.4999985073803,2|0,1:2|2:0,2:0:0:0:
487,101,34071,6,0,P|476:144|383:186,1,132.999997014761,2|0,3:2|1:0,2:0:0:0:
335,145,34558,1,2,0:2:0:0:
335,145,34720,2,0,P|369:116|404:111,2,66.4999985073803,2|0|0,3:2|3:0|1:0,2:0:0:0:
217,191,35369,6,0,P|178:184|134:175,1,66.4999985073803,2|2,3:2|3:2,2:0:0:0:
80,144,35693,2,0,P|73:183|64:227,1,66.4999985073803,2|2,1:2|0:2,2:0:0:0:
4,261,36017,2,0,P|47:244|136:282,1,132.999997014761,2|2,3:2|1:2,2:0:0:0:
119,351,36504,1,2,0:2:0:0:
198,331,36666,6,0,P|208:285|223:254,1,66.4999985073803,2|2,3:2|3:2,2:0:0:0:
297,252,36990,2,0,P|286:297|272:329,1,66.4999985073803,2|0,1:2|2:0,2:0:0:0:
327,380,37314,2,0,P|365:378|417:296,1,132.999997014761,2|2,3:2|1:2,2:0:0:0:
372,119,37963,6,0,P|307:119|222:128,1,132.999997014761,2|2,3:2|1:2,2:0:0:0:
108,90,38612,2,0,P|104:44|103:13,1,66.4999985073803,2|0,3:2|3:0,2:0:0:0:
184,26,38936,2,0,P|230:22|261:21,1,66.4999985073803,2|0,1:2|2:0,2:0:0:0:
324,54,39260,6,0,P|390:59|456:60,1,132.999997014761,2|0,3:2|1:0,2:0:0:0:
497,132,39747,1,2,0:2:0:0:
497,132,39909,2,0,P|460:141|408:130,2,66.4999985073803,2|0|0,3:2|3:0|1:0,2:0:0:0:
485,264,40558,6,0,P|488:319|492:347,1,66.4999985073803,2|2,3:2|3:2,2:0:0:0:
425,375,40882,2,0,P|405:334|315:308,1,132.999997014761,2|2,1:2|3:2,2:0:0:0:
274,365,41369,1,2,3:2:0:0:
246,291,41531,2,0,P|197:285|166:281,1,66.4999985073803,2|2,1:2|0:2,2:0:0:0:
121,338,41855,5,2,3:2:0:0:
67,279,42017,2,0,P|73:230|75:188,2,66.4999985073803,2|0|0,3:2|1:0|2:0,2:0:0:0:
16,341,42504,1,0,1:0:0:0:
0,209,42828,1,0,2:0:0:0:
140,324,43152,6,0,P|189:307|257:292,1,119.000002776384,4|0,3:2|2:0,2:0:0:0:
282,173,43801,2,0,P|338:192|396:204,1,119.000002776384,0|0,1:0|2:0,2:0:0:0:
478,292,44450,2,0,P|499:223|509:163,1,119.000002776384,0|0,3:0|2:0,2:0:0:0:
447,71,45098,1,0,1:0:0:0:
334,115,45423,1,0,2:0:0:0:
194,37,45747,6,0,P|145:32|92:81,1,119.000002776384,0|0,3:0|3:0,2:0:0:0:
12,161,46396,2,0,P|53:201|163:158,1,178.500004164576,0|0,1:0|3:0,2:0:0:0:
215,113,47044,2,0,P|204:162|209:247,1,119.000002776384,0|0,2:0|2:0,2:0:0:0:
284,319,47693,1,0,1:0:0:0:
377,248,48017,1,0,3:0:0:0:
488,357,48341,6,0,P|499:300|511:226,1,119.000002776384,0|0,3:0|2:0,2:0:0:0:
392,214,48990,2,0,P|381:157|369:83,1,119.000002776384,0|0,1:0|2:0,2:0:0:0:
471,21,49639,2,0,P|435:0|333:3,1,119.000002776384,0|0,3:0|2:0,2:0:0:0:
280,87,50287,2,0,P|244:108|142:105,1,119.000002776384,0|0,1:0|2:0,2:0:0:0:
29,45,50936,6,0,P|57:81|70:165,1,119.000002776384,0|0,3:0|3:0,2:0:0:0:
27,260,51585,2,0,B|132:255|74:331|214:308,1,178.500004164576,0|0,1:0|3:0,2:0:0:0:
239,240,52233,5,0,1:0:0:0:
318,275,52396,2,0,P|335:320|330:374,2,99.7499977610705,2|2|0,1:2|1:2|1:0,2:0:0:0:
239,240,53044,1,0,3:0:0:0:
292,172,53206,1,0,1:0:0:0:
292,172,53369,1,0,1:0:0:0:
239,105,53531,6,0,P|188:117|149:130,1,66.4999985073803,0|2,3:0|1:2,2:0:0:0:
168,152,53774,2,0,P|117:140|78:127,1,66.4999985073803,0|2,3:0|1:2,2:0:0:0:
82,112,54017,1,0,3:0:0:0:
15,163,54179,6,0,P|25:214|39:272,1,105.000004452467,2|2,1:2|0:1,2:0:0:0:
37,265,54828,6,0,B|73:236|73:236|201:270,1,161.000003756284,6|0,3:1|1:0,2:0:0:0:
238,204,55314,1,2,0:2:0:0:
307,250,55477,2,0,P|300:304|295:345,1,80.5000018781421,2|0,3:2|3:0,2:0:0:0:
368,373,55801,2,0,P|409:359|462:349,1,80.5000018781421,0|2,1:0|0:2,2:0:0:0:
503,253,56125,6,0,P|458:269|382:186,1,161.000003756284,2|0,3:2|1:0,2:0:0:0:
435,136,56612,1,2,0:2:0:0:
435,136,56693,1,0,2:0:0:0:
435,136,56774,2,0,P|445:79|448:40,2,80.5000018781421,2|0|0,3:2|3:0|1:0,2:0:0:0:
349,122,57260,1,2,0:2:0:0:
252,62,57423,6,0,P|268:123|287:245,1,161.000003756284,2|0,3:2|1:0,2:0:0:0:
239,287,57909,1,2,0:2:0:0:
202,212,58071,2,0,P|161:204|126:218,1,80.5000018781421,2|0,3:2|3:0,2:0:0:0:
59,268,58396,2,0,P|51:214|44:168,1,80.5000018781421,0|2,1:0|0:2,2:0:0:0:
121,322,58720,6,0,B|188:314|188:314|212:329|212:329|285:317,1,161.000003756284,2|0,3:2|1:0,2:0:0:0:
323,250,59206,1,0,2:0:0:0:
323,250,59287,1,0,2:0:0:0:
323,250,59369,2,0,P|354:291|357:334,1,80.5000018781421,0|0,3:0|3:0,2:0:0:0:
426,368,59693,1,0,1:0:0:0:
512,159,60017,6,0,P|486:195|364:175,1,161.000003756284,6|0,3:2|1:0,2:0:0:0:
343,117,60504,1,2,0:2:0:0:
425,123,60666,2,0,P|441:66|447:20,1,80.5000018781421,2|0,3:2|3:0,2:0:0:0:
371,8,60990,2,0,P|320:12|264:18,1,80.5000018781421,0|2,1:0|0:2,2:0:0:0:
240,125,61314,6,0,P|223:77|96:56,1,161.000003756284,2|0,3:2|1:0,2:0:0:0:
57,83,61801,1,2,0:2:0:0:
57,83,61882,1,0,2:0:0:0:
57,83,61963,2,0,P|44:32|35:-8,2,80.5000018781421,2|0|0,3:2|3:0|1:0,2:0:0:0:
128,126,62450,1,2,0:2:0:0:
71,223,62612,6,0,B|112:205|112:205|246:249,1,161.000003756284,2|0,3:2|1:0,2:0:0:0:
283,186,63098,1,2,0:2:0:0:
353,231,63260,2,0,P|366:190|366:148,1,80.5000018781421,2|0,3:2|3:0,2:0:0:0:
439,65,63585,2,0,P|440:105|452:143,1,80.5000018781421,4|2,1:2|0:2,2:0:0:0:
503,246,63909,5,2,3:2:0:0:
424,284,64071,1,0,3:0:0:0:
418,296,64558,5,0,3:0:0:0:
505,232,64720,1,0,3:0:0:0:
408,190,64882,2,0,L|340:180,3,40.2500009390711,8|8|10|8,0:2|0:2|0:2|0:2,2:0:0:0:
345,152,65206,6,0,B|265:155|302:217|191:213,1,161.000003756284,6|0,3:1|1:0,2:0:0:0:
219,130,65693,1,2,0:2:0:0:
176,59,65855,2,0,P|110:65|85:78,1,80.5000018781421,2|0,3:2|3:0,2:0:0:0:
15,81,66179,2,0,P|33:139|41:170,1,80.5000018781421,0|2,1:0|0:2,2:0:0:0:
11,275,66504,6,0,P|58:243|154:292,1,161.000003756284,2|0,3:2|1:0,2:0:0:0:
221,338,66990,1,2,0:2:0:0:
221,338,67071,1,0,2:0:0:0:
221,338,67152,2,0,P|307:324|318:322,2,80.5000018781421,2|0|0,3:2|3:0|1:0,2:0:0:0:
230,254,67639,1,2,0:2:0:0:
352,256,67801,6,0,P|414:267|526:295,1,161.000003756284,2|0,3:2|1:0,2:0:0:0:
492,207,68287,1,2,0:2:0:0:
508,126,68450,2,0,P|508:87|502:37,1,80.5000018781421,2|0,3:2|3:0,2:0:0:0:
433,2,68774,2,0,P|392:19|343:23,1,80.5000018781421,0|2,1:0|0:2,2:0:0:0:
321,133,69098,5,2,3:2:0:0:
279,60,69260,1,0,3:0:0:0:
245,177,69423,2,0,B|250:207|250:207|248:210|248:210|258:267,1,80.5000018781421,4|0,1:2|2:0,2:0:0:0:
282,335,69747,2,0,P|245:344|194:359,1,80.5000018781421,10|8,3:2|0:2,2:0:0:0:
121,348,70071,2,0,P|126:315|131:290,3,40.2500009390711,8|8|8|8,0:2|0:2|0:2|0:2,2:0:0:0:
153,277,70396,6,0,P|144:225|133:177,1,80.5000018781421,6|0,3:2|2:0,2:0:0:0:
96,124,70720,2,0,P|148:115|196:104,1,80.5000018781421,0|0,1:0|2:0,2:0:0:0:
249,67,71044,2,0,P|258:119|269:167,1,80.5000018781421,2|0,3:2|2:0,2:0:0:0:
306,220,71369,2,0,P|254:229|206:240,1,80.5000018781421,0|0,1:0|2:0,2:0:0:0:
312,306,71693,6,0,P|349:297|386:248,1,80.5000018781421,2|0,3:2|2:0,2:0:0:0:
464,261,72017,2,0,P|455:224|406:187,1,80.5000018781421,0|0,1:0|2:0,2:0:0:0:
419,109,72341,2,0,P|382:118|345:167,1,80.5000018781421,2|0,3:2|2:0,2:0:0:0:
267,154,72666,2,0,P|276:191|325:228,1,80.5000018781421,0|0,1:0|2:0,2:0:0:0:
237,334,72990,6,0,P|209:310|152:297,1,80.5000018781421,6|0,3:2|2:0,2:0:0:0:
87,271,73314,2,0,P|111:243|124:186,1,80.5000018781421,0|0,1:0|2:0,2:0:0:0:
150,121,73639,2,0,P|178:145|235:158,1,80.5000018781421,2|0,3:2|2:0,2:0:0:0:
300,185,73963,2,0,P|276:212|263:270,1,80.5000018781421,0|0,1:0|2:0,2:0:0:0:
322,349,74287,6,0,L|425:331,1,80.5000018781421,2|0,3:2|2:0,2:0:0:0:
437,259,74612,2,0,L|334:241,1,80.5000018781421,0|0,1:0|2:0,2:0:0:0:
300,185,74936,2,0,P|351:199|423:124,1,161.000003756284,2|0,3:2|1:0,2:0:0:0:
220,31,75585,6,0,P|228:102|231:134,1,80.5000018781421,6|8,3:2|0:2,2:0:0:0:
145,99,75909,2,0,P|149:139|153:179,1,80.5000018781421,2|8,1:2|0:2,2:0:0:0:
234,150,76233,2,0,P|242:221|245:253,1,80.5000018781421,2|8,1:2|0:2,2:0:0:0:
159,218,76557,2,0,P|163:258|167:298,1,80.5000018781421,2|8,1:2|0:2,2:0:0:0:
276,342,76882,6,0,P|310:327|363:315,1,80.5000018781421,2|8,1:2|0:2,2:0:0:0:
358,232,77206,2,0,P|392:247|445:259,1,80.5000018781421,2|8,1:2|0:2,2:0:0:0:
504,306,77531,2,0,P|516:240|516:201,1,80.5000018781421,2|8,1:2|0:2,2:0:0:0:
452,171,77855,2,0,P|440:105|440:66,1,80.5000018781421,2|8,1:2|0:2,2:0:0:0:
334,10,78179,6,0,P|301:36|254:43,1,80.5000018781421,6|8,1:2|0:2,2:0:0:0:
235,123,78504,2,0,P|202:97|155:90,1,80.5000018781421,2|8,1:2|0:2,2:0:0:0:
83,92,78828,2,0,L|101:190,1,80.5000018781421,2|8,1:2|0:2,2:0:0:0:
178,200,79152,2,0,L|160:298,1,80.5000018781421,2|0,1:2|2:0,2:0:0:0:
249,364,79477,5,2,1:2:0:0:
325,318,79639,1,0,1:0:0:0:
324,306,80125,5,0,1:0:0:0:
253,375,80287,1,0,1:0:0:0:
253,375,80774,6,0,P|242:333|223:259,1,112.000000476837,6|0,3:2|2:0,2:0:0:0:
124,209,81423,2,0,P|135:167|154:93,1,112.000000476837,2|2,1:2|0:2,2:0:0:0:
249,40,82071,6,0,P|293:34|311:31,1,56.0000002384184,2|0,3:2|2:0,2:0:0:0:
326,109,82396,2,0,P|370:115|388:118,1,56.0000002384184,0|0,3:0|2:0,2:0:0:0:
443,69,82720,2,0,P|430:109|443:193,1,112.000000476837,2|0,1:2|2:0,2:0:0:0:
468,334,83369,6,0,P|514:326|536:321,2,56.0000002384184,2|0|0,3:2|3:0|2:0,2:0:0:0:
418,275,83855,1,0,3:0:0:0:
418,275,84017,2,0,P|345:264|305:256,1,112.000000476837,2|0,1:2|2:0,2:0:0:0:
196,290,84666,2,0,P|207:345|212:369,2,56.0000002384184,2|0|2,3:2|2:0|3:2,2:0:0:0:
222,175,85314,1,2,1:2:0:0:
118,217,85639,2,0,P|74:221|42:229,1,56.0000002384184,0|0,2:0|2:0,2:0:0:0:
13,162,85963,6,0,P|33:132|26:36,1,112.000000476837,2|0,3:2|2:0,2:0:0:0:
135,2,86612,2,0,P|132:57|158:106,1,112.000000476837,2|0,1:2|2:0,2:0:0:0:
260,157,87260,2,0,P|315:147|333:146,1,56.0000002384184,2|0,3:2|2:0,2:0:0:0:
342,74,87585,2,0,P|397:84|415:85,1,56.0000002384184,0|0,3:0|2:0,2:0:0:0:
465,44,87909,2,0,P|449:74|452:151,1,112.000000476837,2|0,1:2|2:0,2:0:0:0:
374,282,88558,6,0,P|379:328|384:351,1,56.0000002384184,2|0,3:2|3:0,2:0:0:0:
313,375,88882,2,0,P|282:340|211:325,1,112.000000476837,2|2,0:2|1:2,2:0:0:0:
148,348,89369,1,0,2:0:0:0:
148,348,89531,2,0,P|140:295|136:276,1,56.0000002384184,2|2,3:2|3:2,2:0:0:0:
105,222,89855,5,2,1:2:0:0:
64,290,90017,2,0,P|37:268|35:184,1,112.000000476837,2|2,0:2|3:2,2:0:0:0:
69,127,90504,2,0,P|96:149|98:233,1,112.000000476837,2|2,1:2|3:2,2:0:0:0:
183,225,90990,1,2,3:2:0:0:
246,143,91152,6,0,P|306:132|390:119,1,132.999997014761,6|2,3:1|1:2,2:0:0:0:
499,177,91801,1,2,3:2:0:0:
420,192,91963,1,0,3:0:0:0:
389,266,92125,2,0,P|402:315|408:339,1,66.4999985073803,2|0,1:2|2:0,2:0:0:0:
296,381,92450,6,0,P|297:323|312:247,1,132.999997014761,2|0,3:2|1:0,2:0:0:0:
294,172,92936,1,2,0:2:0:0:
294,172,93098,2,0,P|263:184|237:224,1,66.4999985073803,2|0,3:2|3:0,2:0:0:0:
311,249,93423,1,0,1:0:0:0:
471,150,93747,6,0,P|474:95|478:69,1,66.4999985073803,2|2,3:2|3:2,2:0:0:0:
397,83,94071,2,0,P|394:28|390:2,1,66.4999985073803,2|2,1:2|0:2,2:0:0:0:
315,40,94396,2,0,P|271:26|247:20,1,66.4999985073803,2|2,3:2|3:2,2:0:0:0:
202,83,94720,1,2,1:2:0:0:
140,33,94882,1,2,0:2:0:0:
85,121,95044,6,0,P|93:163|111:197,1,66.4999985073803,2|2,3:2|3:2,2:0:0:0:
175,219,95369,2,0,P|167:261|149:295,1,66.4999985073803,2|0,1:2|2:0,2:0:0:0:
97,336,95693,2,0,P|140:321|242:350,1,132.999997014761,2|2,3:2|1:2,2:0:0:0:
414,377,96341,6,0,P|420:316|441:224,1,132.999997014761,2|2,3:2|1:2,2:0:0:0:
377,126,96990,2,0,P|330:141|311:143,1,66.4999985073803,2|0,3:2|3:0,2:0:0:0:
321,62,97314,2,0,P|368:47|387:45,1,66.4999985073803,2|0,1:2|2:0,2:0:0:0:
452,128,97639,6,0,P|424:162|448:260,1,132.999997014761,2|0,3:2|1:0,2:0:0:0:
505,289,98125,1,2,0:2:0:0:
505,289,98287,2,0,P|515:256|511:222,1,66.4999985073803,2|0,3:2|3:0,2:0:0:0:
434,245,98612,1,0,1:0:0:0:
289,347,98936,6,0,P|242:336|219:330,1,66.4999985073803,2|2,3:2|3:2,2:0:0:0:
208,253,99260,2,0,P|161:264|138:270,1,66.4999985073803,2|2,1:2|0:2,2:0:0:0:
72,306,99585,2,0,P|60:253|55:233,1,66.4999985073803,2|2,3:2|3:2,2:0:0:0:
108,180,99909,1,2,1:2:0:0:
62,115,100071,1,2,0:2:0:0:
186,78,100233,5,2,3:2:0:0:
185,157,100396,1,2,3:2:0:0:
109,52,100558,2,0,P|160:51|207:55,1,66.4999985073803,2|0,1:3|2:0,2:0:0:0:
259,121,100882,1,8,1:2:0:0:
259,121,101206,2,0,P|306:115|317:115,3,33.2499992536902,8|8|8|8,0:2|0:2|0:2|0:2,2:0:0:0:
311,88,101531,6,0,P|348:88|396:146,2,105.000004452467,4|0|0,3:2|0:0|1:0,0:0:0:0:
373,255,102504,1,0,0:0:0:0:
357,342,102666,1,0,3:0:0:0:
288,284,102828,2,0,L|174:294,1,105.000004452467,0|0,3:0|0:0,0:0:0:0:
35,192,103477,2,0,P|65:161|130:170,1,105.000004452467,0|0,1:0|0:0,0:0:0:0:
184,99,103963,1,0,3:0:0:0:
184,99,104125,6,0,L|293:111,2,105.000004452467,0|0|0,3:0|3:0|1:0,0:0:0:0:
347,25,105098,1,0,0:0:0:0:
424,186,105423,2,0,P|447:251|428:296,1,105.000004452467
375,347,105909,1,0,3:0:0:0:
313,282,106071,2,0,L|254:291,1,52.5000022262334,0|0,1:0|3:0,0:0:0:0:
200,355,106396,2,0,L|148:347,1,52.5000022262334,0|0,3:0|3:0,0:0:0:0:
61,367,106720,6,0,B|39:323|39:323|55:253,2,105.000004452467,0|0|0,3:0|0:0|1:0,0:0:0:0:
129,201,107693,1,0,0:0:0:0:
81,125,107855,1,0,3:0:0:0:
169,117,108017,2,0,L|224:128,1,52.5000022262334,0|0,3:0|0:0,0:0:0:0:
236,39,108341,2,0,L|184:28,1,52.5000022262334
169,117,108666,2,0,L|276:137,1,105.000004452467,0|0,1:0|0:0,0:0:0:0:
439,75,109314,6,0,P|403:61|351:106,1,105.000004452467,0|0,3:0|3:0,0:0:0:0:
348,186,109801,1,0,3:0:0:0:
436,179,109963,2,0,L|424:307,1,105.000004452467,0|0,1:0|0:0,0:0:0:0:
255,336,110612,2,0,B|202:332|202:332|196:334|196:334|137:331,1,105.000004452467,4|0,3:2|0:0,0:0:0:0:
84,271,111098,1,0,3:0:0:0:
170,248,111260,2,0,B|166:195|166:195|168:189|168:189|165:130,1,105.000004452467,0|0,1:0|0:0,0:0:0:0:
88,97,111747,1,0,3:0:0:0:
165,52,111909,6,0,L|277:68,2,105.000004452467,4|0|0,3:2|3:0|1:0,0:0:0:0:
275,192,112882,1,0,0:0:0:0:
363,178,113044,1,0,0:0:0:0:
450,163,113206,2,0,L|439:278,1,105.000004452467,0|0,1:0|1:0,0:0:0:0:
280,347,113855,2,0,P|243:345|229:339,1,52.5000022262334,0|0,1:0|0:0,0:0:0:0:
141,355,114179,2,0,P|122:333|113:303,1,52.5000022262334,0|0,0:0|3:0,0:0:0:0:
35,268,114504,6,0,P|96:257|123:221,2,105.000004452467,0|0|0,3:0|3:0|1:0,0:0:0:0:
99,100,115477,1,0,0:0:0:0:
171,48,115639,1,0,3:0:0:0:
184,136,115801,2,0,L|291:129,1,105.000004452467,0|0,1:0|3:0,0:0:0:0:
344,59,116287,1,0,3:0:0:0:
379,141,116450,2,0,P|368:175|371:203,1,52.5000022262334,0|0,1:0|3:0,0:0:0:0:
309,257,116774,2,0,P|332:274|356:280,1,52.5000022262334
388,362,117098,6,0,P|430:333|442:281,1,105.000004452467,4|0,3:2|3:0,0:0:0:0:
498,212,117585,1,0,3:0:0:0:
474,125,117747,2,0,L|483:10,1,105.000004452467,0|0,1:0|0:0,0:0:0:0:
303,31,118396,2,0,L|311:135,1,105.000004452467,0|0,3:0|0:0,0:0:0:0:
238,187,118882,1,0,3:0:0:0:
164,136,119044,2,0,P|114:126|57:162,1,105.000004452467,0|0,1:0|0:0,0:0:0:0:
14,221,119531,1,0,3:0:0:0:
101,236,119693,6,0,P|131:276|129:350,1,105.000004452467,0|0,1:0|3:0,0:0:0:0:
220,358,120179,1,0,3:0:0:0:
267,282,120341,2,0,L|389:291,1,105.000004452467,0|0,1:0|0:0,0:0:0:0:
441,233,120828,2,0,L|436:194,1,26.2500011131167,0|0,3:0|0:0,0:0:0:0:
453,176,120990,6,0,B|329:158|411:92|279:70,1,210.000008904934,2|0,0:3|0:0,0:0:0:0:
282,70,122125,1,0,0:0:0:0:
220,133,122287,6,0,L|71:120,1,146.999996139764,6|0,3:1|1:0,0:0:0:0:
13,185,122774,1,2,0:2:0:0:
95,215,122936,2,0,P|95:257|114:288,1,73.4999980698822,2|0,3:2|3:0,0:0:0:0:
191,318,123260,2,0,P|233:318|264:299,1,73.4999980698822,0|2,1:0|0:2,0:0:0:0:
335,349,123585,6,0,P|301:282|323:213,1,146.999996139764,2|0,3:2|1:0,0:0:0:0:
398,170,124071,1,2,0:2:0:0:
398,170,124152,1,0,0:0:0:0:
398,170,124233,2,0,L|481:176,1,73.4999980698822,2|0,3:2|3:0,0:0:0:0:
480,87,124558,2,0,L|406:81,1,73.4999980698822,0|2,1:0|0:2,0:0:0:0:
374,51,124801,1,0,0:0:0:0:
374,51,124882,6,0,B|281:54|333:106|238:112,1,146.999996139764,2|0,3:2|1:0,0:0:0:0:
163,81,125369,1,2,0:2:0:0:
163,81,125450,1,0,0:0:0:0:
163,81,125531,2,0,P|106:92|112:168,1,146.999996139764,2|0,3:2|1:0,0:0:0:0:
75,248,126017,1,2,0:2:0:0:
163,245,126179,6,0,B|237:256|237:256|244:252|244:252|311:261,1,146.999996139764,2|0,3:2|1:0,0:0:0:0:
392,235,126666,1,0,0:0:0:0:
327,174,126828,2,0,B|316:141|316:141|328:105,1,73.4999980698822,0|0,3:0|3:0,0:0:0:0:
412,131,127152,2,0,B|424:95|424:95|413:62,1,73.4999980698822,0|2,1:0|0:2,0:0:0:0:
337,14,127477,6,0,L|187:35,1,146.999996139764,6|0,3:2|1:0,0:0:0:0:
104,22,127963,1,2,0:2:0:0:
134,104,128125,2,0,B|96:140|96:140|111:235,1,146.999996139764,2|0,3:2|1:0,0:0:0:0:
73,313,128612,1,2,0:2:0:0:
161,308,128774,6,0,B|247:328|214:267|304:288,1,146.999996139764,2|0,3:2|1:0,0:0:0:0:
373,237,129260,1,2,0:2:0:0:
373,237,129341,1,0,0:0:0:0:
373,237,129423,2,0,P|415:234|436:206,1,73.4999980698822,2|0,3:2|3:0,0:0:0:0:
501,155,129747,2,0,P|484:118|453:102,1,73.4999980698822,0|2,1:0|0:2,0:0:0:0:
415,87,129990,1,0,0:0:0:0:
415,87,130071,6,0,B|358:91|358:91|330:71|330:71|264:75,1,146.999996139764,2|0,3:2|1:0,0:0:0:0:
283,162,130558,1,2,0:2:0:0:
201,128,130720,2,0,B|145:124|145:124|117:144|117:144|60:140,1,146.999996139764,2|4,3:2|1:2,0:0:0:0:
0,216,131206,1,2,0:2:0:0:
87,229,131369,5,2,3:2:0:0:
33,299,131531,1,0,3:0:0:0:
286,373,132017,5,0,3:0:0:0:
232,303,132179,1,0,3:0:0:0:
319,289,132341,2,0,L|326:249,3,36.7499990349411,8|8|10|8,0:2|0:2|0:2|0:2,0:0:0:0:
296,218,132666,6,0,B|384:224|342:167|436:169,1,146.999996139764,6|0,3:1|1:0,0:0:0:0:
481,98,133152,1,2,0:2:0:0:
417,37,133314,2,0,P|361:23|336:96,1,146.999996139764,2|0,3:2|1:0,0:0:0:0:
249,68,133801,1,2,0:2:0:0:
177,120,133963,6,0,B|107:105|107:105|27:145,1,146.999996139764,2|0,3:2|1:0,0:0:0:0:
92,222,134450,1,2,0:2:0:0:
92,222,134531,1,0,0:0:0:0:
92,222,134612,2,0,L|81:302,1,73.4999980698822,2|0,3:2|3:0,0:0:0:0:
168,311,134936,2,0,L|178:238,1,73.4999980698822,0|2,1:0|0:2,0:0:0:0:
219,223,135179,1,0,0:0:0:0:
219,223,135260,6,0,L|368:236,1,146.999996139764,2|0,3:2|1:0,0:0:0:0:
433,178,135747,1,2,0:2:0:0:
433,178,135828,1,0,0:0:0:0:
433,178,135909,2,0,P|420:135|316:117,1,146.999996139764,2|0,3:2|1:0,0:0:0:0:
262,52,136396,1,2,0:2:0:0:
203,118,136558,6,0,P|138:154|57:130,1,146.999996139764,2|4,3:2|1:2,0:0:0:0:
19,211,137044,1,0,0:0:0:0:
94,256,137206,2,0,L|86:299,3,36.7499990349411,10|8|8|8,3:2|0:2|0:2|0:2,0:0:0:0:
117,325,137531,2,0,L|160:333,3,36.7499990349411,8|8|8|8,0:2|0:2|0:2|0:2,0:0:0:0:
195,320,137855,6,0,L|216:172,1,146.999996139764,6|0,3:2|1:0,0:0:0:0:
283,117,138341,1,0,0:0:0:0:
363,79,138504,2,0,P|369:133|307:203,1,146.999996139764,2|0,3:2|1:0,0:0:0:0:
287,285,138990,1,0,0:0:0:0:
360,334,139152,2,0,L|510:349,2,146.999996139764,2|0|2,3:2|1:0|3:2,0:0:0:0:
287,285,139963,1,0,0:0:0:0:
220,343,140125,2,0,P|182:352|146:337,1,73.4999980698822,0|0,1:0|0:0,0:0:0:0:
62,351,140450,6,0,L|76:196,1,146.999996139764,6|0,3:2|1:0,0:0:0:0:
27,130,140936,1,0,0:0:0:0:
99,80,141098,2,0,P|136:84|166:117,1,73.4999980698822,2|0,3:2|0:0,0:0:0:0:
245,136,141423,2,0,P|282:132|312:99,1,73.4999980698822,2|0,1:2|0:0,0:0:0:0:
386,67,141747,6,0,L|466:77,1,73.4999980698822,2|0,3:2|0:0,0:0:0:0:
456,164,142071,2,0,L|383:154,1,73.4999980698822,2|0,1:2|0:0,0:0:0:0:
318,215,142396,2,0,B|281:279|281:279|313:351,1,146.999996139764,2|0,3:2|1:0,0:0:0:0:
162,250,143044,6,0,L|73:259,1,73.4999980698822,6|8,3:2|0:2,0:0:0:0:
16,205,143369,1,2,1:2:0:0:
5,117,143531,1,8,0:2:0:0:
74,63,143693,2,0,P|116:60|146:77,1,73.4999980698822,2|8,1:2|0:2,0:0:0:0:
215,124,144017,2,0,P|257:127|287:110,1,73.4999980698822,2|8,1:2|0:2,0:0:0:0:
356,62,144341,6,0,L|439:67,1,73.4999980698822,2|8,1:2|0:2,0:0:0:0:
491,129,144666,1,2,1:2:0:0:
495,216,144828,1,8,0:2:0:0:
419,262,144990,2,0,P|374:265|346:251,1,73.4999980698822,2|8,1:2|0:2,0:0:0:0:
265,226,145314,2,0,P|220:223|192:237,1,73.4999980698822,2|8,1:2|0:2,0:0:0:0:
110,261,145639,6,0,L|103:180,1,73.4999980698822,6|8,1:2|0:2,0:0:0:0:
15,185,145963,2,0,L|22:104,1,73.4999980698822,2|8,1:2|0:2,0:0:0:0:
95,64,146287,2,0,P|131:62|167:86,1,73.4999980698822,2|8,1:2|0:2,0:0:0:0:
246,50,146612,2,0,P|270:84|270:120,1,73.4999980698822,8|0,1:2|0:0,0:0:0:0:
337,172,146936,5,2,1:2:0:0:
255,205,147098,1,0,1:0:0:0:
255,205,147585,2,0,L|263:256,3,36.7499990349411,8|8|8|8,0:2|0:2|0:2|0:2,0:0:0:0:
289,274,147909,2,0,L|215:283,1,73.4999980698822,0|0,3:0|3:0,0:0:0:0:
158,350,148233,6,0,P|110:342|75:283,1,119.000002776384,2|2,3:2|3:2,0:0:0:0:
26,113,148882,1,2,3:2:0:0:
82,182,149044,2,0,L|147:171,2,59.500001388192,2|0|10,0:2|3:0|0:2,0:0:0:0:
26,113,149531,2,0,P|32:80|50:56,1,59.500001388192,2|2,3:2|0:2,0:0:0:0:
131,32,149855,2,0,L|173:36,3,29.750000694096,10|8|8|8,3:2|0:2|0:2|0:2,0:0:0:0:
191,66,150179,2,0,L|322:56,1,119.000002776384,10|8,3:2|3:2,0:0:0:0:
383,108,150666,1,8,0:2:0:0:
303,147,150828,6,0,B|278:184|278:184|290:257,1,119.000002776384,2|2,3:2|3:2,0:0:0:0:
139,354,151477,1,2,3:2:0:0:
83,284,151639,2,0,P|48:262|30:259,2,59.500001388192,2|0|2,0:2|3:0|0:2,0:0:0:0:
139,354,152125,2,0,L|204:348,1,59.500001388192,10|10,3:2|0:2,0:0:0:0:
286,367,152450,2,0,L|336:363,3,29.750000694096,2|0|0|0,3:2|3:0|3:0|3:0,0:0:0:0:
347,333,152774,2,0,P|412:352|460:326,1,119.000002776384,2|0,3:2|3:0,0:0:0:0:
503,255,153260,1,8,0:2:0:0:
437,193,153423,6,0,B|443:152|443:152|432:122|432:122|439:77,1,119.000002776384,2|10,3:2|3:2,0:0:0:0:
268,25,154071,1,2,3:2:0:0:
200,83,154233,2,0,P|164:97|135:96,1,59.500001388192,2|0,0:2|3:0,0:0:0:0:
59,66,154558,1,10,0:2:0:0:
73,153,154720,2,0,L|62:213,1,59.500001388192,10|2,3:2|0:2,0:0:0:0:
146,240,155044,2,0,L|156:296,3,29.750000694096,10|8|8|8,3:2|0:2|0:2|0:2,0:0:0:0:
132,310,155369,1,2,3:2:0:0:
204,361,155531,2,0,L|269:354,1,59.500001388192,8|2,0:2|3:2,0:0:0:0:
320,286,155855,1,8,0:2:0:0:
394,335,156017,6,0,P|449:336|500:295,1,119.000002776384,2|2,3:2|3:2,0:0:0:0:
451,125,156666,2,0,P|396:124|345:165,1,119.000002776384,10|4,3:2|3:2,0:0:0:0:
272,112,157152,1,0,0:0:0:0:
201,166,157314,1,6,1:2:0:0:
76,294,157639,2,0,L|67:370,2,59.500001388192,2|2|2,1:2|1:2|1:2,0:0:0:0:
14,128,158287,6,0,B|102:132|62:73|153:81,1,146.999996139764,6|6,3:1|1:2,0:0:0:0:
220,32,158773,1,0,0:0:0:0:
283,93,158935,2,0,P|326:101|342:131,1,73.4999980698822,2|0,3:2|0:0,0:0:0:0:
428,135,159259,2,0,P|435:176|419:207,1,73.4999980698822,2|0,1:2|0:0,0:0:0:0:
448,288,159584,6,0,P|406:248|313:268,1,146.999996139764,6|2,3:2|1:2,0:0:0:0:
263,323,160070,1,0,0:0:0:0:
184,283,160232,2,0,P|148:289|112:272,1,73.4999980698822,2|0,3:2|0:0,0:0:0:0:
33,309,160557,2,0,P|12:277|14:235,1,73.4999980698822,2|0,1:2|0:0,0:0:0:0:
5,154,160881,6,0,P|58:157|124:87,1,146.999996139764,6|0,3:2|1:0,0:0:0:0:
188,37,161368,1,0,0:0:0:0:
252,96,161530,2,0,P|297:150|369:154,1,146.999996139764,0|0,3:0|1:0,0:0:0:0:
441,104,162016,1,0,0:0:0:0:
482,181,162178,6,0,L|471:299,2,110.249997104823,0|0|0,1:0|1:0|1:0,0:0:0:0:
441,104,162827,2,0,L|446:67,3,36.7499990349411,0|0|0|0,3:0|3:0|3:0|3:0,0:0:0:0:
417,33,163151,2,0,P|375:22|337:32,1,73.4999980698822,0|0,1:0|0:0,0:0:0:0:
279,79,163477,5,4,0:2:0:0:
105,48,172558,5,0,1:0:0:0:
134,133,172720,1,0,1:0:0:0:
381,248,173206,5,0,1:0:0:0:
352,333,173368,1,0,1:0:0:0:
172,299,173693,1,0,0:0:0:0:
103,355,173855,6,0,B|72:316|88:272|88:272|6:279,1,161.000003756284,6|0,3:1|1:0,0:0:0:0:
20,189,174341,1,2,0:2:0:0:
93,138,174504,2,0,L|180:155,1,80.5000018781421,2|0,3:2|3:0,0:0:0:0:
233,89,174828,2,0,L|312:73,1,80.5000018781421,0|2,1:0|0:2,0:0:0:0:
370,7,175152,6,0,B|415:50|415:50|386:148,1,161.000003756284,2|0,3:2|1:0,0:0:0:0:
316,198,175639,1,2,0:2:0:0:
316,198,175720,1,0,0:0:0:0:
316,198,175801,2,0,P|381:188|440:268,1,161.000003756284,2|0,3:2|1:0,0:0:0:0:
408,337,176287,1,2,0:2:0:0:
329,297,176449,6,0,B|251:334|256:259|167:298,1,161.000003756284,6|0,3:2|1:0,0:0:0:0:
101,345,176936,1,2,0:2:0:0:
91,257,177098,2,0,P|56:210|138:181,1,161.000003756284,2|0,3:2|1:0,0:0:0:0:
196,116,177585,1,2,0:2:0:0:
261,175,177747,6,0,B|331:169|331:169|349:148|349:148|421:140,1,161.000003756284,0|4,3:0|1:2,0:0:0:0:
482,87,178233,1,0,0:0:0:0:
504,172,178395,2,0,L|498:217,3,40.2500009390711,10|8|8|8,3:2|0:2|0:2|0:2,0:0:0:0:
466,243,178720,2,0,L|472:288,3,40.2500009390711,8|8|8|8,0:2|0:2|0:2|0:2,0:0:0:0:
495,319,179044,6,0,P|442:309|357:371,1,161.000003756284,6|0,3:2|1:0,0:0:0:0:
289,311,179531,1,0,0:0:0:0:
209,350,179693,2,0,P|156:351|132:332,1,80.5000018781421,2|0,3:2|0:0,0:0:0:0:
47,346,180017,2,0,P|40:304|56:262,1,80.5000018781421,0|0,1:0|0:0,0:0:0:0:
18,186,180341,6,0,B|66:173|106:200|106:200|166:142,1,161.000003756284,2|0,3:2|1:0,0:0:0:0:
220,90,180828,1,0,0:0:0:0:
257,170,180990,2,0,B|297:148|342:159|342:159|354:198|401:212,1,161.000003756284,2|0,3:2|1:0,0:0:0:0:
424,126,181476,1,0,0:0:0:0:
482,193,181639,6,0,P|417:237|404:324,1,161.000003756284,6|0,3:2|1:0,0:0:0:0:
327,361,182125,1,0,0:0:0:0:
257,305,182287,2,0,B|180:331|180:331|104:285,1,161.000003756284,2|0,3:2|1:0,0:0:0:0:
26,262,182774,1,0,0:0:0:0:
92,203,182936,6,0,B|83:129|83:129|88:115|88:115|78:43,1,161.000003756284,2|0,3:2|1:0,0:0:0:0:
166,45,183422,1,0,0:0:0:0:
214,119,183585,2,0,L|206:204,1,80.5000018781421,2|0,3:2|0:0,0:0:0:0:
294,211,183909,2,0,L|301:130,1,80.5000018781421,0|0,1:0|0:0,0:0:0:0:
374,81,184233,6,0,P|422:79|454:99,1,80.5000018781421,6|8,3:2|0:2,0:0:0:0:
497,169,184558,1,2,1:2:0:0:
456,247,184720,1,8,0:2:0:0:
373,277,184882,6,0,L|380:357,1,80.5000018781421,2|8,1:2|0:2,0:0:0:0:
294,336,185206,1,2,1:2:0:0:
208,312,185368,1,8,0:2:0:0:
127,349,185531,6,0,B|89:362|89:362|48:349,1,80.5000018781421,2|8,1:2|0:2,0:0:0:0:
89,270,185855,1,2,1:2:0:0:
50,190,186017,1,8,0:2:0:0:
102,118,186179,6,0,B|145:102|141:130|183:117,1,80.5000018781421,2|8,1:2|0:2,0:0:0:0:
256,71,186504,1,2,1:2:0:0:
342,89,186666,1,8,0:2:0:0:
379,168,186828,6,0,P|357:222|349:284,2,119.000002776384,2|2|2,0:2|0:2|0:2,0:0:0:0:
256,71,187801,2,0,P|239:36|224:19,1,59.500001388192,2|0,0:2|0:0,0:0:0:0:
169,89,188125,6,0,B|73:87|134:144|5:141,1,161.000003756284,6|2,3:1|1:2,2:0:0:0:
20,230,188612,1,0,0:0:0:0:
106,213,188774,2,0,P|117:261|113:306,1,80.5000018781421,2|0,3:2|3:0,0:0:0:0:
183,348,189098,2,0,P|216:323|242:286,1,80.5000018781421,2|0,1:2|0:0,0:0:0:0:
246,203,189422,2,0,L|409:220,2,161.000003756284,2|2|2,3:2|1:2|3:2,0:0:0:0:
186,136,190233,1,2,3:2:0:0:
209,50,190395,1,2,1:2:0:0:
297,37,190558,1,0,0:0:0:0:
355,103,190720,6,0,L|336:273,2,161.000003756284,2|2|2,3:2|1:2|3:2,0:0:0:0:
443,93,191531,1,2,3:2:0:0:
443,181,191693,2,0,L|431:279,1,80.5000018781421,2|0,1:2|0:0,0:0:0:0:
337,263,192017,2,0,B|282:258|282:258|246:278|246:278|172:271,1,161.000003756284,2|2,3:2|1:2,0:0:0:0:
121,337,192504,1,0,0:0:0:0:
59,273,192666,1,2,3:2:0:0:
117,206,192828,2,0,L|108:125,1,80.5000018781421,0|2,1:0|3:2,0:0:0:0:
161,56,193152,1,0,1:0:0:0:
214,126,193314,6,0,L|377:107,1,161.000003756284,6|2,3:2|1:2,0:0:0:0:
437,46,193801,1,0,0:0:0:0:
462,130,193963,2,0,P|474:172|466:208,1,80.5000018781421,2|2,3:2|3:2,0:0:0:0:
378,221,194287,2,0,P|366:259|373:298,1,80.5000018781421,2|0,1:2|0:0,0:0:0:0:
409,333,194531,1,0,0:0:0:0:
409,333,194612,2,0,L|243:348,1,161.000003756284,2|2,3:2|1:2,0:0:0:0:
165,317,195098,1,0,0:0:0:0:
232,260,195260,2,0,P|181:229|90:270,1,161.000003756284,2|2,3:2|1:2,0:0:0:0:
7,240,195747,1,0,0:0:0:0:
53,164,195909,6,0,L|41:76,1,80.5000018781421,2|2,3:2|3:2,0:0:0:0:
121,45,196233,2,0,L|131:124,1,80.5000018781421,2|0,1:2|0:0,0:0:0:0:
217,148,196558,1,2,3:2:0:0:
304,133,196720,1,2,3:2:0:0:
327,47,196882,2,0,P|376:41|406:56,1,80.5000018781421,2|0,1:2|0:0,0:0:0:0:
488,30,197206,2,0,P|441:73|438:172,1,161.000003756284,2|6,3:2|1:2,0:0:0:0:
470,247,197693,1,0,0:0:0:0:
381,244,197855,2,0,P|368:267|349:283,3,40.2500009390711,10|8|8|8,3:2|0:2|0:2|0:2,0:0:0:0:
314,279,198179,2,0,P|291:267|275:247,3,40.2500009390711,10|8|8|8,0:2|0:2|0:2|0:2,0:0:0:0:
266,214,198504,6,0,L|179:226,1,80.5000018781421,6|0,3:1|0:0,0:0:0:0:
138,150,198828,2,0,L|51:162,1,80.5000018781421,6|0,3:2|0:0,0:0:0:0:
65,72,199152,2,0,B|136:31|136:31|219:73,1,161.000003756284,2|2,1:2|3:2,0:0:0:0:
279,16,199639,1,0,0:0:0:0:
342,77,199801,2,0,B|300:153|364:164|326:237,1,161.000003756284,2|2,3:2|1:2,0:0:0:0:
335,320,200287,1,0,0:0:0:0:
253,286,200449,2,0,P|183:325|103:293,1,161.000003756284,2|2,3:2|3:2,0:0:0:0:
38,138,201098,6,0,L|204:150,1,161.000003756284,2|6,1:2|3:2,0:0:0:0:
258,84,201585,1,0,0:0:0:0:
325,26,201747,2,0,L|491:38,1,161.000003756284,2|2,3:2|1:2,0:0:0:0:
504,123,202233,1,0,0:0:0:0:
415,123,202395,6,0,L|428:219,1,80.5000018781421,2|0,3:2|0:0,0:0:0:0:
503,246,202720,2,0,L|490:342,1,80.5000018781421,2|0,3:2|0:0,0:0:0:0:
414,367,203044,1,2,1:2:0:0:
330,338,203206,1,0,3:0:0:0:
312,251,203368,2,0,P|268:248|233:271,1,80.5000018781421,2|0,1:2|0:0,0:0:0:0:
191,341,203693,6,0,L|201:178,1,161.000003756284,6|2,3:1|1:2,0:0:0:0:
146,110,204179,1,0,0:0:0:0:
223,67,204341,2,0,L|307:76,1,80.5000018781421,2|2,3:2|3:2,0:0:0:0:
381,33,204666,2,0,L|465:42,1,80.5000018781421,2|0,1:2|0:0,0:0:0:0:
502,119,204990,2,0,P|471:167|373:177,1,161.000003756284,2|6,3:2|1:2,0:0:0:0:
297,221,205476,1,0,0:0:0:0:
297,221,205558,1,0,0:0:0:0:
297,221,205639,2,0,L|307:308,1,80.5000018781421,2|2,3:2|3:2,0:0:0:0:
218,312,205963,2,0,L|208:232,1,80.5000018781421,2|0,1:2|0:0,0:0:0:0:
132,182,206287,5,6,0:1:0:0:
132,182,206449,1,2,0:2:0:0:
299,108,206774,2,0,L|370:115,2,70.000000298023,2|2|2,0:2|0:2|0:2,0:0:0:0:
244,41,207260,1,2,0:2:0:0:
244,41,207422,5,2,0:2:0:0:
74,107,207747,2,0,L|3:114,2,70.000000298023,2|2|2,0:2|0:2|0:2,0:0:0:0:
132,182,208233,1,2,0:2:0:0:
132,182,208395,5,2,0:2:0:0:
299,108,208720,2,0,L|370:115,2,70.000000298023,2|2|2,0:2|0:2|0:2,0:0:0:0:
244,41,209206,1,2,0:2:0:0:
244,41,209368,5,2,0:2:0:0:
74,107,209693,2,0,L|3:114,2,70.000000298023,2|2|2,0:2|0:2|0:2,0:0:0:0:
132,182,210179,1,2,0:2:0:0:
132,182,210341,5,2,0:2:0:0:
132,182,210666,5,2,0:2:0:0:
