osu file format v14

[General]
AudioFilename: 01. Inferno.mp3
AudioLeadIn: 0
PreviewTime: 54666
Countdown: 0
SampleSet: Soft
StackLeniency: 0.2
Mode: 0
LetterboxInBreaks: 0
WidescreenStoryboard: 1

[Editor]
DistanceSpacing: 0.5
BeatDivisor: 4
GridSize: 4
TimelineZoom: 2.5

[Metadata]
Title:Inferno
TitleUnicode:インフェルノ
Artist:Mrs. GREEN APPLE
ArtistUnicode:Mrs. GREEN APPLE
Creator:gokugohan12468
Version:Kaguya_Sama's Special Fire Force Company 8
Source:炎炎ノ消防隊
Tags:Enen no Shouboutai OP Opening 1 one ミセスグリーンアップル Full Version Size Fire Force Attitude KittyAdventure FunnyA milr_ [_white_music_] william_k william k Fall _tranquility -_Frontier_- Frontier shockolatte moph hausenberg Jian Kaguya_Sama Dora- Doraemonelf collab collaboration 髙野清宗 藤澤涼架 山中綾華 大森元貴 若井滉斗 Hiroto Wakai Motoki Omori Ayaka Yamanaka Ryoka Fujisawa Kiyokazu Takano
BeatmapID:2188586
BeatmapSetID:1005253

[Difficulty]
HPDrainRate:5.5
CircleSize:4
OverallDifficulty:9.2
ApproachRate:9.3
SliderMultiplier:1.86
SliderTickRate:1

[Events]
//Background and Video events
Video,-160,"video.mp4"
0,0,"Kaguya_Sama's BG.jpg",0,0
//Break Periods
//Storyboard Layer 0 (Background)
//Storyboard Layer 1 (Fail)
//Storyboard Layer 2 (Pass)
//Storyboard Layer 3 (Foreground)
//Storyboard Layer 4 (Overlay)
//Storyboard Sound Samples

[TimingPoints]
342,324.324324324324,4,2,1,75,1,0
1639,-83.3333333333333,4,2,1,85,0,0
1882,-83.3333333333333,4,2,99,5,0,0
1963,-83.3333333333333,4,2,1,85,0,0
11693,-83.3333333333333,4,2,1,75,0,0
12017,-100,4,2,1,85,0,0
17206,-83.3333333333333,4,2,1,85,0,0
17449,-83.3333333333333,4,2,99,5,0,0
17531,-83.3333333333333,4,2,1,85,0,0
22396,-125,4,2,2,60,0,0
25882,-125,4,2,99,5,0,0
25963,-125,4,2,2,60,0,0
26855,-125,4,2,99,5,0,0
26936,-125,4,2,2,60,0,0
27828,-125,4,2,99,5,0,0
27909,-125,4,2,2,60,0,0
28801,-125,4,2,99,5,0,0
28882,-125,4,2,2,60,0,0
30098,-125,4,2,99,5,0,0
30179,-125,4,2,2,60,0,0
30747,-125,4,2,99,5,0,0
30828,-125,4,2,2,60,0,0
32450,-125,4,2,1,65,0,0
32774,-100,4,2,1,70,0,0
33990,-100,4,2,99,5,0,0
34071,-100,4,2,1,70,0,0
37233,-100,4,2,99,5,0,0
37314,-100,4,2,1,70,0,0
38530,-100,4,2,99,5,0,0
38612,-100,4,2,1,70,0,0
39179,-100,4,2,99,5,0,0
39260,-100,4,2,1,70,0,0
42504,-100,4,2,1,80,0,0
43152,-125,4,2,3,55,0,0
43801,-125,4,2,2,55,0,0
44287,-125,4,2,3,55,0,0
45098,-125,4,2,2,55,0,0
45585,-125,4,2,3,55,0,0
46396,-125,4,2,2,55,0,0
46558,-125,4,2,3,55,0,0
47693,-125,4,2,2,55,0,0
47855,-125,4,2,3,55,0,0
48990,-125,4,2,2,55,0,0
49476,-125,4,2,3,55,0,0
50287,-125,4,2,2,55,0,0
50774,-125,4,2,3,55,0,0
51585,-125,4,2,2,55,0,0
51747,-125,4,2,3,55,0,0
52152,-125,4,2,99,5,0,0
52233,-125,4,2,2,60,0,0
52477,-100,4,2,3,60,0,0
52639,-100,4,2,2,60,0,0
52720,-100,4,2,3,60,0,0
52882,-100,4,2,2,60,0,0
53044,-100,4,2,3,60,0,0
53206,-100,4,2,2,60,0,0
53287,-100,4,2,99,5,0,0
53369,-100,4,2,2,60,0,0
53450,-100,4,2,99,5,0,0
53531,-100,4,2,3,70,0,0
53693,-100,4,2,2,70,0,0
53774,-100,4,2,3,70,0,0
53936,-100,4,2,2,70,0,0
54017,-100,4,2,3,70,0,0
54179,-100,4,2,2,70,0,0
54504,-142.857142857143,4,2,2,75,0,0
54747,-142.857142857143,4,2,99,5,0,0
54828,-80,4,2,4,85,0,1
61882,-80,4,2,99,5,0,1
61963,-80,4,2,4,85,0,1
63909,-80,4,2,5,85,0,1
64882,-80,4,2,3,70,0,1
65206,-80,4,2,4,85,0,1
67071,-80,4,2,99,5,0,1
67152,-80,4,2,4,85,0,1
69747,-80,4,2,4,30,0,1
69909,-80,4,2,4,40,0,1
69990,-80,4,2,4,45,0,1
70071,-80,4,2,4,50,0,1
70152,-80,4,2,4,55,0,1
70233,-80,4,2,4,60,0,1
70314,-80,4,2,4,65,0,1
70396,-80,4,2,4,85,0,0
70558,-80,4,2,4,5,0,0
70720,-80,4,2,4,85,0,0
70882,-80,4,2,4,5,0,0
71044,-80,4,2,4,85,0,0
71206,-80,4,2,4,5,0,0
71369,-80,4,2,4,85,0,0
71531,-80,4,2,4,5,0,0
71693,-80,4,2,4,85,0,0
71855,-80,4,2,4,5,0,0
72017,-80,4,2,4,85,0,0
72179,-80,4,2,4,5,0,0
72341,-80,4,2,4,85,0,0
72503,-80,4,2,4,5,0,0
72666,-80,4,2,4,85,0,0
72828,-80,4,2,4,5,0,0
72990,-80,4,2,4,85,0,0
73801,-80,4,2,4,5,0,0
73963,-80,4,2,4,85,0,0
74125,-80,4,2,4,5,0,0
74287,-80,4,2,4,85,0,0
74449,-80,4,2,4,5,0,0
74612,-80,4,2,4,85,0,0
74774,-80,4,2,4,5,0,0
74936,-80,4,2,4,85,0,0
75098,-80,4,2,4,5,0,0
75260,-80,4,2,4,85,0,0
75422,-80,4,2,4,5,0,0
75585,-80,4,2,4,90,0,1
75747,-80,4,2,5,90,0,1
78179,-80,4,2,4,90,0,1
78341,-80,4,2,5,90,0,1
79477,-80,4,2,5,100,0,0
80774,-166.666666666667,4,2,6,60,0,0
81422,-166.666666666667,4,2,2,60,0,0
81909,-166.666666666667,4,2,6,60,0,0
82720,-166.666666666667,4,2,2,60,0,0
82882,-166.666666666667,4,2,6,60,0,0
84017,-166.666666666667,4,2,2,60,0,0
84504,-166.666666666667,4,2,6,60,0,0
85314,-166.666666666667,4,2,2,60,0,0
85477,-166.666666666667,4,2,6,60,0,0
86611,-166.666666666667,4,2,2,60,0,0
87260,-166.666666666667,4,2,6,60,0,0
87909,-166.666666666667,4,2,2,60,0,0
88071,-166.666666666667,4,2,6,60,0,0
89206,-166.666666666667,4,2,2,60,0,0
89531,-166.666666666667,4,2,6,60,0,0
89855,-166.666666666667,4,2,2,60,0,0
90098,-166.666666666667,4,2,6,60,0,0
90504,-166.666666666667,4,2,2,60,0,0
90585,-166.666666666667,4,2,6,60,0,0
90828,-250.000000000001,4,2,6,60,0,0
91071,-250.000000000001,4,2,99,5,0,0
91152,-100,4,2,1,70,0,0
92368,-100,4,2,99,5,0,0
92450,-100,4,2,1,70,0,0
93990,-100,4,2,99,5,0,0
94071,-100,4,2,1,70,0,0
95612,-100,4,2,99,5,0,0
95693,-100,4,2,1,70,0,0
96584,-100,4,2,99,5,0,0
96666,-100,4,2,1,70,0,0
97557,-100,4,2,99,5,0,0
97639,-100,4,2,1,70,0,0
100882,-166.666666666667,4,2,1,55,0,0
101531,-125,4,2,3,55,0,0
102179,-125,4,2,2,55,0,0
102665,-125,4,2,3,55,0,0
103477,-125,4,2,2,55,0,0
103639,-125,4,2,2,5,0,0
103963,-125,4,2,3,55,0,0
104287,-125,4,2,3,5,0,0
104450,-125,4,2,3,55,0,0
104774,-125,4,2,2,55,0,0
104936,-125,4,2,3,55,0,0
105423,-125,4,2,3,5,0,0
105909,-125,4,2,3,55,0,0
106071,-125,4,2,2,55,0,0
106233,-125,4,2,3,55,0,0
106273,-125,4,2,3,5,0,0
106395,-125,4,2,3,55,0,0
106882,-125,4,2,3,5,0,0
107206,-125,4,2,3,55,0,0
107369,-125,4,2,2,55,0,0
107531,-125,4,2,2,5,0,0
107855,-125,4,2,3,55,0,0
108179,-125,4,2,3,5,0,0
108666,-125,4,2,2,55,0,0
108828,-125,4,2,2,5,0,0
109152,-125,4,2,3,55,0,0
109476,-125,4,2,3,5,0,0
109639,-125,4,2,3,55,0,0
109963,-125,4,2,2,55,0,0
110125,-125,4,2,3,55,0,0
110612,-166.666666666667,4,2,3,55,0,0
111260,-166.666666666667,4,2,2,55,0,0
111585,-166.666666666667,4,2,2,5,0,0
111909,-125,4,2,3,60,0,0
112071,-125,4,2,3,5,0,0
112233,-125,4,2,3,60,0,0
112558,-125,4,2,2,60,0,0
112720,-125,4,2,3,60,0,0
112882,-125,4,2,3,5,0,0
113206,-125,4,2,2,60,0,0
113369,-125,4,2,2,5,0,0
113855,-125,4,2,2,60,0,0
114017,-125,4,2,2,5,0,0
114341,-125,4,2,3,60,0,0
114666,-125,4,2,3,5,0,0
114828,-125,4,2,3,60,0,0
115152,-125,4,2,2,60,0,0
115314,-125,4,2,3,60,0,0
115801,-125,4,2,2,60,0,0
115963,-125,4,2,3,60,0,0
116450,-125,4,2,2,60,0,0
116612,-125,4,2,3,60,0,0
116774,-125,4,2,3,5,0,0
117098,-125,4,2,3,60,0,0
117260,-125,4,2,3,5,0,0
117423,-125,4,2,3,60,0,0
117747,-125,4,2,2,60,0,0
117909,-125,4,2,3,60,0,0
118071,-125,4,2,3,5,0,0
118396,-125,4,2,3,60,0,0
118720,-125,4,2,3,5,0,0
118882,-125,4,2,3,60,0,0
119044,-125,4,2,2,60,0,0
119206,-125,4,2,2,5,0,0
119531,-125,4,2,3,60,0,0
119693,-125,4,2,2,60,0,0
119936,-125,4,2,99,5,0,0
120017,-125,4,2,3,60,0,0
120098,-125,4,2,3,5,0,0
120179,-125,4,2,3,60,0,0
120260,-125,4,2,3,5,0,0
120341,-125,4,2,2,60,0,0
120504,-166.666666666667,4,2,3,60,0,0
120990,-333.333333333333,4,2,1,65,0,0
122125,-333.333333333333,4,2,1,5,0,0
122287,-80,4,2,4,85,0,1
130639,-80,4,2,99,5,0,1
130720,-80,4,2,4,85,0,1
131369,-80,4,2,5,85,0,1
132341,-80,4,2,3,70,0,1
132666,-80,4,2,4,85,0,1
134531,-80,4,2,99,5,0,1
134612,-80,4,2,4,85,0,1
137206,-80,4,2,4,30,0,1
137369,-80,4,2,4,40,0,1
137450,-80,4,2,4,45,0,1
137531,-80,4,2,4,50,0,1
137612,-80,4,2,4,55,0,1
137693,-80,4,2,4,60,0,1
137774,-80,4,2,4,65,0,1
137855,-80,4,2,4,85,0,0
138017,-80,4,2,4,5,0,0
138179,-80,4,2,4,85,0,0
138341,-80,4,2,4,5,0,0
138504,-80,4,2,4,85,0,0
138666,-80,4,2,4,5,0,0
138828,-80,4,2,4,85,0,0
138990,-80,4,2,4,5,0,0
139152,-80,4,2,4,85,0,0
139314,-80,4,2,4,5,0,0
139477,-80,4,2,4,85,0,0
139639,-80,4,2,4,5,0,0
139801,-80,4,2,4,85,0,0
139963,-80,4,2,4,5,0,0
140125,-80,4,2,4,85,0,0
140287,-80,4,2,4,5,0,0
140450,-80,4,2,4,85,0,0
141260,-80,4,2,4,5,0,0
141423,-80,4,2,4,85,0,0
141585,-80,4,2,4,5,0,0
141747,-80,4,2,4,85,0,0
141909,-80,4,2,4,5,0,0
142071,-80,4,2,4,85,0,0
142233,-80,4,2,4,5,0,0
142396,-80,4,2,4,85,0,0
142558,-80,4,2,4,5,0,0
142720,-80,4,2,4,85,0,0
142882,-80,4,2,4,5,0,0
143044,-80,4,2,4,90,0,1
143206,-80,4,2,5,90,0,1
145639,-80,4,2,4,90,0,1
145801,-80,4,2,5,90,0,1
146936,-80,4,2,5,100,0,1
147585,-80,4,2,1,70,0,1
147909,-80,4,2,1,75,0,1
148233,-100,4,2,4,75,0,0
156990,-100,4,2,2,80,0,0
157314,-100,4,2,4,85,0,0
157639,-100,4,2,4,95,0,0
157720,-100,4,2,99,5,0,0
157801,-100,4,2,4,95,0,0
157882,-100,4,2,99,5,0,0
157963,-100,4,2,4,95,0,0
158044,-100,4,2,99,5,0,0
158287,324.324324324324,4,2,4,75,1,1
162178,-100,4,2,4,65,0,1
162422,-100,4,2,4,70,0,1
162584,-100,4,2,99,5,0,1
162665,-100,4,2,4,80,0,1
162827,-100,4,2,4,70,0,1
163151,-100,4,2,4,85,0,1
163477,324.324324324324,4,2,5,60,1,1
163477,-125,4,2,5,60,0,1
164125,-125,4,2,2,60,0,1
172558,-125,4,2,4,90,0,0
173855,-76.9230769230769,4,2,4,85,0,1
178395,-76.9230769230769,4,2,4,30,0,1
178558,-76.9230769230769,4,2,4,40,0,1
178639,-76.9230769230769,4,2,4,45,0,1
178720,-76.9230769230769,4,2,4,50,0,1
178801,-76.9230769230769,4,2,4,55,0,1
178882,-76.9230769230769,4,2,4,60,0,1
178963,-76.9230769230769,4,2,4,65,0,1
179044,-80,4,2,4,85,0,0
179206,-80,4,2,4,5,0,0
179368,-80,4,2,4,85,0,0
179530,-80,4,2,4,5,0,0
179693,-80,4,2,4,85,0,0
179855,-80,4,2,4,5,0,0
180017,-80,4,2,4,85,0,0
180179,-80,4,2,4,5,0,0
180341,-80,4,2,4,85,0,0
180503,-80,4,2,4,5,0,0
180666,-80,4,2,4,85,0,0
180828,-80,4,2,4,5,0,0
180990,-80,4,2,4,85,0,0
181152,-80,4,2,4,5,0,0
181314,-80,4,2,4,85,0,0
181476,-80,4,2,4,5,0,0
181639,-80,4,2,4,85,0,0
182449,-80,4,2,4,5,0,0
182612,-80,4,2,4,85,0,0
182774,-80,4,2,4,5,0,0
182936,-80,4,2,4,85,0,0
183098,-80,4,2,4,5,0,0
183260,-80,4,2,4,85,0,0
183422,-80,4,2,4,5,0,0
183585,-80,4,2,4,85,0,0
183747,-80,4,2,4,5,0,0
183909,-80,4,2,4,85,0,0
184071,-80,4,2,4,5,0,0
184233,-80,4,2,4,90,0,1
184395,-80,4,2,5,90,0,1
186504,-80,4,2,5,90,0,0
186828,-125,4,2,1,80,0,0
188125,-100,4,2,7,85,0,0
197531,-100,4,2,1,85,0,0
197855,-100,4,2,1,30,0,0
198017,-100,4,2,1,40,0,0
198098,-100,4,2,1,45,0,0
198179,-100,4,2,1,50,0,0
198260,-100,4,2,1,55,0,0
198341,-100,4,2,1,60,0,0
198422,-100,4,2,1,65,0,0
198504,-100,4,2,1,85,0,0
198828,-100,4,2,7,85,0,0
203693,-100,4,2,1,85,0,0
203936,-100,4,2,99,5,0,0
204017,-100,4,2,1,85,0,0
205314,-100,4,2,7,85,0,0
206287,-100,4,2,1,70,0,0
207747,-100,4,2,1,75,0,0
208720,-100,4,2,1,80,0,0
209693,-100,4,2,1,85,0,0
210666,-100,4,2,1,90,0,0

[Colours]
Combo1 : 255,45,45
Combo2 : 0,128,192
Combo3 : 0,215,215
Combo4 : 130,192,255
Combo5 : 255,0,0
Combo6 : 255,128,64
Combo7 : 255,66,66
Combo8 : 255,128,0

[HitObjects]
195,344,1639,6,0,P|233:293|172:212,1,167.399994891358,4|0,3:1|2:0,2:0:0:0:
116,169,1963,2,0,P|168:178|217:146,1,111.599996594238,0|0,1:0|2:0,2:0:0:0:
245,70,2287,1,0,3:0:0:0:
78,95,2450,1,0,3:0:0:0:
319,107,2612,2,0,P|328:55|296:6,1,111.599996594238,0|0,1:0|2:0,2:0:0:0:
172,0,2936,5,0,3:0:0:0:
260,213,3098,1,0,3:0:0:0:
297,7,3260,1,0,1:0:0:0:
215,147,3423,1,0,2:0:0:0:
442,165,3585,1,0,3:0:0:0:
245,70,3747,1,0,3:0:0:0:
253,324,3909,2,0,L|260:205,1,111.599996594238,0|0,1:0|2:0,2:0:0:0:
122,330,4233,6,0,B|176:345|176:345|249:330,1,112.799996557617,0|0,3:0|3:0,2:0:0:0:
442,165,4558,2,0,B|388:150|388:150|315:165,1,112.799996557617,0|0,1:0|2:0,2:0:0:0:
137,175,4882,1,0,3:0:0:0:
252,324,5044,1,0,3:0:0:0:
332,161,5206,2,0,L|325:42,1,111.599996594238,0|0,1:0|2:0,2:0:0:0:
125,69,5531,5,0,3:0:0:0:
248,225,5693,1,0,3:0:0:0:
325,49,5855,2,0,P|264:26|200:54,1,111.599996594238,0|0,1:0|2:0,2:0:0:0:
38,193,6179,5,0,3:0:0:0:
265,110,6341,1,0,1:0:0:0:
42,62,6504,1,0,3:0:0:0:
125,289,6666,1,0,1:0:0:0:
332,161,6828,6,0,P|349:106|325:50,1,111.599996594238,4|0,3:2|2:0,2:0:0:0:
125,69,7152,2,0,L|131:180,1,111.599996594238,0|0,1:0|2:0,2:0:0:0:
237,355,7477,1,0,3:0:0:0:
247,225,7639,1,0,3:0:0:0:
33,316,7801,2,0,L|144:309,1,111.599996594238,0|0,1:0|2:0,2:0:0:0:
351,303,8125,5,0,3:0:0:0:
226,375,8287,1,0,3:0:0:0:
260,201,8450,2,0,L|371:194,1,111.599996594238,0|0,1:0|2:0,2:0:0:0:
494,384,8774,5,0,3:0:0:0:
330,297,8936,1,0,3:0:0:0:
441,142,9098,2,0,P|458:193|441:245,1,111.599996594238,0|0,1:0|2:0,2:0:0:0:
358,48,9423,5,0,3:0:0:0:
441,245,9585,1,0,3:0:0:0:
247,225,9747,2,0,B|227:203|227:203|234:113,1,111.599996594238,0|0,1:0|2:0,2:0:0:0:
372,193,10071,5,0,3:0:0:0:
237,351,10233,1,0,3:0:0:0:
141,157,10396,2,0,L|148:46,1,111.599996594238,0|0,1:0|2:0,2:0:0:0:
133,254,10720,5,0,3:0:0:0:
133,254,10882,1,0,3:0:0:0:
148,45,11044,1,4,1:2:0:0:
254,116,11369,5,0,3:0:0:0:
254,116,11531,1,0,3:0:0:0:
237,351,11693,1,8,2:0:0:0:
209,354,11774,1,8,2:0:0:0:
181,358,11855,1,8,2:0:0:0:
154,362,11936,1,8,2:0:0:0:
126,366,12017,6,0,L|133:255,1,93,4|0,3:1|2:0,2:0:0:0:
342,184,12341,2,0,L|347:276,1,93,0|0,3:0|2:0,2:0:0:0:
51,293,12666,2,0,L|56:200,1,93,0|0,1:0|2:0,2:0:0:0:
254,116,12990,2,0,L|259:208,1,93,4|0,3:2|2:0,2:0:0:0:
12,115,13314,6,0,B|57:101|57:101|108:119,1,93,0|0,3:0|2:0,2:0:0:0:
239,229,13639,2,0,B|194:243|194:243|143:225,1,93,0|0,1:0|2:0,2:0:0:0:
254,116,13963,1,0,3:0:0:0:
343,277,14125,1,0,2:0:0:0:
365,94,14287,1,0,3:0:0:0:
239,229,14450,1,0,2:0:0:0:
420,194,14612,5,0,1:0:0:0:
238,106,14774,1,0,2:0:0:0:
343,277,14936,1,4,3:2:0:0:
161,189,15098,1,0,2:0:0:0:
365,94,15260,5,0,3:0:0:0:
338,297,15423,1,0,2:0:0:0:
238,106,15585,1,0,1:0:0:0:
211,309,15747,1,0,2:0:0:0:
425,176,15909,6,0,L|332:181,1,93,0|0,3:0|2:0,2:0:0:0:
118,303,16233,2,0,L|210:308,1,93,0|0,3:0|2:0,2:0:0:0:
238,106,16558,1,0,1:0:0:0:
139,195,16720,1,0,3:0:0:0:
341,265,16882,1,0,1:0:0:0:
341,265,17206,6,0,B|311:300|311:300|192:278,1,167.399994891358,4|0,3:1|2:0,2:0:0:0:
157,207,17531,2,0,P|159:242|104:309,1,111.599996594238,0|0,1:0|2:0,2:0:0:0:
91,304,17774,1,0,2:0:0:0:
91,304,17855,1,0,3:0:0:0:
0,114,18017,1,0,3:0:0:0:
210,141,18179,2,0,P|148:158|97:139,1,111.599996594238,0|0,1:0|2:0,2:0:0:0:
294,59,18504,5,0,3:0:0:0:
315,271,18666,1,0,3:0:0:0:
104,144,18828,2,0,P|166:127|217:146,1,111.599996594238,0|0,1:0|2:0,2:0:0:0:
91,304,19152,5,0,3:0:0:0:
0,114,19314,1,0,3:0:0:0:
210,141,19477,2,0,L|204:233,1,93,0|0,1:0|2:0,2:0:0:0:
377,82,19801,5,4,3:1:0:0:
321,294,19963,1,0,2:0:0:0:
310,9,20125,5,0,1:0:0:0:
416,249,20287,1,0,2:0:0:0:
210,141,20450,5,0,1:0:0:0:
512,216,20612,1,0,2:0:0:0:
145,231,20774,5,0,1:0:0:0:
436,157,20936,1,0,2:0:0:0:
167,51,21098,5,0,1:0:0:0:
211,384,21260,1,0,1:0:0:0:
423,158,21423,6,0,L|347:163,1,55.7999982971192,8|8,2:0|2:0,2:0:0:0:
70,226,21585,2,0,L|146:231,1,55.7999982971192,8|8,2:0|2:0,2:0:0:0:
439,251,21747,5,0,1:0:0:0:
53,137,21909,1,0,1:0:0:0:
167,51,22233,5,0,2:0:0:0:
255,55,22396,2,0,P|210:44|166:57,1,74.4,4|0,3:2|2:0,2:0:0:0:
340,54,22720,2,0,P|295:66|250:55,1,74.4,2|0,3:2|2:0,2:0:0:0:
359,135,23044,2,0,L|352:42,1,74.4,0|0,3:0|2:0,2:0:0:0:
205,206,23369,2,0,L|212:114,1,74.4,2|0,3:2|2:0,2:0:0:0:
437,234,23693,6,0,B|412:267|412:267|288:257,1,148.8,0|2,3:0|3:2,2:0:0:0:
205,206,24179,1,0,2:0:0:0:
305,347,24341,2,0,P|317:296|307:257,1,74.4,0|0,3:0|2:0,2:0:0:0:
135,298,24666,1,2,3:2:0:0:
209,375,24828,1,0,2:0:0:0:
304,258,24990,6,0,L|297:166,1,74.4,0|0,3:0|2:0,2:0:0:0:
281,65,25314,1,2,3:2:0:0:
191,139,25477,1,0,2:0:0:0:
374,182,25639,2,0,B|453:177|453:177|476:137,1,111.6,0|0,3:0|2:0,2:0:0:0:
479,133,25963,1,2,3:2:0:0:
383,59,26125,1,0,2:0:0:0:
386,263,26287,6,0,L|460:257,1,74.4,0|0,3:0|2:0,2:0:0:0:
331,352,26612,2,0,L|214:343,1,111.6,2|0,3:2|2:0,2:0:0:0:
201,356,26936,2,0,P|214:327|200:278,1,74.4,0|0,3:0|2:0,2:0:0:0:
75,246,27260,1,2,3:2:0:0:
98,384,27423,1,0,2:0:0:0:
132,186,27585,6,0,P|85:162|26:182,1,111.6,0|0,3:0|2:0,2:0:0:0:
18,193,27909,2,0,L|25:96,1,74.4,2|0,3:2|2:0,2:0:0:0:
153,106,28233,1,0,3:0:0:0:
75,246,28396,1,0,2:0:0:0:
31,100,28558,2,0,B|83:79|83:79|140:100,1,111.6,2|0,3:2|2:0,2:0:0:0:
153,106,28882,6,0,P|201:91|166:11,1,148.8,0|2,3:0|3:2,2:0:0:0:
31,100,29369,1,0,2:0:0:0:
144,189,29531,2,0,P|193:187|219:175,1,74.4,0|0,3:0|2:0,2:0:0:0:
290,83,29855,1,2,3:2:0:0:
310,252,30017,2,0,L|306:203,1,37.2,0|0,2:0|2:0,2:0:0:0:
286,57,30179,5,0,3:0:0:0:
144,189,30341,1,0,2:0:0:0:
330,264,30504,2,0,L|324:151,1,111.6,2|0,3:2|2:0,2:0:0:0:
333,139,30828,2,0,P|383:126|416:144,1,74.4,0|0,3:0|2:0,2:0:0:0:
495,235,31152,1,2,3:2:0:0:
415,323,31314,1,0,2:0:0:0:
220,239,31477,5,2,3:2:0:0:
216,330,31639,2,0,L|221:223,1,74.4,2|0,2:0|3:0,2:0:0:0:
94,185,31963,1,2,2:0:0:0:
98,276,32125,1,2,3:2:0:0:
83,289,32450,5,2,3:0:0:0:
78,175,32612,1,2,2:0:0:0:
241,239,32774,6,0,L|236:331,1,93,6|0,3:1|2:0,2:0:0:0:
174,186,33098,2,0,P|225:155|289:173,1,93,2|0,1:2|2:0,2:0:0:0:
377,279,33423,1,2,3:2:0:0:
241,239,33585,1,0,3:0:0:0:
365,115,33747,2,0,B|391:86|391:86|387:199,1,139.5,2|0,1:2|2:0,2:0:0:0:
411,206,34071,5,2,3:2:0:0:
466,46,34233,1,0,3:0:0:0:
303,59,34396,2,0,P|324:102|366:114,1,93,0|2,1:0|2:0,2:0:0:0:
212,2,34720,1,2,3:2:0:0:
256,156,34882,1,0,3:0:0:0:
380,0,35044,1,0,1:0:0:0:
199,29,35206,1,0,2:0:0:0:
370,207,35369,6,0,L|365:115,1,93,2|2,3:2|3:2,2:0:0:0:
199,29,35693,1,2,1:2:0:0:
256,156,35855,1,2,2:0:0:0:
452,119,36017,2,0,B|409:101|409:101|364:114,1,93,2|0,3:2|3:0,2:0:0:0:
283,251,36341,1,2,1:2:0:0:
423,290,36504,1,2,2:0:0:0:
201,247,36666,6,0,P|201:264|254:327,1,93,2|2,3:2|3:2,2:0:0:0:
413,279,36990,2,0,B|385:254|385:254|260:251,1,139.5,2|0,1:2|2:0,2:0:0:0:
298,242,37314,2,0,P|316:202|294:139,1,93,2|0,3:2|3:0,2:0:0:0:
177,62,37639,1,2,1:2:0:0:
201,247,37801,1,2,2:0:0:0:
37,173,37963,5,2,3:2:0:0:
47,188,38287,2,0,L|38:338,1,139.5,2|0,1:2|2:0,2:0:0:0:
53,343,38612,1,2,3:2:0:0:
201,247,38774,1,0,3:0:0:0:
47,188,38936,2,0,P|106:206|142:135,1,139.5,2|0,1:2|2:0,2:0:0:0:
165,140,39260,6,0,B|244:145|244:145|274:167|274:167|359:170,1,186,2|0,3:2|1:0,2:0:0:0:
445,86,39747,1,2,2:0:0:0:
274,32,39909,2,0,B|259:75|259:75|271:131,1,93,2|0,3:2|3:0,2:0:0:0:
404,270,40233,1,0,1:0:0:0:
368,165,40396,1,0,2:0:0:0:
202,247,40558,6,0,L|294:252,1,93,2|2,3:2|3:2,2:0:0:0:
202,369,40882,2,0,L|110:374,1,93,2|0,1:2|2:0,2:0:0:0:
96,186,41206,1,2,3:2:0:0:
202,247,41369,1,2,3:2:0:0:
3,313,41531,1,2,1:2:0:0:
109,374,41693,1,2,2:0:0:0:
110,162,41855,5,2,3:2:0:0:
207,154,42017,2,0,L|202:246,1,93,2|0,3:2|1:0,2:0:0:0:
151,72,42341,1,0,2:0:0:0:
304,143,42504,1,0,1:0:0:0:
318,127,43152,6,0,B|355:126|373:109|373:109|396:153|391:222|341:275,1,223.2,4|0,3:2|3:0,2:0:0:0:
279,307,43801,2,0,B|307:281|378:270|421:315|415:373|373:399|333:364,1,223.2,0|0,1:0|3:0,2:0:0:0:
243,384,44450,1,0,3:0:0:0:
121,316,45098,6,0,P|161:306|204:314,1,74.4,0|0,1:0|2:0,2:0:0:0:
91,228,45423,2,0,P|112:262|118:306,1,74.4,0|0,2:0|3:0,2:0:0:0:
161,158,45747,6,0,P|189:182|223:195,1,74.4,0|0,3:0|2:0,2:0:0:0:
94,215,46071,2,0,P|126:196|149:168,1,74.4,0|0,3:0|3:0,2:0:0:0:
202,289,46396,1,0,1:0:0:0:
322,202,46558,2,0,B|361:175|361:175|350:298,1,148.8,0|0,3:0|3:0,2:0:0:0:
286,340,47044,2,0,B|327:374|381:378|421:335|421:335|443:368|489:364,1,223.2,0|0,2:0|3:0,2:0:0:0:
496,355,47612,1,0,3:0:0:0:
496,355,47693,1,0,1:0:0:0:
489,224,47855,6,0,L|490:251,4,18.6,0|0|0|0|0,3:0|2:0|2:0|2:0|3:0,2:0:0:0:
483,138,48179,1,0,3:0:0:0:
322,202,48341,6,0,B|361:214|361:214|409:209,1,74.4,0|0,3:0|2:0,2:0:0:0:
282,125,48666,2,0,B|252:152|252:152|232:196,1,74.4,0|0,2:0|3:0,2:0:0:0:
298,334,48990,2,0,B|288:294|288:294|260:255,1,74.4,0|0,1:0|2:0,2:0:0:0:
110,238,49314,2,0,B|149:250|149:250|197:245,1,74.4,0|0,2:0|3:0,2:0:0:0:
109,150,49639,6,0,L|104:242,1,74.4,0|0,3:0|2:0,2:0:0:0:
21,135,49963,2,0,L|16:227,1,74.4,0|0,2:0|2:0,2:0:0:0:
28,42,50287,2,0,L|23:116,1,74.4,0|0,1:0|2:0,2:0:0:0:
116,57,50612,2,0,L|111:131,1,74.4,0|0,2:0|3:0,2:0:0:0:
200,52,50936,6,0,B|165:39|165:39|124:51,1,74.4,0|0,3:0|2:0,2:0:0:0:
239,137,51260,1,0,3:0:0:0:
293,60,51423,1,0,3:0:0:0:
312,204,51585,1,0,1:0:0:0:
437,95,51747,2,0,B|412:74|385:69|385:69|423:140|392:213,1,186,0|0,3:0|2:0,2:0:0:0:
411,210,52233,6,0,B|424:255|424:255|409:302,1,93,0|0,1:0|2:0,2:0:0:0:
394,308,52477,2,0,L|283:314,1,93,0|2,3:0|1:2,2:0:0:0:
289,330,52720,1,0,3:0:0:0:
239,137,52882,5,0,1:0:0:0:
312,204,53044,2,0,L|308:233,2,23.25,0|0|0,3:0|3:0|3:0,2:0:0:0:
159,271,53206,2,0,P|156:248|161:221,1,46.5,0|0,1:0|2:0,2:0:0:0:
159,225,53369,2,0,P|162:247|159:270,1,46.5,0|0,1:0|2:0,2:0:0:0:
82,302,53531,6,0,P|74:249|91:177,1,93,0|2,3:0|1:2,2:0:0:0:
89,194,53774,2,0,P|93:147|85:102,1,93,0|2,3:0|1:2,2:0:0:0:
69,90,54017,1,0,3:0:0:0:
198,27,54179,2,0,B|242:42|242:42|301:25,1,93,2|0,1:2|2:0,2:0:0:0:
310,18,54423,1,0,2:0:0:0:
330,32,54504,6,0,B|325:153,1,97.6499970199586,2|0,2:1|2:0,2:0:0:0:
423,204,54828,6,0,B|361:207|323:155|323:155|290:204|216:199,1,232.5,6|0,3:1|1:0,2:0:0:0:
406,105,55314,1,2,2:0:0:0:
211,380,55477,1,2,3:2:0:0:
221,199,55639,1,0,3:0:0:0:
410,351,55801,2,0,L|280:342,1,116.25,0|2,1:0|2:0,2:0:0:0:
134,140,56125,6,0,B|168:106|168:106|303:124|303:124|325:183,1,232.5,2|0,3:2|1:0,2:0:0:0:
214,332,56612,1,2,2:0:0:0:
0,216,56774,1,2,3:2:0:0:
221,199,56936,1,0,3:0:0:0:
85,356,57098,2,0,P|74:278|95:206,1,116.25,0|2,1:0|2:0,2:0:0:0:
500,114,57423,6,0,B|441:140|390:103|390:103|330:54|270:90,1,232.5,2|0,3:2|1:0,2:0:0:0:
92,218,57909,1,2,2:0:0:0:
313,285,58071,1,2,3:2:0:0:
197,90,58233,1,0,3:0:0:0:
200,287,58396,2,0,P|258:299|325:277,1,116.25,0|2,1:0|2:0,2:0:0:0:
282,83,58720,5,2,3:2:0:0:
191,366,58882,1,0,3:0:0:0:
55,198,59044,2,0,B|111:181|111:181|167:199,1,116.25,0|0,1:0|2:0,2:0:0:0:
37,370,59369,1,0,3:0:0:0:
0,130,59531,1,0,3:0:0:0:
277,199,59693,2,0,B|221:216|221:216|165:198,1,116.25,0|2,1:0|2:0,2:0:0:0:
331,276,60017,6,0,B|222:317|222:317|84:271,1,232.5,6|0,3:2|1:0,2:0:0:0:
292,109,60504,1,2,2:0:0:0:
407,350,60666,1,2,3:2:0:0:
445,136,60828,1,0,3:0:0:0:
185,91,60990,2,0,B|162:115|162:115|166:209,1,116.25,0|2,1:0|2:0,2:0:0:0:
512,279,61314,6,0,B|505:180|505:180|478:153|478:153|472:37,1,232.5,2|0,3:2|1:0,2:0:0:0:
274,257,61801,2,0,L|278:172,1,58.125,2|0,2:0|2:0,2:0:0:0:
355,5,61963,1,2,3:2:0:0:
426,223,62125,1,0,3:0:0:0:
165,197,62287,2,0,L|160:81,1,116.25,0|2,1:0|2:0,2:0:0:0:
251,351,62612,6,0,B|216:296|232:219|259:194|259:194|257:243|302:305,1,232.5,2|0,3:2|1:0,2:0:0:0:
413,367,63098,1,2,2:0:0:0:
145,334,63260,2,0,P|139:263|150:211,1,116.25,2|0,3:2|3:0,2:0:0:0:
360,121,63585,1,4,1:2:0:0:
251,351,63747,1,2,2:0:0:0:
105,38,63909,5,2,3:2:0:0:
145,334,64071,1,0,3:0:0:0:
211,55,64558,5,0,3:0:0:0:
251,351,64720,1,0,3:0:0:0:
79,127,64882,6,0,L|137:129,1,58.125,8|8,2:0|2:0,2:0:0:0:
331,254,65044,2,0,L|272:256,1,58.125,10|8,2:0|2:0,2:0:0:0:
61,98,65206,6,0,B|146:99|146:99|192:135|192:135|298:137,1,232.5,6|0,3:1|1:0,2:0:0:0:
453,283,65693,1,2,2:0:0:0:
145,334,65855,1,2,3:2:0:0:
281,136,66017,1,0,3:0:0:0:
135,344,66179,2,0,B|122:284|122:284|134:219,1,116.25,0|2,1:0|2:0,2:0:0:0:
455,93,66504,6,0,B|487:90|503:75|503:75|477:39|368:38|324:71,1,232.5,2|0,3:2|1:0,2:0:0:0:
459,263,66990,2,0,P|465:229|465:187,1,58.125,2|0,2:0|2:0,2:0:0:0:
284,352,67152,1,2,3:2:0:0:
467,384,67314,1,0,3:0:0:0:
242,117,67477,2,0,L|237:233,1,116.25,0|2,1:0|2:0,2:0:0:0:
436,271,67801,6,0,B|452:227|466:169|435:105|361:120|348:182|377:212,1,232.5,2|0,3:2|1:0,2:0:0:0:
400,357,68287,1,2,2:0:0:0:
512,153,68450,1,2,3:2:0:0:
236,233,68612,1,0,3:0:0:0:
469,83,68774,2,0,P|418:61|356:67,1,116.25,0|2,1:0|2:0,2:0:0:0:
206,243,69098,5,2,3:2:0:0:
358,66,69260,1,0,3:0:0:0:
436,271,69423,2,0,P|374:293|313:283,1,116.25,4|0,1:2|2:0,2:0:0:0:
156,90,69747,5,10,3:2:0:0:
43,243,69909,1,8,2:0:0:0:
29,217,69990,1,8,2:0:0:0:
22,189,70071,1,8,2:0:0:0:
19,160,70152,1,8,2:0:0:0:
23,131,70233,1,8,2:0:0:0:
32,103,70314,1,8,2:0:0:0:
46,78,70396,6,0,P|125:74|161:94,1,116.25,6|0,3:2|2:0,2:0:0:0:
466,78,70720,2,0,P|387:74|351:94,1,116.25,0|0,1:0|2:0,2:0:0:0:
152,223,71044,6,0,L|157:107,1,116.25,2|0,3:2|2:0,2:0:0:0:
360,223,71369,2,0,L|355:107,1,116.25,0|0,1:0|2:0,2:0:0:0:
141,318,71693,6,0,B|85:335|85:335|26:319,1,116.25,2|0,3:2|2:0,2:0:0:0:
371,318,72017,2,0,B|427:335|427:335|486:319,1,116.25,0|0,1:0|2:0,2:0:0:0:
46,78,72341,6,0,L|41:194,1,116.25,2|0,3:2|2:0,2:0:0:0:
471,194,72666,2,0,L|466:78,1,116.25,0|0,1:0|2:0,2:0:0:0:
249,13,72990,6,0,B|248:108|248:108|275:145|275:145|271:287,1,232.5,6|0,3:2|1:0,2:0:0:0:
263,384,73477,1,0,2:0:0:0:
465,77,73639,6,0,P|392:48|344:62,1,116.25,2|0,3:2|2:0,2:0:0:0:
41,195,73963,2,0,P|114:224|162:210,1,116.25,0|0,1:0|2:0,2:0:0:0:
393,250,74287,6,0,B|410:193|410:193|399:136,1,116.25,2|0,3:2|2:0,2:0:0:0:
117,22,74612,2,0,B|97:78|97:78|111:136,1,116.25,0|0,1:0|2:0,2:0:0:0:
337,310,74936,6,0,P|398:297|480:322,1,116.25,2|0,3:2|2:0,2:0:0:0:
175,310,75260,2,0,P|114:297|32:322,1,116.25,0|0,1:0|2:0,2:0:0:0:
321,103,75585,5,6,3:2:0:0:
258,343,75747,1,8,2:0:0:0:
235,77,75909,5,2,1:2:0:0:
337,310,76071,1,8,2:0:0:0:
410,130,76233,5,2,1:2:0:0:
248,358,76396,1,8,2:0:0:0:
228,63,76558,5,2,1:2:0:0:
344,328,76720,1,8,2:0:0:0:
424,110,76882,5,2,1:2:0:0:
113,217,77044,1,8,2:0:0:0:
443,239,77206,5,2,1:2:0:0:
121,195,77369,1,8,2:0:0:0:
322,63,77531,5,2,1:2:0:0:
248,358,77693,1,8,2:0:0:0:
228,63,77855,5,2,1:2:0:0:
350,350,78017,1,8,2:0:0:0:
151,102,78179,5,6,1:2:0:0:
472,146,78341,1,8,2:0:0:0:
121,195,78504,5,2,1:2:0:0:
478,165,78666,1,8,2:0:0:0:
220,42,78828,5,2,1:2:0:0:
336,340,78990,1,8,2:0:0:0:
318,48,79152,5,2,1:2:0:0:
254,339,79314,1,0,2:0:0:0:
472,146,79477,5,2,1:2:0:0:
79,196,79639,1,0,1:0:0:0:
67,177,80125,5,0,1:0:0:0:
450,237,80287,1,0,1:0:0:0:
464,263,80774,6,0,L|459:379,2,111.599996594238,6|0|2,3:2|2:0|1:2,2:0:0:0:
346,368,81747,2,0,L|351:290,1,55.7999982971192,2|0,2:0|3:0,2:0:0:0:
238,245,82071,5,2,3:2:0:0:
464,263,82396,1,0,3:0:0:0:
346,368,82720,1,2,1:2:0:0:
346,368,82882,2,0,L|353:247,1,111.599996594238,0|0,3:0|3:0,2:0:0:0:
238,245,83369,5,2,3:2:0:0:
231,134,83531,2,0,L|238:245,1,111.599996594238,0|0,3:0|3:0,2:0:0:0:
365,106,84017,1,2,1:2:0:0:
352,256,84341,1,0,2:0:0:0:
352,256,84504,1,0,3:0:0:0:
238,245,84666,5,2,3:2:0:0:
365,106,84828,2,0,L|361:161,1,55.7999982971192,0|2,2:0|3:2,2:0:0:0:
352,256,85152,1,0,2:0:0:0:
227,108,85314,1,2,1:2:0:0:
227,108,85477,1,0,3:0:0:0:
241,300,85639,2,0,L|237:244,1,55.7999982971192,0|0,2:0|2:0,2:0:0:0:
105,154,85963,5,2,3:2:0:0:
124,375,86287,2,0,B|121:325|121:325|112:316|112:316|110:267,2,111.599996594238,0|2|0,2:0|1:2|2:0,2:0:0:0:
159,218,87260,6,0,P|108:238|56:223,1,111.599996594238,2|0,3:2|3:0,2:0:0:0:
13,148,87747,1,0,2:0:0:0:
172,98,87909,1,2,1:2:0:0:
172,98,88071,2,0,P|191:149|176:201,1,111.599996594238,0|0,3:0|3:0,2:0:0:0:
5,288,88558,5,2,3:2:0:0:
5,288,88720,1,0,3:0:0:0:
16,133,88882,1,2,2:0:0:0:
180,257,89206,6,0,L|176:201,1,55.7999982971192,2|0,1:2|2:0,2:0:0:0:
259,48,89531,1,2,3:2:0:0:
258,61,89612,1,0,3:0:0:0:
257,75,89693,1,2,3:2:0:0:
256,89,89774,1,0,3:0:0:0:
255,103,89855,6,0,L|260:194,2,83.6999974456788,2|0|2,1:2|3:0|3:2,2:0:0:0:
339,117,90504,1,2,1:2:0:0:
339,130,90585,1,0,3:0:0:0:
340,144,90666,1,0,3:0:0:0:
341,158,90747,1,0,3:0:0:0:
342,172,90828,6,0,L|411:169,1,55.7999982971192,2|0,3:2|2:0,2:0:0:0:
418,183,91152,6,0,L|325:188,1,93,6|0,3:1|2:0,2:0:0:0:
276,344,91477,2,0,L|368:349,1,93,2|0,1:2|2:0,2:0:0:0:
167,219,91801,1,2,3:2:0:0:
100,372,91963,1,0,3:0:0:0:
239,177,92125,2,0,P|179:134|114:155,1,139.5,2|0,1:2|2:0,2:0:0:0:
106,169,92450,5,2,3:2:0:0:
260,324,92612,1,0,3:0:0:0:
239,147,92774,2,0,L|234:54,1,93,0|2,1:0|2:0,2:0:0:0:
31,252,93098,5,2,3:2:0:0:
239,147,93260,1,0,3:0:0:0:
110,76,93423,2,0,L|103:201,1,93,0|2,1:0|2:0,2:0:0:0:
300,241,93747,6,0,P|246:228|177:279,1,139.5,2|0,3:2|2:0,2:0:0:0:
173,291,94071,2,0,L|179:416,1,93,2|2,1:2|2:0,2:0:0:0:
314,384,94396,1,2,3:2:0:0:
408,215,94558,1,2,3:2:0:0:
239,147,94720,1,2,1:2:0:0:
300,241,94882,1,2,2:0:0:0:
411,101,95044,5,2,3:2:0:0:
309,62,95206,1,2,3:2:0:0:
458,284,95369,2,0,B|493:257|493:257|487:117,1,139.5,2|0,1:2|2:0,2:0:0:0:
503,150,95693,2,0,L|498:57,1,93,2|0,3:2|3:0,2:0:0:0:
309,62,96017,1,2,1:2:0:0:
408,215,96179,1,2,2:0:0:0:
160,234,96341,6,0,B|317:241,1,139.5,2|0,3:2|2:0,2:0:0:0:
310,255,96666,2,0,P|258:283|213:252,1,93,2|0,1:2|2:0,2:0:0:0:
211,95,96990,1,2,3:2:0:0:
321,152,97152,1,0,3:0:0:0:
81,233,97314,2,0,B|69:240|58:266|58:266|43:236|48:189|72:152,1,139.5,2|0,1:2|2:0,2:0:0:0:
75,160,97639,6,0,P|46:106|111:10,1,186,2|0,3:2|1:0,2:0:0:0:
321,152,98125,1,2,2:0:0:0:
160,234,98287,1,2,3:2:0:0:
160,234,98369,1,0,2:0:0:0:
160,234,98450,1,0,3:0:0:0:
194,81,98612,1,0,1:0:0:0:
294,303,98774,1,2,2:0:0:0:
54,358,98936,6,0,L|61:233,1,93,2|2,3:2|3:2,2:0:0:0:
294,303,99260,2,0,P|239:320|202:306,1,93,2|2,1:2|2:0,2:0:0:0:
75,160,99585,1,2,3:2:0:0:
321,152,99747,1,2,3:2:0:0:
207,309,99909,1,2,1:2:0:0:
194,81,100071,1,2,2:0:0:0:
384,243,100233,5,2,3:2:0:0:
207,309,100396,2,0,L|214:184,1,93,2|2,3:2|1:3,2:0:0:0:
292,114,100720,1,0,2:0:0:0:
312,317,100882,6,0,L|314:357,3,27.8999991485596,8|8|8|8,1:2|2:0|2:0|2:0,2:0:0:0:
384,243,101206,2,0,L|382:283,3,27.8999991485596,8|8|8|8,2:0|2:0|2:0|2:0,2:0:0:0:
455,169,101531,6,0,P|409:200|293:105,1,223.2,4|0,3:2|3:0,2:0:0:0:
270,30,102179,2,0,B|228:38|218:83|218:83|284:52|387:70,1,223.2,0|0,1:0|3:0,2:0:0:0:
425,25,102828,1,0,3:0:0:0:
425,25,103477,6,0,P|441:65|433:111,1,74.4,0|0,1:0|2:0,2:0:0:0:
512,133,103801,2,0,P|485:166|441:182,1,74.4,0|0,2:0|3:0,2:0:0:0:
440,260,104125,6,0,P|407:242|385:212,1,74.4,0|0,3:0|2:0,2:0:0:0:
504,318,104450,2,0,P|472:337|435:341,1,74.4,0|0,3:0|3:0,2:0:0:0:
458,180,104774,1,0,1:0:0:0:
305,187,104936,2,0,B|280:221|280:221|413:211,1,148.8,0|0,3:0|3:0,2:0:0:0:
232,149,105423,2,0,B|198:196|198:196|217:366,1,223.2,0|0,2:0|3:0,2:0:0:0:
231,377,105990,1,0,3:0:0:0:
231,377,106071,1,0,1:0:0:0:
130,313,106233,6,0,L|126:281,4,18.6,0|0|0|0|0,3:0|2:0|2:0|2:0|3:0,2:0:0:0:
121,198,106558,1,0,3:0:0:0:
276,229,106720,6,0,P|232:248|190:244,1,74.4,0|0,3:0|2:0,2:0:0:0:
154,94,107044,2,0,P|192:122|209:160,1,74.4,0|0,2:0|3:0,2:0:0:0:
102,267,107369,2,0,P|107:219|132:185,1,74.4,0|0,1:0|2:0,2:0:0:0:
294,159,107693,2,0,P|288:206|263:240,1,74.4,0|0,2:0|3:0,2:0:0:0:
79,89,108017,6,0,L|158:93,1,74.4,0|0,3:0|2:0,2:0:0:0:
120,197,108341,2,0,L|199:201,1,74.4,0|0,2:0|2:0,2:0:0:0:
368,154,108666,2,0,L|288:158,1,74.4,0|0,1:0|2:0,2:0:0:0:
327,262,108990,2,0,L|247:266,1,74.4,0|0,2:0|3:0,2:0:0:0:
49,241,109314,6,0,P|40:163|51:145,1,74.4,0|0,3:0|2:0,2:0:0:0:
127,278,109639,1,0,3:0:0:0:
120,197,109801,1,0,3:0:0:0:
252,266,109963,1,0,1:0:0:0:
381,131,110125,2,0,L|213:140,1,148.8,0|0,3:0|3:0,2:0:0:0:
399,44,110612,6,0,L|231:53,1,167.399994891358,4|0,3:2|3:0,2:0:0:0:
153,93,111260,1,0,1:0:0:0:
232,139,111585,1,0,2:0:0:0:
82,171,111909,6,0,P|131:185|174:169,1,74.4,4|0,3:2|2:0,2:0:0:0:
53,79,112233,2,0,P|54:129|83:165,1,74.4,0|0,3:0|3:0,2:0:0:0:
123,272,112558,6,0,P|74:286|31:270,1,74.4,0|0,1:0|3:0,2:0:0:0:
152,180,112882,2,0,P|150:230|121:266,1,74.4,0|0,2:0|2:0,2:0:0:0:
205,315,113206,1,0,1:0:0:0:
259,254,113369,2,0,B|344:237|320:293|418:279,1,148.8,0|0,2:0|2:0,2:0:0:0:
467,252,113855,6,0,P|451:303|459:342,1,74.4,0|0,1:0|2:0,2:0:0:0:
459,165,114179,2,0,P|475:216|467:255,1,74.4,0|0,2:0|3:0,2:0:0:0:
463,343,114504,6,0,L|388:347,1,74.4,0|0,3:0|2:0,2:0:0:0:
333,249,114828,2,0,L|258:253,1,74.4,0|0,3:0|3:0,2:0:0:0:
213,382,115152,1,0,1:0:0:0:
258,253,115314,2,0,B|274:181|274:181|248:84,1,148.8,0|0,3:0|3:0,2:0:0:0:
177,79,115801,5,0,1:0:0:0:
255,109,115963,2,0,P|298:110|338:95,1,74.4,0|0,3:0|3:0,2:0:0:0:
375,34,116287,1,0,3:0:0:0:
327,100,116450,2,0,L|331:174,1,74.4,0|0,1:0|3:0,2:0:0:0:
447,199,116774,2,0,L|442:273,1,74.4,0|0,2:0|2:0,2:0:0:0:
251,301,117098,6,0,L|246:226,1,74.4,4|0,3:2|2:0,2:0:0:0:
104,206,117423,2,0,P|147:242|183:241,1,74.4,0|0,3:0|3:0,2:0:0:0:
330,173,117747,2,0,P|306:146|271:135,1,74.4,0|0,1:0|3:0,2:0:0:0:
184,79,118071,2,0,L|188:153,1,74.4,0|0,2:0|2:0,2:0:0:0:
250,300,118396,6,0,L|255:226,1,74.4,0|0,3:0|3:0,2:0:0:0:
401,306,118720,2,0,L|334:339,1,74.4,0|0,2:0|3:0,2:0:0:0:
330,173,119044,2,0,L|392:213,1,74.4,0|0,1:0|2:0,2:0:0:0:
188,153,119369,2,0,L|192:78,1,74.4,0|0,2:0|3:0,2:0:0:0:
319,74,119693,6,0,B|262:58|262:58|178:76,1,111.6,0|0,1:0|2:0,2:0:0:0:
192,78,120017,2,0,L|190:126,3,37.2,0|0|0|0,3:0|2:0|3:0|2:0,2:0:0:0:
184,240,120341,1,0,1:0:0:0:
319,74,120504,6,0,B|262:58|262:58|178:76,1,111.6,0|0,3:0|3:0,2:0:0:0:
211,68,120990,6,0,B|268:84|268:84|319:73,1,111.6,2|0,2:3|2:0,2:0:0:0:
319,73,122125,1,0,2:0:0:0:
321,236,122287,6,0,B|363:213|363:213|391:150|372:75|308:47,1,232.5,6|0,3:1|1:0,2:0:0:0:
184,240,122774,1,2,2:0:0:0:
362,335,122936,1,2,3:2:0:0:
263,151,123098,1,0,3:0:0:0:
126,319,123260,2,0,P|188:338|246:315,1,116.25,0|2,1:0|2:0,2:0:0:0:
69,77,123585,6,0,B|50:65|41:42|41:42|6:108|18:178|18:178|33:159|59:154,1,232.5,2|0,3:2|1:0,2:0:0:0:
263,151,124071,1,2,2:0:0:0:
126,17,124233,1,2,3:2:0:0:
81,234,124396,1,0,3:0:0:0:
318,84,124558,2,0,P|247:66|194:100,1,116.25,0|2,1:0|2:0,2:0:0:0:
363,315,124882,6,0,B|386:365|425:367|425:367|467:294|418:207,1,232.5,2|0,3:2|1:0,2:0:0:0:
318,84,125369,1,2,2:0:0:0:
244,325,125531,1,2,3:2:0:0:
427,225,125693,1,0,3:0:0:0:
122,188,125855,2,0,L|129:332,1,116.25,0|2,1:0|2:0,2:0:0:0:
363,315,126179,5,2,3:2:0:0:
263,151,126341,1,0,3:0:0:0:
136,323,126504,2,0,P|207:341|260:307,1,116.25,0|0,1:0|2:0,2:0:0:0:
20,210,126828,1,0,3:0:0:0:
82,383,126990,1,0,3:0:0:0:
363,315,127152,2,0,P|292:297|239:331,1,116.25,0|2,1:0|2:0,2:0:0:0:
421,237,127477,6,0,P|325:202|190:241,1,232.5,6|0,3:2|1:0,2:0:0:0:
82,383,127963,1,2,2:0:0:0:
129,156,128125,1,2,3:2:0:0:
243,324,128287,1,0,3:0:0:0:
20,210,128450,2,0,L|26:93,1,116.25,0|2,1:0|2:0,2:0:0:0:
345,132,128774,6,0,B|374:125|374:125|368:183|299:196|236:148|253:79,1,232.5,2|0,3:2|1:0,2:0:0:0:
413,17,129260,1,2,2:0:0:0:
427,235,129423,1,2,3:2:0:0:
251,87,129585,1,0,3:0:0:0:
491,67,129747,2,0,L|485:184,1,116.25,0|2,1:0|2:0,2:0:0:0:
139,165,130071,6,0,B|116:110|142:52|142:52|212:50|273:105,1,232.5,2|0,3:2|1:0,2:0:0:0:
187,317,130558,2,0,P|158:325|131:324,1,58.125,2|0,2:0|2:0,2:0:0:0:
0,180,130720,1,2,3:2:0:0:
255,218,130882,1,0,3:0:0:0:
64,375,131044,2,0,P|49:314|88:250,1,116.25,4|2,1:2|2:0,2:0:0:0:
167,34,131369,5,2,3:2:0:0:
130,323,131531,1,0,3:0:0:0:
256,75,132017,5,0,3:0:0:0:
219,364,132179,1,0,3:0:0:0:
394,248,132341,6,0,L|302:243,1,58.125,8|8,2:0|2:0,2:0:0:0:
139,165,132504,2,0,L|230:169,1,58.125,10|8,2:0|2:0,2:0:0:0:
414,258,132666,6,0,B|444:293|444:293|250:283,1,232.5,6|0,3:1|1:0,2:0:0:0:
0,265,133152,1,2,2:0:0:0:
150,133,133314,1,2,3:2:0:0:
65,347,133477,1,0,3:0:0:0:
25,131,133639,2,0,P|85:112|160:142,1,116.25,0|2,1:0|2:0,2:0:0:0:
211,368,133963,6,0,B|174:341|174:341|168:266|196:205|196:205|253:189,1,232.5,2|0,3:2|1:0,2:0:0:0:
383,366,134450,2,0,L|317:362,1,58.125,2|0,2:0|2:0,2:0:0:0:
92,266,134612,1,2,3:2:0:0:
335,244,134774,1,0,3:0:0:0:
65,347,134936,2,0,P|14:295|11:243,1,116.25,0|2,1:0|2:0,2:0:0:0:
236,78,135260,6,0,B|232:164|232:164|242:193|242:193|228:217|228:217|221:351,1,232.5,2|0,3:2|1:0,2:0:0:0:
9,254,135747,1,2,2:0:0:0:
132,83,135909,1,2,3:2:0:0:
224,304,136071,1,0,3:0:0:0:
21,121,136233,2,0,L|15:4,1,116.25,0|2,1:0|2:0,2:0:0:0:
236,78,136558,5,2,3:2:0:0:
29,247,136720,1,0,3:0:0:0:
335,244,136882,2,0,L|329:127,1,116.25,4|0,1:2|2:0,2:0:0:0:
157,185,137206,5,10,3:2:0:0:
292,350,137369,1,8,2:0:0:0:
320,359,137450,1,8,2:0:0:0:
349,363,137531,1,8,2:0:0:0:
378,360,137612,1,8,2:0:0:0:
406,353,137693,1,8,2:0:0:0:
432,339,137774,1,8,2:0:0:0:
452,317,137855,6,0,P|458:245|448:200,1,116.25,6|0,3:2|2:0,2:0:0:0:
60,317,138179,2,0,P|54:245|64:200,1,116.25,0|0,1:0|2:0,2:0:0:0:
512,148,138504,6,0,P|462:95|411:83,1,116.25,2|0,3:2|2:0,2:0:0:0:
0,148,138828,2,0,P|50:95|101:83,1,116.25,0|0,1:0|2:0,2:0:0:0:
376,146,139152,6,0,L|371:26,1,116.25,2|0,3:2|2:0,2:0:0:0:
140,29,139477,2,0,L|136:146,1,116.25,0|0,1:0|2:0,2:0:0:0:
431,225,139801,6,0,B|376:240|376:240|320:223,1,116.25,2|0,3:2|2:0,2:0:0:0:
80,225,140125,2,0,B|136:240|136:240|192:223,1,116.25,0|0,1:0|2:0,2:0:0:0:
267,384,140450,6,0,B|269:292|269:292|242:255|242:255|243:160,1,232.5,6|0,3:2|1:0,2:0:0:0:
247,0,140936,1,0,2:0:0:0:
80,225,141098,6,0,B|130:252|196:221,1,116.25,2|0,3:2|2:0,2:0:0:0:
431,225,141423,2,0,B|382:252|316:221,1,116.25,2|0,1:2|2:0,2:0:0:0:
140,29,141747,6,0,L|136:146,1,116.25,2|0,3:2|2:0,2:0:0:0:
376,146,142071,2,0,L|371:29,1,116.25,2|0,1:2|2:0,2:0:0:0:
80,225,142396,6,0,L|75:341,1,116.25,2|0,3:2|2:0,2:0:0:0:
435,341,142720,2,0,L|431:225,1,116.25,0|0,1:0|2:0,2:0:0:0:
43,136,143044,5,6,3:2:0:0:
319,222,143206,1,8,2:0:0:0:
80,225,143369,5,2,1:2:0:0:
356,139,143531,1,8,2:0:0:0:
136,146,143693,5,2,1:2:0:0:
410,214,143855,1,8,2:0:0:0:
126,308,144017,5,2,1:2:0:0:
446,138,144179,1,8,2:0:0:0:
187,27,144341,5,2,1:2:0:0:
211,263,144504,1,8,2:0:0:0:
320,67,144666,5,2,1:2:0:0:
296,303,144828,1,8,2:0:0:0:
165,29,144990,5,2,1:2:0:0:
216,282,145152,1,8,2:0:0:0:
251,107,145314,5,2,1:2:0:0:
126,308,145477,1,8,2:0:0:0:
359,159,145639,5,6,1:2:0:0:
43,136,145801,1,8,2:0:0:0:
433,205,145963,5,2,1:2:0:0:
117,228,146125,1,8,2:0:0:0:
359,247,146287,5,2,1:2:0:0:
32,155,146450,1,8,2:0:0:0:
359,159,146612,5,8,1:2:0:0:
32,251,146774,1,0,2:0:0:0:
274,345,146936,5,2,1:2:0:0:
246,44,147098,1,0,1:0:0:0:
169,352,147585,5,8,2:0:0:0:
173,341,147666,1,8,2:0:0:0:
177,330,147747,1,8,2:0:0:0:
182,319,147828,1,8,2:0:0:0:
186,308,147909,2,0,L|178:166,1,116.25,0|0,3:0|3:0,2:0:0:0:
14,231,148233,6,0,P|93:258|130:230,1,93,2|0,3:2|2:0,2:0:0:0:
149,94,148558,2,0,P|86:148|91:194,1,93,2|0,3:2|2:0,2:0:0:0:
108,360,148882,1,2,3:2:0:0:
344,222,149044,2,0,B|319:183|319:183|150:193,1,186,2|10,2:0|2:0,2:0:0:0:
265,87,149531,6,0,L|123:95,1,116.25,2|0,3:2|2:0,2:0:0:0:
260,265,149855,2,0,L|264:324,3,46.5,10|8|8|8,3:2|2:0|2:0|2:0,2:0:0:0:
344,222,150179,2,0,L|350:300,1,46.5,10|8,3:2|2:0,2:0:0:0:
354,384,150341,1,0,2:0:0:0:
449,214,150504,2,0,P|386:203|331:223,1,93,8|8,3:2|2:0,2:0:0:0:
89,196,150828,6,0,P|152:185|207:205,1,93,2|0,3:2|2:0,2:0:0:0:
48,367,151152,2,0,L|41:251,1,93,2|0,3:2|2:0,2:0:0:0:
101,91,151477,1,2,3:2:0:0:
260,265,151639,2,0,P|197:276|142:256,1,93,2|0,2:0|3:0,2:0:0:0:
0,191,151963,1,2,2:0:0:0:
218,70,152125,6,0,L|214:129,3,46.5,10|8|10|8,3:2|2:0|2:0|2:0,2:0:0:0:
284,180,152450,1,2,3:2:0:0:
305,188,152531,1,0,3:0:0:0:
328,191,152612,1,0,3:0:0:0:
351,187,152693,1,0,3:0:0:0:
372,177,152774,5,2,3:2:0:0:
394,154,152855,1,0,2:0:0:0:
425,144,152936,1,0,2:0:0:0:
457,148,153017,1,0,2:0:0:0:
484,166,153098,1,0,3:0:0:0:
430,271,153260,1,8,2:0:0:0:
357,75,153423,6,0,P|418:58|470:69,1,93,2|0,3:2|2:0,2:0:0:0:
349,278,153747,2,0,P|302:279|259:264,1,93,10|0,3:2|2:0,2:0:0:0:
218,70,154071,1,2,3:2:0:0:
86,198,154233,2,0,P|132:199|175:184,1,93,2|0,2:0|3:0,2:0:0:0:
283,23,154558,1,10,2:0:0:0:
42,86,154720,6,0,L|101:82,3,46.5,10|0|2|0,3:2|2:0|2:0|2:0,2:0:0:0:
163,140,155044,1,10,3:2:0:0:
170,161,155125,1,8,2:0:0:0:
175,184,155206,1,8,2:0:0:0:
177,207,155287,1,8,2:0:0:0:
176,230,155369,5,2,3:2:0:0:
11,165,155531,1,8,2:0:0:0:
250,132,155693,2,0,P|262:212|258:269,1,93,2|8,3:2|2:0,2:0:0:0:
94,307,156017,6,0,P|157:256|208:231,1,93,2|0,3:2|2:0,2:0:0:0:
327,350,156341,2,0,P|251:320|204:288,1,93,2|8,3:2|2:0,2:0:0:0:
233,116,156666,1,10,3:2:0:0:
355,256,156828,1,8,2:0:0:0:
173,229,156990,1,4,3:2:0:0:
351,138,157152,1,0,2:0:0:0:
253,328,157314,5,6,1:2:0:0:
348,91,157639,2,0,L|351:142,1,46.5,2|0,1:2|2:0,2:0:0:0:
365,76,157801,2,0,L|368:127,1,46.5,2|0,1:2|2:0,2:0:0:0:
382,61,157963,2,0,L|385:112,1,46.5,2|0,1:2|2:0,2:0:0:0:
173,229,158287,6,0,L|166:112,1,93,6|0,3:1|2:0,2:0:0:0:
350,137,158611,2,0,L|344:229,1,93,6|0,1:2|2:0,2:0:0:0:
149,241,158935,6,0,L|142:123,1,93,2|0,3:2|2:0,2:0:0:0:
373,124,159259,2,0,L|367:242,1,93,2|0,1:2|2:0,2:0:0:0:
94,81,159584,6,0,P|157:66|207:90,1,93,6|0,3:2|2:0,2:0:0:0:
423,59,159908,2,0,P|360:44|310:68,1,93,2|0,1:2|2:0,2:0:0:0:
86,69,160232,6,0,P|152:53|205:78,1,93,2|0,3:2|2:0,2:0:0:0:
432,45,160557,2,0,P|365:29|312:54,1,93,2|0,1:2|2:0,2:0:0:0:
60,155,160881,6,0,B|48:200|48:200|59:248,1,93,6|0,3:2|2:0,2:0:0:0:
453,245,161205,2,0,B|464:200|464:200|452:155,1,93,0|0,1:0|2:0,2:0:0:0:
43,151,161530,6,0,B|30:199|30:199|42:252,1,93,0|0,3:0|2:0,2:0:0:0:
470,249,161854,2,0,B|481:199|481:199|468:151,1,93,0|0,1:0|2:0,2:0:0:0:
211,229,162178,6,0,P|258:238|305:228,1,93,0|0,1:0|2:0,2:0:0:0:
313,214,162422,2,0,L|307:121,1,93,0|0,1:0|2:0,2:0:0:0:
322,103,162665,1,0,1:0:0:0:
161,151,162827,1,0,3:0:0:0:
115,135,162908,1,0,3:0:0:0:
115,89,162989,1,0,3:0:0:0:
161,75,163070,1,0,3:0:0:0:
186,113,163151,1,0,1:0:0:0:
388,320,163477,6,0,B|343:356|343:356|235:338|235:338|217:285,1,223.2,4|0,2:0|2:0,2:0:0:0:
209,208,164125,2,0,B|220:183|214:142|214:142|255:183|253:245|203:303,1,223.2,2|0,2:0|2:0,2:0:0:0:
139,313,164774,2,0,B|80:316|38:273|38:273|87:239|145:260,1,223.2,2|0,2:0|2:0,2:0:0:0:
232,357,165422,1,2,2:0:0:0:
232,357,165909,5,0,2:0:0:0:
270,280,166071,2,0,B|318:274|318:274|372:307|372:307|409:268|409:268|471:258,1,223.2,2|0,2:0|2:0,2:0:0:0:
504,179,166720,1,2,2:0:0:0:
504,179,167206,5,0,2:0:0:0:
439,120,167368,2,0,B|408:118|388:94|388:94|410:149|398:205|398:205|368:192|356:158,1,223.2,2|0,2:0|2:0,2:0:0:0:
299,110,168017,2,0,B|201:64|212:186|82:117,1,223.2,2|0,2:0|2:0,2:0:0:0:
83,35,168666,1,2,2:0:0:0:
83,35,169152,5,0,2:0:0:0:
168,28,169314,2,0,B|197:76|197:76|170:264,1,223.2,2|0,2:0|2:0,2:0:0:0:
99,285,169963,2,0,B|114:325|177:338|224:289|224:289|208:237|165:242,1,223.2,2|0,2:0|2:0,2:0:0:0:
60,207,170612,1,2,2:0:0:0:
60,207,171098,5,0,2:0:0:0:
119,142,171260,2,0,L|368:152,1,223.2,2|0,2:0|2:0,2:0:0:0:
408,222,171909,2,0,B|424:238|423:267|393:295|338:289|313:250|313:178|359:125,1,223.2,2|0,2:0|2:0,2:0:0:0:
429,51,172558,5,0,1:0:0:0:
406,365,172720,1,0,1:0:0:0:
335,40,173206,5,0,1:0:0:0:
312,354,173368,1,0,1:0:0:0:
335,40,173693,5,0,2:0:0:0:
481,114,173855,2,0,B|521:160|521:160|330:150,1,241.799988931275,6|0,3:1|1:0,2:0:0:0:
118,186,174341,1,2,2:0:0:0:
123,206,174422,1,0,2:0:0:0:
127,225,174504,1,2,3:2:0:0:
177,25,174666,1,0,3:0:0:0:
316,265,174828,2,0,B|335:206|335:206|318:139,1,120.899994465637,0|2,1:0|2:0,2:0:0:0:
143,334,175152,6,0,B|236:327|236:327|285:362|285:362|400:352,1,241.799988931275,2|0,3:2|1:0,2:0:0:0:
503,207,175639,1,2,2:0:0:0:
222,162,175801,1,2,3:2:0:0:
391,351,175963,1,0,3:0:0:0:
400,77,176125,2,0,L|266:82,1,120.899994465637,0|2,1:0|2:0,2:0:0:0:
38,221,176449,6,0,B|28:263|28:263|175:230|175:230|135:196,1,241.799988931275,6|0,3:2|1:0,2:0:0:0:
218,7,176936,1,2,2:0:0:0:
2,101,177098,1,2,3:2:0:0:
256,242,177260,1,0,3:0:0:0:
91,0,177422,2,0,L|96:133,1,120.899994465637,0|2,1:0|2:0,2:0:0:0:
191,384,177747,5,0,3:0:0:0:
279,82,177909,1,0,3:0:0:0:
38,221,178071,2,0,B|96:239|96:239|171:215,1,120.899994465637,4|0,1:2|2:0,2:0:0:0:
279,82,178395,5,10,3:2:0:0:
437,236,178558,1,8,2:0:0:0:
456,213,178639,1,8,2:0:0:0:
471,186,178720,1,8,2:0:0:0:
479,157,178801,1,8,2:0:0:0:
481,127,178882,1,8,2:0:0:0:
477,98,178963,1,8,2:0:0:0:
466,70,179044,6,0,B|412:50|412:50|349:69,1,116.25,6|0,3:2|2:0,2:0:0:0:
46,70,179368,2,0,B|100:50|100:50|163:69,1,116.25,0|0,1:0|2:0,2:0:0:0:
422,256,179693,6,0,P|404:203|413:123,1,116.25,2|0,3:2|2:0,2:0:0:0:
94,256,180017,2,0,P|112:203|103:123,1,116.25,0|0,1:0|2:0,2:0:0:0:
481,335,180341,6,0,P|419:356|343:313,1,116.25,2|0,3:2|2:0,2:0:0:0:
35,335,180666,2,0,P|97:356|173:313,1,116.25,0|0,1:0|2:0,2:0:0:0:
406,143,180990,6,0,P|424:198|422:256,1,116.25,2|0,3:2|2:0,2:0:0:0:
94,256,181314,2,0,P|91:198|109:143,1,116.25,0|0,1:0|2:0,2:0:0:0:
265,13,181639,6,0,B|266:108|266:108|239:145|239:145|243:287,1,232.5,6|0,3:2|1:0,2:0:0:0:
251,384,182125,1,0,2:0:0:0:
62,253,182287,6,0,L|67:132,1,116.25,2|0,3:2|2:0,2:0:0:0:
448,132,182612,2,0,L|454:253,1,116.25,0|0,1:0|2:0,2:0:0:0:
117,72,182936,6,0,P|46:90|-36:61,1,116.25,2|0,3:2|2:0,2:0:0:0:
399,72,183260,2,0,P|470:90|552:61,1,116.25,0|0,1:0|2:0,2:0:0:0:
97,240,183585,6,0,P|66:173|81:87,1,116.25,2|0,3:2|2:0,2:0:0:0:
419,240,183909,2,0,P|449:173|434:87,1,116.25,0|0,1:0|2:0,2:0:0:0:
169,27,184233,5,6,3:2:0:0:
215,328,184395,1,8,2:0:0:0:
245,34,184558,5,2,1:2:0:0:
291,335,184720,1,8,2:0:0:0:
320,42,184882,5,2,1:2:0:0:
366,342,185044,1,8,2:0:0:0:
131,84,185206,5,2,1:2:0:0:
477,201,185368,1,8,2:0:0:0:
64,192,185531,5,2,1:2:0:0:
425,137,185693,1,8,2:0:0:0:
42,102,185855,5,2,1:2:0:0:
397,209,186017,1,8,2:0:0:0:
148,361,186179,5,2,1:2:0:0:
169,27,186341,1,8,2:0:0:0:
221,355,186504,5,2,1:2:0:0:
350,229,186828,6,0,B|331:203|293:211|293:211|260:246|203:225,2,148.8,2|2|2,2:0|2:0|2:0,2:0:0:0:
145,167,187801,2,0,P|178:214|207:225,1,74.4,2|0,2:0|2:0,2:0:0:0:
225,62,188125,6,0,P|218:129|231:157,1,93,6|0,3:1|2:0,2:0:0:0:
422,279,188449,2,0,P|434:234|424:189,1,93,2|0,1:2|2:0,2:0:0:0:
191,220,188774,1,2,3:2:0:0:
306,361,188936,1,0,3:0:0:0:
393,108,189098,2,0,L|272:103,1,93,2|0,1:2|2:0,2:0:0:0:
115,269,189422,5,2,3:2:0:0:
350,229,189585,1,2,3:2:0:0:
146,78,189747,2,0,P|135:139|151:177,1,93,2|0,1:2|2:0,2:0:0:0:
306,361,190071,5,2,3:2:0:0:
300,104,190233,1,2,3:2:0:0:
104,288,190395,2,0,L|225:283,1,93,2|0,1:2|2:0,2:0:0:0:
145,167,190720,5,2,3:2:0:0:
94,371,190882,1,2,3:2:0:0:
306,361,191044,2,0,L|301:240,1,93,2|0,1:2|2:0,2:0:0:0:
145,167,191368,5,2,3:2:0:0:
182,384,191531,1,2,3:2:0:0:
322,192,191693,1,2,1:2:0:0:
196,284,191855,1,0,2:0:0:0:
434,294,192017,5,2,3:2:0:0:
245,212,192179,1,2,3:2:0:0:
306,361,192341,2,0,P|367:372|405:356,1,93,2|0,1:2|2:0,2:0:0:0:
398,174,192666,5,2,3:2:0:0:
140,75,192828,2,0,B|134:122|134:122|145:170,1,93,0|2,1:0|3:2,2:0:0:0:
306,2,193152,1,0,1:0:0:0:
401,267,193314,6,0,L|396:146,1,93,6|2,3:2|2:0,2:0:0:0:
241,304,193639,2,0,L|244:211,1,93,2|0,1:2|2:0,2:0:0:0:
309,103,193963,1,2,3:2:0:0:
144,166,194125,1,2,3:2:0:0:
327,313,194287,2,0,P|278:294|228:312,1,93,2|0,1:2|2:0,2:0:0:0:
120,384,194612,6,0,P|150:349|155:304,1,93,2|2,3:2|3:2,2:0:0:0:
61,157,194936,2,0,P|69:208|109:243,1,93,2|0,1:2|2:0,2:0:0:0:
244,211,195260,1,2,3:2:0:0:
72,313,195422,1,2,3:2:0:0:
327,313,195585,2,0,L|323:220,1,93,2|0,1:2|2:0,2:0:0:0:
136,83,195909,5,2,3:2:0:0:
155,304,196071,1,2,3:2:0:0:
295,146,196233,2,0,B|277:122|277:122|199:126,1,93,2|0,1:2|2:0,2:0:0:0:
31,164,196558,5,2,3:2:0:0:
323,220,196720,1,2,3:2:0:0:
136,83,196882,1,2,1:2:0:0:
155,304,197044,1,0,2:0:0:0:
214,125,197206,5,2,3:2:0:0:
231,335,197368,1,2,3:2:0:0:
31,164,197531,1,6,1:2:0:0:
0,328,197693,1,0,2:0:0:0:
218,257,197855,5,10,3:2:0:0:
31,164,198017,1,8,2:0:0:0:
25,186,198098,1,8,2:0:0:0:
26,209,198179,1,10,2:0:0:0:
34,231,198260,1,8,2:0:0:0:
47,250,198341,1,8,2:0:0:0:
64,266,198422,1,8,2:0:0:0:
85,275,198504,6,0,L|177:271,1,93,6|0,3:1|2:0,2:0:0:0:
307,129,198828,2,0,L|214:125,1,93,6|0,3:2|2:0,2:0:0:0:
137,352,199152,2,0,L|229:348,1,93,2|0,1:2|2:0,2:0:0:0:
359,206,199476,2,0,L|266:202,1,93,2|0,3:2|2:0,2:0:0:0:
431,251,199801,6,0,P|441:185|418:146,1,93,2|0,3:2|2:0,2:0:0:0:
450,334,200125,2,0,P|503:294|515:250,1,93,2|0,1:2|2:0,2:0:0:0:
358,205,200449,2,0,P|346:249|359:294,1,93,2|0,3:2|2:0,2:0:0:0:
277,314,200774,2,0,P|299:354|340:377,1,93,2|0,3:2|2:0,2:0:0:0:
266,202,201098,6,0,B|223:183|223:183|167:195,1,93,2|0,1:2|2:0,2:0:0:0:
16,205,201422,2,0,B|59:224|59:224|115:212,1,93,6|0,3:2|2:0,2:0:0:0:
140,54,201747,2,0,B|117:105|117:105|131:173,1,93,2|0,3:2|2:0,2:0:0:0:
143,354,202071,2,0,B|165:302|165:302|151:234,1,93,2|0,1:2|2:0,2:0:0:0:
0,101,202395,6,0,L|92:97,1,93,2|0,3:2|2:0,2:0:0:0:
251,270,202720,2,0,L|158:266,1,93,2|0,3:2|2:0,2:0:0:0:
226,115,203044,1,2,1:2:0:0:
380,182,203206,1,0,3:0:0:0:
158,266,203368,1,2,1:2:0:0:
158,266,203693,6,0,P|117:312|168:387,1,139.5,6|0,3:1|2:0,2:0:0:0:
162,366,204017,2,0,L|254:362,1,93,2|0,1:2|2:0,2:0:0:0:
270,379,204260,1,0,2:0:0:0:
270,379,204341,1,2,3:2:0:0:
343,223,204504,1,2,3:2:0:0:
179,185,204666,6,0,B|223:200|223:200|289:183,1,93,2|0,1:2|2:0,2:0:0:0:
113,134,204990,2,0,P|95:178|110:235,1,93,2|2,3:2|3:2,2:0:0:0:
343,223,205314,2,0,P|350:177|332:135,1,93,6|0,1:2|2:0,2:0:0:0:
315,121,205558,1,0,2:0:0:0:
315,121,205639,1,2,3:2:0:0:
262,291,205801,1,2,3:2:0:0:
436,252,205963,1,2,1:2:0:0:
436,252,206287,5,6,2:1:0:0:
430,296,206449,1,2,2:0:0:0:
262,291,206774,5,2,2:0:0:0:
235,254,206936,1,2,2:0:0:0:
193,268,207098,1,2,2:0:0:0:
193,313,207260,1,2,2:0:0:0:
235,327,207422,1,2,2:0:0:0:
316,152,207747,5,2,2:0:0:0:
282,120,207909,1,2,2:0:0:0:
244,147,208071,1,2,2:0:0:0:
207,118,208233,1,2,2:0:0:0:
171,147,208395,1,2,2:0:0:0:
30,278,208720,5,2,2:0:0:0:
73,289,208882,1,2,2:0:0:0:
86,246,209044,1,2,2:0:0:0:
43,235,209206,1,2,2:0:0:0:
30,278,209368,1,2,2:0:0:0:
241,282,209693,5,2,2:0:0:0:
264,319,209855,1,2,2:0:0:0:
220,320,210017,1,2,2:0:0:0:
200,280,210179,1,2,2:0:0:0:
224,242,210341,1,2,2:0:0:0:
371,86,210666,5,2,2:0:0:0:
