osu file format v14

[General]
AudioFilename: 01. Inferno.mp3
AudioLeadIn: 0
PreviewTime: 54666
Countdown: 0
SampleSet: Soft
StackLeniency: 0.2
Mode: 0
LetterboxInBreaks: 0
WidescreenStoryboard: 0

[Editor]
DistanceSpacing: 0.6
BeatDivisor: 4
GridSize: 4
TimelineZoom: 2.5

[Metadata]
Title:Inferno
TitleUnicode:インフェルノ
Artist:Mrs. GREEN APPLE
ArtistUnicode:Mrs. GREEN APPLE
Creator:gokugohan12468
Version:Human-Combustion Prevention Brigade of Pyromaniacs
Source:炎炎ノ消防隊
Tags:Enen no Shouboutai OP Opening 1 one ミセスグリーンアップル Full Version Size Fire Force Attitude KittyAdventure FunnyA milr_ [_white_music_] william_k william k Fall _tranquility -_Frontier_- Frontier shockolatte moph hausenberg Jian Kaguya_Sama Dora- Doraemonelf collab collaboration 髙野清宗 藤澤涼架 山中綾華 大森元貴 若井滉斗 Hiroto Wakai Motoki Omori Ayaka Yamanaka Ryoka Fujisawa Kiyokazu Takano
BeatmapID:2103893
BeatmapSetID:1005253

[Difficulty]
HPDrainRate:6
CircleSize:3.7
OverallDifficulty:9
ApproachRate:9.3
SliderMultiplier:1.75
SliderTickRate:2

[Events]
//Background and Video events
Video,-160,"video.mp4"
0,0,"BG.jpg",0,0
//Break Periods
//Storyboard Layer 0 (Background)
//Storyboard Layer 1 (Fail)
//Storyboard Layer 2 (Pass)
//Storyboard Layer 3 (Foreground)
//Storyboard Layer 4 (Overlay)
//Storyboard Sound Samples

[TimingPoints]
342,324.324324324324,4,2,1,75,1,0
1639,-90.9090909090909,4,2,1,85,0,0
6098,-90.9090909090909,4,2,99,5,0,0
6179,-90.9090909090909,4,2,1,85,0,0
6422,-90.9090909090909,4,2,99,5,0,0
6504,-90.9090909090909,4,2,1,85,0,0
6747,-90.9090909090909,4,2,99,5,0,0
6828,-90.9090909090909,4,2,1,85,0,0
7395,-90.9090909090909,4,2,99,5,0,0
7477,-90.9090909090909,4,2,1,85,0,0
11693,-90.9090909090909,4,2,1,75,0,0
12017,-133.333333333333,4,2,1,85,0,0
13639,-90.9090909090909,4,2,1,85,0,0
13963,-133.333333333333,4,2,1,85,0,0
14612,-117.647058823529,4,2,1,85,0,0
16882,-90.9090909090909,4,2,1,85,0,0
22396,-117.647058823529,4,2,2,60,0,0
27909,-100,4,2,2,60,0,0
28233,-117.647058823529,4,2,2,60,0,0
31395,-117.647058823529,4,2,99,5,0,0
31477,-117.647058823529,4,2,2,60,0,0
32450,-117.647058823529,4,2,1,65,0,0
32774,-100,4,2,1,70,0,0
42504,-100,4,2,1,80,0,0
42828,-200,4,2,1,80,0,0
43152,-133.333333333333,4,2,3,55,0,0
43801,-133.333333333333,4,2,2,55,0,0
44287,-133.333333333333,4,2,3,55,0,0
45098,-133.333333333333,4,2,2,55,0,0
45585,-133.333333333333,4,2,3,55,0,0
46396,-133.333333333333,4,2,2,55,0,0
46558,-133.333333333333,4,2,3,55,0,0
47693,-133.333333333333,4,2,2,55,0,0
47855,-66.6666666666667,4,2,3,55,0,0
48017,-100,4,2,3,55,0,0
48341,-133.333333333333,4,2,3,55,0,0
48990,-133.333333333333,4,2,2,55,0,0
49476,-133.333333333333,4,2,3,55,0,0
50287,-133.333333333333,4,2,2,55,0,0
50774,-133.333333333333,4,2,3,55,0,0
51585,-133.333333333333,4,2,2,55,0,0
51747,-133.333333333333,4,2,3,55,0,0
52233,-100,4,2,2,60,0,0
52477,-100,4,2,3,60,0,0
52639,-100,4,2,2,60,0,0
52720,-100,4,2,3,60,0,0
52801,-100,4,2,99,5,0,0
52882,-66.6666666666667,4,2,2,60,0,0
52963,-66.6666666666667,4,2,99,5,0,0
53044,-66.6666666666667,4,2,3,60,0,0
53206,-66.6666666666667,4,2,2,60,0,0
53287,-66.6666666666667,4,2,99,5,0,0
53369,-66.6666666666667,4,2,2,60,0,0
53450,-66.6666666666667,4,2,99,5,0,0
53531,-100,4,2,3,70,0,0
53693,-100,4,2,2,70,0,0
53774,-100,4,2,3,70,0,0
53936,-100,4,2,2,70,0,0
54017,-100,4,2,3,70,0,0
54179,-100,4,2,2,70,0,0
54422,-100,4,2,99,5,0,0
54504,-1000,4,2,2,75,0,0
54747,-1000,4,2,99,5,0,0
54828,-83.3333333333333,4,2,4,85,0,1
63909,-83.3333333333333,4,2,5,85,0,0
64882,-83.3333333333333,4,2,3,70,0,0
65206,-83.3333333333333,4,2,4,85,0,1
69747,-83.3333333333333,4,2,4,30,0,1
69828,-83.3333333333333,4,2,4,35,0,1
69909,-83.3333333333333,4,2,4,40,0,1
69990,-83.3333333333333,4,2,4,45,0,1
70071,-83.3333333333333,4,2,4,50,0,1
70152,-83.3333333333333,4,2,4,55,0,1
70233,-83.3333333333333,4,2,4,60,0,1
70314,-83.3333333333333,4,2,4,65,0,0
70396,-83.3333333333333,4,2,4,85,0,1
75260,-125,4,2,4,85,0,0
75585,-125,4,2,4,90,0,1
75747,-125,4,2,5,90,0,1
78179,-125,4,2,4,90,0,1
78341,-125,4,2,5,90,0,1
79477,-125,4,2,5,100,0,1
80450,-133.333333333333,4,2,5,100,0,1
80774,-133.333333333333,4,2,6,60,0,0
81423,-133.333333333333,4,2,2,60,0,0
81909,-133.333333333333,4,2,6,60,0,0
82720,-133.333333333333,4,2,2,60,0,0
82882,-133.333333333333,4,2,6,60,0,0
84017,-133.333333333333,4,2,2,60,0,0
84504,-133.333333333333,4,2,6,60,0,0
85314,-133.333333333333,4,2,2,60,0,0
85476,-133.333333333333,4,2,6,60,0,0
86611,-133.333333333333,4,2,2,60,0,0
87098,-133.333333333333,4,2,6,60,0,0
87908,-133.333333333333,4,2,2,60,0,0
88071,-133.333333333333,4,2,6,60,0,0
89206,-133.333333333333,4,2,2,60,0,0
89531,-133.333333333333,4,2,6,60,0,0
89855,-133.333333333333,4,2,2,60,0,0
90341,-133.333333333333,4,2,6,60,0,0
90504,-133.333333333333,4,2,2,60,0,0
90666,-133.333333333333,4,2,6,60,0,0
91152,-100,4,2,1,70,0,0
100882,-100,4,2,1,55,0,0
101531,-133.333333333333,4,2,3,55,0,0
102179,-133.333333333333,4,2,2,55,0,0
102666,-133.333333333333,4,2,3,55,0,0
103476,-133.333333333333,4,2,2,55,0,0
103963,-133.333333333333,4,2,3,55,0,0
104774,-133.333333333333,4,2,2,55,0,0
104936,-133.333333333333,4,2,3,55,0,0
106071,-133.333333333333,4,2,2,55,0,0
106233,-66.6666666666667,4,2,3,55,0,0
106396,-100,4,2,3,55,0,0
106720,-133.333333333333,4,2,3,55,0,0
107369,-133.333333333333,4,2,2,55,0,0
107855,-133.333333333333,4,2,3,55,0,0
108666,-133.333333333333,4,2,2,55,0,0
109152,-133.333333333333,4,2,3,55,0,0
109963,-133.333333333333,4,2,2,55,0,0
110125,-133.333333333333,4,2,3,55,0,0
111260,-133.333333333333,4,2,2,55,0,0
111747,-133.333333333333,4,2,3,55,0,0
111909,-125,4,2,3,60,0,0
112558,-125,4,2,2,60,0,0
112720,-125,4,2,3,60,0,0
113206,-125,4,2,2,60,0,0
114341,-125,4,2,3,60,0,0
115152,-125,4,2,2,60,0,0
115314,-125,4,2,3,60,0,0
115801,-125,4,2,2,60,0,0
116125,-125,4,2,3,60,0,0
116450,-125,4,2,2,60,0,0
116612,-125,4,2,3,60,0,0
117747,-125,4,2,2,60,0,0
117909,-125,4,2,3,60,0,0
119044,-125,4,2,2,60,0,0
119531,-125,4,2,3,60,0,0
119693,-125,4,2,2,60,0,0
120017,-125,4,2,3,60,0,0
120341,-125,4,2,2,60,0,0
120504,-125,4,2,3,60,0,0
120990,-1000,4,2,1,65,0,0
122125,-125,4,2,1,65,0,0
122206,-125,4,2,99,5,0,0
122287,-83.3333333333333,4,2,4,85,0,1
131369,-83.3333333333333,4,2,5,85,0,0
132341,-83.3333333333333,4,2,3,70,0,0
132666,-83.3333333333333,4,2,4,85,0,1
133233,-83.3333333333333,4,2,99,5,0,1
133314,-83.3333333333333,4,2,4,85,0,1
137206,-83.3333333333333,4,2,4,30,0,1
137287,-83.3333333333333,4,2,4,35,0,1
137368,-83.3333333333333,4,2,4,40,0,1
137449,-83.3333333333333,4,2,4,45,0,1
137531,-83.3333333333333,4,2,4,50,0,1
137612,-83.3333333333333,4,2,4,55,0,1
137693,-83.3333333333333,4,2,4,60,0,1
137774,-83.3333333333333,4,2,4,65,0,0
137855,-83.3333333333333,4,2,4,85,0,1
141341,-83.3333333333333,4,2,99,5,0,1
141423,-83.3333333333333,4,2,4,85,0,1
142720,-66.6666666666667,4,2,4,85,0,0
142963,-66.6666666666667,4,2,99,5,0,0
143044,-66.6666666666667,4,2,4,90,0,1
143206,-66.6666666666667,4,2,5,90,0,1
145639,-66.6666666666667,4,2,4,90,0,1
145801,-66.6666666666667,4,2,5,90,0,1
146936,-66.6666666666667,4,2,5,100,0,1
147585,-66.6666666666667,4,2,1,70,0,1
147909,-66.6666666666667,4,2,1,75,0,1
148233,-117.647058823529,4,2,4,75,0,0
148558,-79.9999999999998,4,2,4,75,0,0
149044,-117.647058823529,4,2,4,75,0,0
151071,-117.647058823529,4,2,99,5,0,0
151152,-79.9999999999998,4,2,4,75,0,0
151639,-117.647058823529,4,2,4,75,0,0
153747,-79.9999999999998,4,2,4,75,0,0
154233,-117.647058823529,4,2,4,75,0,0
155531,-79.9999999999998,4,2,4,75,0,0
155936,-79.9999999999998,4,2,99,5,0,0
156017,-125,4,2,4,75,0,0
156990,-125,4,2,2,80,0,0
157314,-100,4,2,4,85,0,0
157639,-62.5,4,2,4,95,0,0
157720,-62.5,4,2,99,5,0,0
157801,-62.5,4,2,4,95,0,0
157882,-62.5,4,2,99,5,0,0
157963,-62.5,4,2,4,95,0,0
158044,-62.5,4,2,99,5,0,0
158287,324.324324324324,4,2,4,75,1,1
158287,-90.9090909090909,4,2,4,75,0,1
158611,-90.9090909090909,4,2,4,75,0,0
160881,-83.3333333333333,4,2,4,75,0,1
162178,-66.6666666666667,4,2,4,65,0,0
162422,-66.6666666666667,4,2,4,70,0,0
162584,-66.6666666666667,4,2,99,5,0,0
162665,-66.6666666666667,4,2,4,80,0,0
162746,-66.6666666666667,4,2,99,5,0,0
162827,-66.6666666666667,4,2,4,70,0,0
163151,-66.6666666666667,4,2,4,85,0,0
163314,-83.3333333333333,4,2,4,85,0,0
163395,-83.3333333333333,4,2,99,5,0,0
163477,324.324324324324,4,2,5,60,1,0
163477,-200,4,2,5,60,0,0
164125,-200,4,2,2,60,0,0
172558,-200,4,2,4,90,0,0
173693,-100,4,2,4,90,0,0
173774,-100,4,2,99,5,0,0
173855,-80,4,2,4,85,0,1
176368,-80,4,2,99,5,0,1
176449,-80,4,2,4,85,0,1
178395,-80,4,2,4,30,0,1
178476,-80,4,2,4,35,0,1
178558,-80,4,2,4,40,0,1
178639,-80,4,2,4,45,0,1
178720,-80,4,2,4,50,0,1
178801,-80,4,2,4,55,0,1
178882,-80,4,2,4,60,0,1
178963,-80,4,2,4,65,0,0
179044,-80,4,2,4,85,0,1
183585,-74.0740740740741,4,2,4,85,0,1
183828,-74.0740740740741,4,2,99,5,0,1
183909,-66.6666666666667,4,2,4,85,0,0
184152,-66.6666666666667,4,2,99,5,0,0
184233,-76.9230769230769,4,2,4,90,0,1
184395,-76.9230769230769,4,2,5,90,0,1
186828,-133.333333333333,4,2,1,80,0,0
187963,-66.6666666666667,4,2,1,80,0,0
188044,-66.6666666666667,4,2,99,5,0,0
188125,-80,4,2,7,85,0,1
192585,-80,4,2,99,5,0,1
192666,-80,4,2,7,85,0,1
192909,-80,4,2,99,5,0,1
192990,-80,4,2,7,85,0,1
193233,-80,4,2,99,5,0,1
193314,-80,4,2,7,85,0,1
197531,-80,4,2,1,85,0,1
197855,-80,4,2,1,30,0,1
197936,-80,4,2,1,35,0,1
198017,-80,4,2,1,40,0,1
198098,-80,4,2,1,45,0,1
198179,-80,4,2,1,50,0,0
198260,-80,4,2,1,55,0,0
198341,-80,4,2,1,60,0,0
198422,-80,4,2,1,65,0,0
198504,-100,4,2,1,85,0,1
198828,-100,4,2,7,85,0,1
200125,-83.3333333333333,4,2,7,85,0,1
200449,-100,4,2,7,85,0,1
201098,-83.3333333333333,4,2,7,85,0,1
201422,-74.0740740740741,4,2,7,85,0,1
201747,-66.6666666666667,4,2,7,85,0,1
202071,-57.1428571428571,4,2,7,85,0,1
202395,-66.6666666666667,4,2,7,85,0,1
202720,-74.0740740740741,4,2,7,85,0,1
203368,-133.333333333333,4,2,7,85,0,0
203693,-80,4,2,1,85,0,1
205314,-80,4,2,7,85,0,1
206287,-80,4,2,1,70,0,0
206449,-117.647058823529,4,2,1,70,0,0
207747,-117.647058823529,4,2,1,75,0,0
208720,-117.647058823529,4,2,1,80,0,0
209693,-117.647058823529,4,2,1,85,0,0
210666,-83.3333333333333,4,2,1,90,0,0
210747,-83.3333333333333,4,2,99,5,0,0

[Colours]
Combo1 : 255,45,45
Combo2 : 0,128,192
Combo3 : 0,215,215
Combo4 : 130,192,255
Combo5 : 255,0,0
Combo6 : 255,128,64
Combo7 : 255,66,66
Combo8 : 255,128,0

[HitObjects]
135,120,342,54,0,P|159:85|204:67,1,87.5,2|0,2:3|2:0,2:0:0:0:
300,150,666,2,0,P|312:191|299:232,1,87.5,2|0,2:3|2:0,2:0:0:0:
215,233,990,2,0,P|202:191|214:150,1,87.5,2|0,2:3|2:0,2:0:0:0:
310,65,1314,2,0,P|353:80|378:115,1,87.5,2|0,2:3|2:0,2:0:0:0:
255,310,1639,54,0,P|164:309|126:222,1,192.500005874634,4|0,3:1|1:0,2:0:0:0:
95,137,2125,1,0,2:0:0:0:
95,137,2206,1,0,2:0:0:0:
95,137,2287,2,0,B|46:154|46:154|2:142,1,96.250002937317,0|0,3:0|3:0,2:0:0:0:
196,54,2612,2,0,L|187:161,1,96.250002937317,0|0,1:0|2:0,2:0:0:0:
45,60,2936,85,0,3:0:0:0:
126,226,3098,1,0,3:0:0:0:
303,10,3260,2,0,P|326:68|317:102,1,96.250002937317,0|0,1:0|2:0,2:0:0:0:
364,201,3504,1,0,2:0:0:0:
364,201,3585,2,0,L|267:195,1,96.250002937317,0|0,3:0|3:0,2:0:0:0:
426,368,3909,2,0,B|444:323|444:323|430:271,1,96.250002937317,0|0,1:0|2:0,2:0:0:0:
364,201,4233,85,0,3:0:0:0:
256,355,4396,1,0,3:0:0:0:
146,131,4558,2,0,L|126:226,1,96.250002937317,0|0,1:0|2:0,2:0:0:0:
148,252,4801,1,0,2:0:0:0:
148,252,4882,53,0,3:0:0:0:
0,307,5044,1,0,3:0:0:0:
31,147,5206,2,0,L|51:52,1,96.250002937317,0|0,1:0|2:0,2:0:0:0:
224,16,5531,86,0,B|264:59|264:59|239:205,1,192.500005874634,0|0,3:0|1:0,2:0:0:0:
146,131,6017,2,0,L|155:81,1,48.1250014686585,0|0,2:0|2:0,2:0:0:0:
224,16,6179,1,0,3:0:0:0:
355,211,6341,2,0,L|347:164,1,48.1250014686585,0|0,1:0|2:0,2:0:0:0:
257,97,6504,1,0,3:0:0:0:
232,357,6666,2,0,L|240:310,1,48.1250014686585,0|0,1:0|2:0,2:0:0:0:
420,380,6828,102,0,P|482:342|490:229,1,192.500005874634,4|0,3:2|1:0,2:0:0:0:
347,164,7314,2,0,L|298:173,1,48.1250014686585,0|0,2:0|2:0,2:0:0:0:
240,310,7477,1,0,3:0:0:0:
146,131,7639,1,0,3:0:0:0:
155,375,7801,2,0,L|55:368,1,96.250002937317,0|0,1:0|2:0,2:0:0:0:
240,310,8125,101,0,3:0:0:0:
255,80,8287,1,0,3:0:0:0:
307,371,8450,2,0,P|330:323|322:272,1,96.250002937317,0|0,1:0|2:0,2:0:0:0:
146,131,8774,53,0,3:0:0:0:
155,375,8936,1,0,3:0:0:0:
395,230,9098,2,0,P|351:197|303:200,1,96.250002937317,0|0,1:0|2:0,2:0:0:0:
491,296,9423,86,0,L|484:102,1,192.500005874634,0|0,3:0|1:0,2:0:0:0:
259,20,9909,1,0,2:0:0:0:
262,44,9990,1,0,2:0:0:0:
266,68,10071,1,0,3:0:0:0:
406,19,10233,1,0,3:0:0:0:
312,197,10396,1,0,1:0:0:0:
136,117,10558,1,0,2:0:0:0:
345,285,10720,21,0,3:0:0:0:
20,200,10882,1,0,3:0:0:0:
295,355,11044,2,0,P|261:315|261:264,1,96.250002937317,4|0,1:2|2:0,2:0:0:0:
312,197,11369,53,0,3:0:0:0:
55,295,11531,1,0,3:0:0:0:
135,116,11693,21,8,2:0:0:0:
155,137,11774,1,8,2:0:0:0:
170,162,11855,1,8,2:0:0:0:
177,190,11936,1,8,2:0:0:0:
177,219,12017,102,0,L|92:210,1,65.6250025033952,4|0,3:1|2:0,2:0:0:0:
55,295,12341,2,0,L|120:302,1,65.6250025033952,0|0,3:0|2:0,2:0:0:0:
240,375,12666,2,0,P|227:330|210:312,1,65.6250025033952,0|0,1:0|2:0,2:0:0:0:
324,324,12990,2,0,P|349:302|364:273,1,65.6250025033952,4|0,3:2|2:0,2:0:0:0:
260,190,13314,22,0,P|265:222|283:249,1,65.6250025033952,0|0,3:0|2:0,2:0:0:0:
428,219,13639,86,0,P|390:191|343:188,1,96.250002937317,0|0,1:0|2:0,2:0:0:0:
475,295,13963,22,0,P|499:273|514:244,1,65.6250025033952,0|0,3:0|2:0,2:0:0:0:
470,100,14287,2,0,P|475:132|494:159,1,65.6250025033952,0|0,3:0|2:0,2:0:0:0:
425,25,14612,86,0,P|395:53|385:89,1,74.3750014185906,0|0,1:0|2:0,2:0:0:0:
245,60,14936,2,0,P|273:90|309:100,1,74.3750014185906,4|0,3:2|2:0,2:0:0:0:
275,245,15260,2,0,P|305:217|315:181,1,74.3750014185906,0|0,3:0|2:0,2:0:0:0:
455,210,15584,2,0,P|427:180|391:170,1,74.3750014185906,0|0,1:0|2:0,2:0:0:0:
180,200,15909,22,0,L|193:348,1,148.750002837181,0|0,3:0|3:0,2:0:0:0:
194,348,16558,85,0,1:0:0:0:
108,116,16720,1,0,3:0:0:0:
78,372,16882,2,0,L|-21:359,1,96.250002937317,0|0,1:0|2:0,2:0:0:0:
180,200,17206,22,0,B|284:224|257:143|366:169,1,192.500005874634,4|0,3:1|1:0,2:0:0:0:
260,60,17693,1,0,2:0:0:0:
251,45,17774,1,0,2:0:0:0:
241,31,17855,2,0,P|210:68|212:115,1,96.250002937317,0|0,3:0|3:0,2:0:0:0:
390,320,18179,2,0,P|364:267|320:253,1,96.250002937317,0|0,1:0|2:0,2:0:0:0:
180,200,18504,85,0,3:0:0:0:
169,384,18666,1,0,3:0:0:0:
115,130,18828,2,0,B|71:111|71:111|19:125,1,96.250002937317,0|0,1:0|2:0,2:0:0:0:
65,210,19071,1,0,2:0:0:0:
65,210,19152,5,0,3:0:0:0:
230,300,19314,1,0,3:0:0:0:
241,31,19477,2,0,B|194:18|194:18|150:37,1,96.250002937317,0|0,1:0|2:0,2:0:0:0:
355,95,19801,86,0,L|367:-2,1,96.250002937317,4|0,3:1|2:0,2:0:0:0:
230,300,20125,2,0,L|218:204,1,96.250002937317,0|0,1:0|2:0,2:0:0:0:
410,330,20450,2,0,P|424:272|412:240,1,96.250002937317,0|0,1:0|2:0,2:0:0:0:
305,179,20774,2,0,P|257:178|218:204,1,96.250002937317,0|0,1:0|2:0,2:0:0:0:
135,370,21098,53,0,1:0:0:0:
100,100,21260,1,0,1:0:0:0:
140,280,21423,1,8,2:0:0:0:
106,282,21504,1,8,2:0:0:0:
76,297,21585,1,8,2:0:0:0:
54,322,21666,1,8,2:0:0:0:
44,354,21747,53,0,1:0:0:0:
20,60,21909,1,0,1:0:0:0:
20,60,22233,1,0,2:0:0:0:
100,99,22396,6,0,P|104:136|125:166,1,74.3750014185906,4|0,3:2|2:0,2:0:0:0:
255,115,22720,2,0,P|212:99|178:106,1,74.3750014185906,2|0,3:2|2:0,2:0:0:0:
165,240,23044,2,0,P|199:210|210:178,1,74.3750014185906,0|0,3:0|2:0,2:0:0:0:
125,166,23369,2,0,P|90:195|79:227,1,74.3750014185906,2|0,3:2|2:0,2:0:0:0:
258,328,23612,1,0,2:0:0:0:
258,328,23693,22,0,P|233:261|165:240,1,148.750002837181,0|2,3:0|3:2,2:0:0:0:
170,325,24179,1,0,2:0:0:0:
258,328,24341,2,0,B|337:354|320:286|402:312,1,148.750002837181,0|2,3:0|3:2,2:0:0:0:
480,365,24828,1,0,2:0:0:0:
480,365,24909,1,0,2:0:0:0:
480,365,24990,22,0,P|492:325|520:305,1,74.3750014185906,0|0,3:0|2:0,2:0:0:0:
440,169,25314,2,0,P|436:205|453:238,1,74.3750014185906,2|0,3:2|2:0,2:0:0:0:
470,85,25639,2,0,P|401:85|352:149,1,148.750002837181,0|2,3:0|3:2,2:0:0:0:
350,235,26125,1,0,2:0:0:0:
308,213,26206,1,0,2:0:0:0:
270,190,26287,5,0,3:0:0:0:
270,290,26450,1,0,2:0:0:0:
270,95,26612,2,0,L|197:111,1,74.3750014185906,2|0,3:2|2:0,2:0:0:0:
91,44,26936,2,0,P|162:48|197:111,1,148.750002837181,0|2,3:0|3:2,2:0:0:0:
110,135,27423,1,0,2:0:0:0:
25,110,27585,38,0,L|18:189,1,74.3750014185906,0|0,3:0|2:0,2:0:0:0:
175,255,27909,22,0,P|142:226|99:223,1,87.5,2|0,3:2|2:0,2:0:0:0:
20,275,28152,1,0,2:0:0:0:
20,275,28233,86,0,L|13:354,1,74.3750014185906,0|0,3:0|2:0,2:0:0:0:
96,384,28558,2,0,L|102:309,1,74.3750014185906,2|0,3:2|2:0,2:0:0:0:
115,215,28801,1,0,2:0:0:0:
100,224,28882,22,0,B|159:232|159:232|188:217|188:217|245:224,1,148.750002837181,0|2,3:0|3:2,2:0:0:0:
205,305,29369,1,0,2:0:0:0:
316,384,29531,2,0,P|356:346|292:303,1,148.750002837181,0|2,3:0|3:2,2:0:0:0:
245,224,30017,1,0,2:0:0:0:
230,195,30098,1,0,2:0:0:0:
255,170,30179,86,0,L|333:177,1,74.3750014185906,0|0,3:0|2:0,2:0:0:0:
450,70,30504,2,0,L|404:134,1,74.3750014185906,2|0,3:2|2:0,2:0:0:0:
440,290,30828,2,0,L|407:218,1,74.3750014185906,0|0,3:0|2:0,2:0:0:0:
330,90,31152,1,2,3:2:0:0:
485,175,31314,2,0,L|501:213,1,37.1875007092953,0|0,2:0|2:0,2:0:0:0:
330,265,31477,21,2,3:2:0:0:
450,70,31639,2,0,P|422:37|391:24,1,74.3750014185906,2|0,2:0|3:0,2:0:0:0:
245,300,31963,85,2,2:0:0:0:
330,90,32125,2,0,P|292:79|253:90,1,74.3750014185906,2|0,3:2|2:0,2:0:0:0:
160,335,32450,53,2,3:0:0:0:
135,115,32612,1,2,2:0:0:0:
75,360,32774,6,0,P|73:313|98:271,1,87.5,6|0,3:1|2:0,2:0:0:0:
0,130,33098,2,0,P|41:151|65:194,1,87.5,2|0,1:2|2:0,2:0:0:0:
240,174,33423,2,0,P|204:199|160:201,1,87.5,2|0,3:2|3:0,2:0:0:0:
350,160,33747,2,0,P|391:181|415:224,1,87.5,2|0,1:2|2:0,2:0:0:0:
285,80,34071,6,0,P|283:33|308:-8,1,87.5,2|0,3:2|3:0,2:0:0:0:
330,245,34396,1,0,1:0:0:0:
180,120,34558,1,2,2:0:0:0:
183,103,34639,1,0,2:0:0:0:
186,87,34720,1,2,3:2:0:0:
230,290,34882,1,0,3:0:0:0:
285,80,35044,2,0,P|316:57|369:57,1,87.5,0|0,1:0|2:0,2:0:0:0:
160,220,35369,86,0,L|55:210,1,87.5,2|2,3:2|3:2,2:0:0:0:
230,290,35693,2,0,L|220:395,1,87.5,2|2,1:2|2:0,2:0:0:0:
310,235,36017,2,0,L|415:245,1,87.5,2|0,3:2|3:0,2:0:0:0:
240,165,36341,2,0,L|250:60,1,87.5,2|2,1:2|2:0,2:0:0:0:
160,220,36585,1,0,2:0:0:0:
160,220,36666,5,2,3:2:0:0:
335,150,36828,1,2,3:2:0:0:
165,10,36990,2,0,L|156:97,1,87.5,2|0,1:2|2:0,2:0:0:0:
141,112,37233,1,0,2:0:0:0:
129,124,37314,1,2,3:2:0:0:
33,105,37477,1,0,3:0:0:0:
310,235,37639,2,0,P|362:236|392:217,1,87.5,2|2,1:2|2:0,2:0:0:0:
495,177,37963,38,0,P|426:233|439:320,1,175,2|2,3:2|1:2,2:0:0:0:
499,377,38450,1,0,2:0:0:0:
395,120,38612,1,2,3:2:0:0:
255,330,38774,1,0,3:0:0:0:
350,40,38936,2,0,L|262:48,1,87.5,2|0,1:2|2:0,2:0:0:0:
115,35,39179,1,0,2:0:0:0:
115,35,39260,21,2,3:2:0:0:
95,180,39423,1,0,3:0:0:0:
245,190,39585,2,0,L|333:182,1,87.5,0|2,1:0|2:0,2:0:0:0:
357,205,39828,1,0,2:0:0:0:
357,205,39909,1,2,3:2:0:0:
255,330,40071,1,0,3:0:0:0:
431,359,40233,2,0,B|446:317|446:317|430:269,1,87.5,0|0,1:0|2:0,2:0:0:0:
395,120,40558,85,2,3:2:0:0:
255,330,40720,1,2,3:2:0:0:
350,40,40882,2,0,L|262:48,1,87.5,2|0,1:2|2:0,2:0:0:0:
95,180,41206,1,2,3:2:0:0:
185,115,41369,1,2,3:2:0:0:
0,125,41531,1,2,1:2:0:0:
100,285,41693,1,2,2:0:0:0:
90,70,41855,21,2,3:2:0:0:
0,245,42017,1,2,3:2:0:0:
195,235,42179,2,0,L|297:245,1,87.5,0|0,1:0|2:0,2:0:0:0:
0,30,42504,85,0,1:0:0:0:
0,30,42828,54,0,P|-5:55|-1:75,1,43.75,0|0,2:0|2:0,2:0:0:0:
90,70,43152,22,0,L|177:61,1,65.6250025033952,4|0,3:2|2:0,2:0:0:0:
250,50,43477,2,0,L|214:129,1,65.6250025033952,0|0,2:0|3:0,2:0:0:0:
185,205,43801,2,0,L|133:134,1,65.6250025033952,0|0,1:0|2:0,2:0:0:0:
155,63,44125,1,0,2:0:0:0:
275,185,44287,1,0,3:0:0:0:
84,260,44450,54,0,P|121:209|185:205,1,131.25000500679,0|0,3:0|2:0,2:0:0:0:
245,275,44936,1,0,2:0:0:0:
275,185,45098,2,0,L|340:190,1,65.6250025033952,0|0,1:0|2:0,2:0:0:0:
395,110,45423,2,0,L|329:104,1,65.6250025033952,0|0,2:0|3:0,2:0:0:0:
430,205,45747,86,0,L|424:271,1,65.6250025033952,0|0,3:0|2:0,2:0:0:0:
485,124,46071,2,0,L|491:58,1,65.6250025033952,0|0,3:0|3:0,2:0:0:0:
340,191,46396,1,0,1:0:0:0:
329,104,46558,2,0,P|272:89|216:138,1,131.25000500679,0|0,3:0|3:0,2:0:0:0:
175,210,47044,22,0,B|108:186|112:236|47:212,1,131.25000500679,0|0,2:0|2:0,2:0:0:0:
78,132,47531,1,0,3:0:0:0:
67,115,47612,1,0,3:0:0:0:
79,97,47693,1,0,1:0:0:0:
123,297,47855,86,0,L|119:348,2,43.7500016689301,0|0|0,3:0|3:0|3:0,2:0:0:0:
143,285,48017,22,0,L|137:375,1,87.5,0|0,3:0|3:0,2:0:0:0:
262,247,48341,22,0,P|272:215|265:181,1,65.6250025033952,0|0,3:0|2:0,2:0:0:0:
350,150,48666,2,0,P|371:174|404:186,1,65.6250025033952,0|0,2:0|3:0,2:0:0:0:
400,275,48990,2,0,P|366:275|337:293,1,65.6250025033952,0|0,1:0|2:0,2:0:0:0:
201,230,49314,2,0,P|233:230|262:247,1,65.6250025033952,0|0,2:0|3:0,2:0:0:0:
132,282,49639,6,0,P|115:254|116:220,1,65.6250025033952,0|0,3:0|2:0,2:0:0:0:
245,185,49963,2,0,P|229:213|201:230,1,65.6250025033952,0|0,2:0|2:0,2:0:0:0:
105,135,50287,2,0,P|136:133|166:149,1,65.6250025033952,0|0,1:0|2:0,2:0:0:0:
295,80,50612,2,0,P|262:78|233:94,1,65.6250025033952,0|0,2:0|3:0,2:0:0:0:
125,0,50936,70,0,P|148:20|158:53,1,65.6250025033952,0|0,3:0|2:0,2:0:0:0:
105,135,51260,1,0,3:0:0:0:
10,110,51423,1,0,3:0:0:0:
135,225,51585,1,0,1:0:0:0:
35,210,51747,2,0,L|44:277,1,65.6250025033952,0|0,3:0|2:0,2:0:0:0:
105,135,52071,1,0,3:0:0:0:
135,225,52233,86,0,P|176:235|219:217,1,87.5,0|2,1:0|1:2,2:0:0:0:
273,158,52477,2,0,P|312:141|354:151,1,87.5,0|2,3:0|1:2,2:0:0:0:
385,226,52720,2,0,P|376:259|379:278,1,43.75,0|0,3:0|2:0,2:0:0:0:
487,343,52882,22,0,L|415:338,1,65.6250025033952,0|0,1:0|2:0,2:0:0:0:
348,379,53044,86,0,L|310:376,3,32.8125012516976,0|0|0|0,3:0|3:0|3:0|3:0,2:0:0:0:
306,354,53206,22,0,L|231:347,1,65.6250025033952,0|0,1:0|2:0,2:0:0:0:
161,379,53369,2,0,L|86:372,1,65.6250025033952,0|0,1:0|2:0,2:0:0:0:
27,313,53531,86,0,P|19:271|39:227,1,87.5,0|2,3:0|1:2,2:0:0:0:
49,144,53774,22,0,P|89:158|117:197,1,87.5,0|2,3:0|1:2,2:0:0:0:
183,246,54017,86,0,P|150:273|102:278,1,87.5,0|2,3:0|1:2,2:0:0:0:
115,192,54260,22,0,P|107:150|127:106,1,87.5,0|0,2:0|2:0,2:0:0:0:
190,159,54504,6,0,P|196:163|204:165,1,13.125,2|0,2:1|2:0,2:0:0:0:
190,159,54828,54,0,B|231:180|272:155|272:155|298:165|298:165|335:136|392:158,1,209.999993591309,6|0,3:1|1:0,2:0:0:0:
509,12,55314,1,2,2:0:0:0:
494,46,55396,1,0,2:0:0:0:
502,83,55477,1,2,3:2:0:0:
350,230,55639,1,0,3:0:0:0:
509,374,55801,2,0,P|482:324|429:298,1,104.999996795654,0|2,1:0|2:0,2:0:0:0:
329,340,56125,5,2,3:2:0:0:
227,83,56287,1,0,3:0:0:0:
333,28,56450,2,0,L|318:138,1,104.999996795654,0|2,1:0|2:0,2:0:0:0:
296,155,56693,1,0,2:0:0:0:
296,155,56774,1,2,3:2:0:0:
105,263,56936,1,0,3:0:0:0:
88,45,57098,2,0,B|38:64|38:64|-13:42,1,104.999996795654,0|2,1:0|2:0,2:0:0:0:
140,140,57423,101,2,3:2:0:0:
168,357,57585,1,0,3:0:0:0:
55,190,57747,2,0,P|17:247|19:284,1,104.999996795654,0|2,1:0|2:0,2:0:0:0:
48,362,57990,1,0,2:0:0:0:
64,372,58071,2,0,L|168:357,1,104.999996795654,2|0,3:2|3:0,2:0:0:0:
312,192,58396,2,0,L|208:207,1,104.999996795654,0|2,1:0|2:0,2:0:0:0:
315,300,58720,54,0,B|396:367|396:367|495:332,1,209.999993591309,2|0,3:2|1:0,2:0:0:0:
500,240,59206,1,0,2:0:0:0:
459,255,59287,1,0,2:0:0:0:
415,268,59369,1,0,3:0:0:0:
333,28,59531,1,0,3:0:0:0:
368,124,59693,2,0,L|264:109,1,104.999996795654,0|2,1:0|2:0,2:0:0:0:
80,130,60017,70,0,P|103:36|210:31,1,209.999993591309,6|0,3:2|1:0,2:0:0:0:
83,234,60504,1,2,2:0:0:0:
54,228,60585,1,0,2:0:0:0:
23,222,60666,1,2,3:2:0:0:
160,100,60828,1,0,3:0:0:0:
122,353,60990,2,0,L|231:342,1,104.999996795654,0|2,1:0|2:0,2:0:0:0:
255,190,61314,38,0,B|366:148|340:249|458:207,1,209.999993591309,2|0,3:2|1:0,2:0:0:0:
425,50,61801,1,2,2:0:0:0:
399,84,61882,1,0,2:0:0:0:
408,125,61963,1,2,3:2:0:0:
300,270,62125,1,0,3:0:0:0:
190,105,62287,2,0,B|181:53|181:53|136:27,1,104.999996795654,0|2,1:0|2:0,2:0:0:0:
50,187,62612,70,0,B|134:179|134:179|172:198|172:198|255:190,1,209.999993591309,2|0,3:2|1:0,2:0:0:0:
130,355,63098,1,2,2:0:0:0:
105,360,63179,1,0,2:0:0:0:
84,363,63260,2,0,P|89:300|116:270,1,104.999996795654,2|0,3:2|3:0,2:0:0:0:
190,105,63585,2,0,L|295:95,1,104.999996795654,4|2,1:2|2:0,2:0:0:0:
246,384,63909,21,2,3:2:0:0:
190,105,64071,1,0,3:0:0:0:
346,384,64558,85,0,3:0:0:0:
295,95,64720,1,0,3:0:0:0:
165,340,64882,1,8,2:0:0:0:
119,364,64963,1,8,2:0:0:0:
67,359,65044,1,10,2:0:0:0:
27,326,65125,1,8,2:0:0:0:
12,276,65206,102,0,L|31:62,1,209.999993591309,6|0,3:1|1:0,2:0:0:0:
254,187,65693,1,2,2:0:0:0:
249,221,65774,1,0,2:0:0:0:
242,260,65855,1,2,3:2:0:0:
239,13,66017,1,0,3:0:0:0:
422,105,66179,2,0,L|403:209,1,104.999996795654,0|2,1:0|2:0,2:0:0:0:
426,235,66423,1,0,2:0:0:0:
426,235,66504,53,2,3:2:0:0:
255,380,66666,1,0,3:0:0:0:
170,160,66828,2,0,P|208:112|252:103,1,104.999996795654,0|2,1:0|2:0,2:0:0:0:
254,187,67071,1,0,2:0:0:0:
254,187,67152,1,2,3:2:0:0:
383,358,67314,1,0,3:0:0:0:
145,340,67477,2,0,L|37:349,1,104.999996795654,0|2,1:0|2:0,2:0:0:0:
25,330,67720,1,0,2:0:0:0:
25,330,67801,70,0,L|246:313,1,209.999993591309,2|0,3:2|1:0,2:0:0:0:
383,358,68287,1,2,2:0:0:0:
383,358,68369,1,0,2:0:0:0:
383,358,68450,1,2,3:2:0:0:
265,186,68612,1,0,3:0:0:0:
493,98,68774,2,0,L|477:207,1,104.999996795654,0|2,1:0|2:0,2:0:0:0:
350,0,69098,21,2,3:2:0:0:
493,98,69260,1,0,3:0:0:0:
367,254,69423,2,0,L|383:358,1,104.999996795654,4|0,1:2|2:0,2:0:0:0:
250,90,69747,86,0,P|242:48|228:34,1,52.4999983978272,10|8,3:2|2:0,2:0:0:0:
150,10,69909,2,0,P|112:28|102:45,1,52.4999983978272,8|8,2:0|2:0,2:0:0:0:
15,48,70071,1,8,2:0:0:0:
66,55,70152,1,8,2:0:0:0:
102,91,70233,1,8,2:0:0:0:
111,142,70314,1,8,2:0:0:0:
87,188,70396,54,0,L|202:180,1,104.999996795654,6|0,3:2|2:0,2:0:0:0:
355,115,70720,2,0,L|305:218,1,104.999996795654,0|0,1:0|2:0,2:0:0:0:
283,384,71044,2,0,L|218:289,1,104.999996795654,2|0,3:2|2:0,2:0:0:0:
420,243,71369,2,0,B|434:292|434:292|414:343,1,104.999996795654,0|0,1:0|2:0,2:0:0:0:
192,180,71693,22,0,B|178:131|178:131|198:80,1,104.999996795654,2|0,3:2|2:0,2:0:0:0:
320,5,72017,2,0,L|440:18,1,104.999996795654,0|0,1:0|2:0,2:0:0:0:
192,180,72341,2,0,L|87:168,1,104.999996795654,2|0,3:2|2:0,2:0:0:0:
310,330,72666,2,0,L|415:342,1,104.999996795654,0|0,1:0|2:0,2:0:0:0:
252,103,72990,22,0,P|208:131|192:180,1,104.999996795654,6|0,3:2|2:0,2:0:0:0:
310,329,73314,2,0,P|307:278|273:239,1,104.999996795654,0|0,1:0|2:0,2:0:0:0:
80,270,73639,2,0,P|125:293|176:284,1,104.999996795654,2|0,3:2|2:0,2:0:0:0:
348,117,73963,2,0,P|302:93|252:102,1,104.999996795654,0|0,1:0|2:0,2:0:0:0:
450,92,74287,102,0,P|493:64|510:15,1,104.999996795654,2|0,3:2|2:0,2:0:0:0:
422,191,74612,2,0,P|438:239|482:267,1,104.999996795654,0|0,1:0|2:0,2:0:0:0:
424,9,74936,2,0,P|375:-4|325:11,1,104.999996795654,2|0,3:2|2:0,2:0:0:0:
152,99,75260,6,0,P|202:87|251:102,1,105,0|0,1:0|2:0,2:0:0:0:
200,175,75585,37,6,3:2:0:0:
310,355,75747,1,8,2:0:0:0:
113,267,75909,1,2,1:2:0:0:
320,213,76071,1,8,2:0:0:0:
176,377,76233,1,2,1:2:0:0:
252,103,76396,1,8,2:0:0:0:
310,355,76558,1,2,1:2:0:0:
175,15,76721,1,8,2:0:0:0:
113,267,76882,53,2,1:2:0:0:
310,0,77044,1,8,2:0:0:0:
176,377,77206,1,2,1:2:0:0:
252,103,77368,1,8,2:0:0:0:
310,355,77531,1,2,1:2:0:0:
175,15,77693,1,8,2:0:0:0:
425,195,77855,1,2,1:2:0:0:
113,267,78017,1,8,2:0:0:0:
310,355,78179,5,6,1:2:0:0:
95,95,78341,1,8,2:0:0:0:
420,310,78504,1,2,1:2:0:0:
33,188,78666,1,8,2:0:0:0:
310,30,78828,1,2,1:2:0:0:
45,347,78990,1,8,2:0:0:0:
512,215,79152,1,2,1:2:0:0:
17,20,79314,1,0,2:0:0:0:
177,353,79477,21,2,1:2:0:0:
310,30,79639,1,0,1:0:0:0:
510,375,80125,85,0,1:0:0:0:
385,82,80287,1,0,1:0:0:0:
300,120,80450,2,0,L|231:111,1,65.6250025033952,0|0,2:0|2:0,2:0:0:0:
385,82,80774,54,0,L|450:73,1,65.6250025033952,6|0,3:2|2:0,2:0:0:0:
380,175,81098,2,0,L|445:166,1,65.6250025033952,0|0,2:0|2:0,2:0:0:0:
300,120,81423,2,0,P|253:163|252:232,1,131.25000500679,2|2,1:2|2:0,2:0:0:0:
335,260,81909,1,0,3:0:0:0:
335,260,82071,6,0,L|332:325,1,65.6250025033952,2|0,3:2|2:0,2:0:0:0:
240,380,82396,2,0,L|242:314,1,65.6250025033952,0|0,3:0|2:0,2:0:0:0:
332,326,82720,1,2,1:2:0:0:
170,265,82882,2,0,P|150:293|122:308,1,65.6250025033952,0|0,3:0|2:0,2:0:0:0:
86,146,83206,1,0,3:0:0:0:
170,175,83369,37,2,3:2:0:0:
95,230,83531,2,0,P|54:227|31:213,1,65.6250025033952,0|0,3:0|2:0,2:0:0:0:
155,85,83855,1,0,3:0:0:0:
240,115,84017,2,0,L|317:107,1,65.6250025033952,2|0,1:2|2:0,2:0:0:0:
170,175,84341,1,0,2:0:0:0:
225,30,84504,1,0,3:0:0:0:
255,200,84666,53,2,3:2:0:0:
155,85,84828,2,0,L|89:91,2,65.6250025033952,0|2|0,2:0|3:2|2:0,2:0:0:0:
225,30,85314,2,0,L|290:23,1,65.6250025033952,2|0,1:2|3:0,2:0:0:0:
375,50,85639,1,0,2:0:0:0:
255,200,85801,1,0,2:0:0:0:
258,216,85882,1,0,2:0:0:0:
260,230,85963,54,0,B|205:224|205:224|185:235|185:235|130:229,2,131.25000500679,2|0|2,3:2|2:0|1:2,2:0:0:0:
260,230,86936,1,0,2:0:0:0:
334,379,87098,1,0,3:0:0:0:
380,300,87260,54,0,B|447:320|445:265|512:289,2,131.25000500679,2|0|2,3:2|3:0|1:2,2:0:0:0:
371,169,88071,2,0,P|396:193|405:228,1,65.6250025033952,0|0,3:0|2:0,2:0:0:0:
319,235,88396,1,0,3:0:0:0:
290,160,88558,21,2,3:2:0:0:
335,90,88720,1,0,3:0:0:0:
235,230,88882,2,0,L|162:223,1,65.6250025033952,2|0,2:0|3:0,2:0:0:0:
255,85,89206,2,0,L|182:78,1,65.6250025033952,2|0,1:2|2:0,2:0:0:0:
101,168,89531,1,2,3:2:0:0:
84,166,89612,1,0,3:0:0:0:
67,164,89693,1,2,3:2:0:0:
50,163,89774,1,0,3:0:0:0:
34,161,89855,21,2,1:2:0:0:
131,382,90017,2,0,L|139:306,1,65.6250025033952,2|0,2:0|2:0,2:0:0:0:
108,47,90341,21,2,3:2:0:0:
228,295,90504,2,0,L|235:230,1,65.6250025033952,2|0,1:2|3:0,2:0:0:0:
255,85,90828,1,2,3:2:0:0:
355,170,90990,1,2,3:2:0:0:
235,230,91152,22,0,L|141:222,1,87.5,6|0,3:1|2:0,2:0:0:0:
355,170,91477,2,0,L|442:177,1,87.5,2|0,1:2|2:0,2:0:0:0:
255,85,91801,1,2,3:2:0:0:
355,295,91963,1,0,3:0:0:0:
170,95,92125,2,0,P|175:50|206:13,1,87.5,2|0,1:2|2:0,2:0:0:0:
235,230,92450,5,2,3:2:0:0:
290,5,92612,1,0,3:0:0:0:
104,160,92774,2,0,L|5:145,1,87.5,0|2,1:0|2:0,2:0:0:0:
22,165,93017,1,0,2:0:0:0:
26,182,93098,1,2,3:2:0:0:
90,350,93260,1,0,3:0:0:0:
235,230,93423,2,0,L|334:215,1,87.5,0|2,1:0|2:0,2:0:0:0:
372,118,93747,5,2,3:2:0:0:
400,270,93909,1,2,3:2:0:0:
430,50,94071,2,0,P|455:86|456:135,1,87.5,2|2,1:2|2:0,2:0:0:0:
345,35,94396,85,2,3:2:0:0:
320,310,94558,1,2,3:2:0:0:
280,100,94720,2,0,P|256:52|259:20,1,87.5,2|2,1:2|2:0,2:0:0:0:
400,270,95044,5,2,3:2:0:0:
345,35,95206,1,2,3:2:0:0:
195,235,95369,1,2,1:2:0:0:
69,73,95531,1,0,2:0:0:0:
69,73,95612,1,0,2:0:0:0:
69,73,95693,2,0,P|119:81|143:111,1,87.5,2|0,3:2|3:0,2:0:0:0:
55,325,96017,2,0,L|65:232,1,87.5,2|2,1:2|2:0,2:0:0:0:
295,195,96341,5,2,3:2:0:0:
255,375,96504,1,0,2:0:0:0:
430,310,96666,2,0,L|418:213,1,87.5,2|0,1:2|2:0,2:0:0:0:
305,108,96990,2,0,L|295:195,1,87.5,2|0,3:2|3:0,2:0:0:0:
460,80,97314,2,0,P|446:32|413:9,1,87.5,2|0,1:2|2:0,2:0:0:0:
165,177,97639,86,0,P|250:172|305:108,1,175,2|0,3:2|1:0,2:0:0:0:
68,71,98125,1,2,2:0:0:0:
68,71,98206,1,0,2:0:0:0:
68,71,98287,1,2,3:2:0:0:
30,300,98449,1,0,3:0:0:0:
270,335,98611,1,0,1:0:0:0:
305,107,98774,1,2,2:0:0:0:
165,177,98936,53,2,3:2:0:0:
180,0,99098,1,2,3:2:0:0:
305,107,99260,1,2,1:2:0:0:
216,93,99423,1,2,2:0:0:0:
213,257,99585,1,2,3:2:0:0:
80,155,99747,1,2,3:2:0:0:
310,250,99909,1,2,1:2:0:0:
275,25,100071,1,2,2:0:0:0:
165,177,100233,21,2,3:2:0:0:
270,335,100396,1,2,3:2:0:0:
400,245,100558,2,0,P|412:202|399:160,1,87.5,2|0,1:3|2:0,2:0:0:0:
170,335,100882,1,8,1:2:0:0:
165,25,101044,85,8,2:0:0:0:
167,37,101125,1,8,2:0:0:0:
169,49,101206,1,8,2:0:0:0:
171,61,101287,1,8,2:0:0:0:
173,74,101369,1,8,2:0:0:0:
175,86,101450,1,8,2:0:0:0:
178,99,101531,22,0,L|105:91,1,65.6250025033952,4|0,3:2|2:0,2:0:0:0:
235,180,101855,2,0,L|273:127,1,65.6250025033952,0|0,2:0|3:0,2:0:0:0:
140,190,102179,2,0,L|166:250,1,65.6250025033952,0|0,1:0|2:0,2:0:0:0:
195,340,102504,1,0,2:0:0:0:
255,270,102666,1,0,3:0:0:0:
105,320,102828,86,0,P|70:295|-12:310,2,131.25000500679,0|0|0,3:0|2:0|1:0,2:0:0:0:
255,270,103639,1,0,2:0:0:0:
105,320,103801,1,0,2:0:0:0:
140,190,103963,1,0,3:0:0:0:
55,185,104125,22,0,P|61:150|83:125,1,65.6250025033952,0|0,3:0|2:0,2:0:0:0:
202,182,104450,2,0,P|172:194|140:190,1,65.6250025033952,0|0,3:0|3:0,2:0:0:0:
125,60,104774,2,0,P|150:80|162:110,1,65.6250025033952,0|0,1:0|3:0,2:0:0:0:
310,100,105098,2,0,P|279:112|247:107,1,65.6250025033952,0|0,2:0|3:0,2:0:0:0:
390,55,105423,86,0,P|394:22|414:-2,1,65.6250025033952,0|0,2:0|2:0,2:0:0:0:
388,142,105747,2,0,P|413:162|425:192,1,65.6250025033952,0|0,2:0|3:0,2:0:0:0:
420,227,105990,1,0,3:0:0:0:
420,227,106071,1,0,1:0:0:0:
350,300,106233,22,0,L|304:289,2,43.7500016689301,0|0|0,3:0|3:0|3:0,2:0:0:0:
360,320,106396,86,0,L|274:300,1,87.5,0|0,3:0|3:0,2:0:0:0:
135,365,106720,22,0,L|198:349,1,65.6250025033952,0|0,3:0|2:0,2:0:0:0:
220,200,107044,2,0,L|201:263,1,65.6250025033952,0|0,2:0|3:0,2:0:0:0:
320,348,107369,2,0,L|275:301,1,65.6250025033952,0|0,1:0|2:0,2:0:0:0:
156,215,107693,2,0,L|220:200,1,65.6250025033952,0|0,2:0|3:0,2:0:0:0:
350,145,108017,86,0,L|331:207,1,65.6250025033952,0|0,3:0|2:0,2:0:0:0:
255,85,108341,2,0,L|209:38,1,65.6250025033952,0|0,2:0|2:0,2:0:0:0:
355,30,108666,2,0,L|418:14,1,65.6250025033952,0|0,1:0|2:0,2:0:0:0:
350,145,108990,2,0,L|331:207,1,65.6250025033952,0|0,2:0|3:0,2:0:0:0:
410,350,109314,22,0,P|434:293|410:228,1,131.25000500679,0|0,3:0|3:0,2:0:0:0:
348,290,109801,1,0,3:0:0:0:
350,145,109963,1,0,1:0:0:0:
325,375,110125,2,0,L|255:370,1,65.6250025033952,0|0,3:0|2:0,2:0:0:0:
180,340,110450,1,0,3:0:0:0:
220,165,110612,86,0,B|255:197|255:197|251:286,1,131.25000500679,4|0,3:2|2:0,2:0:0:0:
165,235,111098,1,0,3:0:0:0:
340,160,111260,2,0,L|337:225,1,65.6250025033952,0|0,1:0|2:0,2:0:0:0:
135,155,111585,1,0,2:0:0:0:
185,80,111747,1,0,3:0:0:0:
165,235,111909,22,0,P|114:192|38:208,1,140,4|0,3:2|3:0,2:0:0:0:
90,275,112396,1,0,3:0:0:0:
165,325,112558,2,0,L|240:319,1,70,0|0,1:0|3:0,2:0:0:0:
255,235,112882,2,0,L|324:229,1,70,0|0,2:0|2:0,2:0:0:0:
375,155,113206,37,0,1:0:0:0:
380,300,113369,2,0,L|449:294,2,70,0|0|0,2:0|1:0|2:0,2:0:0:0:
409,69,113855,2,0,P|440:87|457:116,1,70,0|0,1:0|2:0,2:0:0:0:
450,200,114179,1,0,2:0:0:0:
450,200,114341,1,0,3:0:0:0:
290,150,114504,6,0,L|150:163,1,140,0|0,3:0|3:0,2:0:0:0:
80,110,114990,1,0,3:0:0:0:
155,10,115152,2,0,L|162:84,1,70,0|0,1:0|3:0,2:0:0:0:
70,200,115477,2,0,L|77:274,1,70,0|0,2:0|3:0,2:0:0:0:
25,340,115801,102,0,P|91:355|147:316,1,140,0|0,1:0|3:0,2:0:0:0:
205,245,116287,1,0,3:0:0:0:
235,330,116450,2,0,L|308:327,1,70,0|0,1:0|3:0,2:0:0:0:
274,242,116774,2,0,L|205:245,1,70,0|0,2:0|2:0,2:0:0:0:
365,255,117098,38,0,L|360:115,1,140,4|0,3:2|3:0,2:0:0:0:
285,75,117585,1,0,3:0:0:0:
210,35,117747,2,0,P|199:70|205:105,1,70,0|0,1:0|3:0,2:0:0:0:
360,115,118071,2,0,P|371:80|365:45,1,70,0|0,2:0|2:0,2:0:0:0:
130,150,118396,22,0,P|191:188|255:170,1,140,0|0,3:0|2:0,2:0:0:0:
204,102,118882,1,0,3:0:0:0:
130,60,119044,2,0,L|55:72,1,70,0|0,1:0|2:0,2:0:0:0:
130,150,119369,2,0,L|60:161,1,70,0|0,2:0|3:0,2:0:0:0:
204,102,119693,86,0,B|226:144|226:144|211:239,1,140,0|0,1:0|3:0,2:0:0:0:
180,320,120179,1,0,3:0:0:0:
270,310,120341,1,0,1:0:0:0:
120,250,120504,2,0,L|50:259,1,70,0|0,3:0|2:0,2:0:0:0:
65,135,120828,1,0,3:0:0:0:
80,145,120909,1,0,2:0:0:0:
95,154,120990,22,0,L|130:150,1,35,2|0,2:3|2:0,2:0:0:0:
95,154,122125,86,0,L|133:149,1,35,0|0,2:0|2:0,2:0:0:0:
180,70,122287,22,0,B|223:115|223:115|202:261,1,209.999993591309,6|0,3:1|1:0,2:0:0:0:
120,360,122774,1,2,2:0:0:0:
90,355,122855,1,0,2:0:0:0:
60,350,122936,1,2,3:2:0:0:
95,154,123098,1,0,3:0:0:0:
290,348,123260,2,0,L|306:245,1,104.999996795654,0|2,1:0|2:0,2:0:0:0:
10,240,123585,85,2,3:2:0:0:
180,70,123747,1,0,3:0:0:0:
202,261,123909,2,0,L|305:244,1,104.999996795654,0|2,1:0|2:0,2:0:0:0:
330,219,124152,1,0,2:0:0:0:
330,219,124233,1,2,3:2:0:0:
459,373,124396,1,0,3:0:0:0:
508,198,124558,2,0,P|484:141|436:118,1,104.999996795654,0|2,1:0|2:0,2:0:0:0:
255,5,124882,21,2,3:2:0:0:
330,219,125044,1,0,3:0:0:0:
465,35,125206,2,0,P|421:37|371:79,1,104.999996795654,0|2,1:0|2:0,2:0:0:0:
303,118,125450,1,0,2:0:0:0:
303,118,125531,2,0,L|188:108,1,104.999996795654,2|0,3:2|3:0,2:0:0:0:
97,251,125855,2,0,L|202:261,1,104.999996795654,0|2,1:0|2:0,2:0:0:0:
225,20,126179,6,0,P|131:49|117:152,1,209.999993591309,2|0,3:2|1:0,2:0:0:0:
295,384,126666,1,0,2:0:0:0:
318,346,126747,1,0,2:0:0:0:
296,300,126828,69,0,3:0:0:0:
90,350,126990,1,0,3:0:0:0:
280,200,127152,2,0,L|386:212,1,104.999996795654,0|2,1:0|2:0,2:0:0:0:
198,109,127477,69,6,3:2:0:0:
318,346,127639,1,0,3:0:0:0:
512,108,127801,2,0,P|466:85|414:97,1,104.999996795654,0|2,1:0|2:0,2:0:0:0:
404,109,128044,1,0,2:0:0:0:
405,125,128125,21,2,3:2:0:0:
200,287,128287,1,0,3:0:0:0:
70,40,128450,2,0,B|51:93|51:93|66:140,1,104.999996795654,0|2,1:0|2:0,2:0:0:0:
20,325,128774,53,2,3:2:0:0:
140,90,128936,1,0,3:0:0:0:
170,375,129098,2,0,P|229:373|267:345,1,104.999996795654,0|2,1:0|2:0,2:0:0:0:
322,282,129341,1,0,2:0:0:0:
318,260,129423,2,0,L|424:276,1,104.999996795654,2|0,3:2|3:0,2:0:0:0:
281,50,129747,2,0,B|254:97|254:97|274:150,1,104.999996795654,0|2,1:0|2:0,2:0:0:0:
200,240,130071,102,0,B|78:209|113:297|-3:262,1,209.999993591309,2|0,3:2|1:0,2:0:0:0:
15,120,130558,1,2,2:0:0:0:
23,104,130639,1,0,2:0:0:0:
29,91,130720,2,0,P|57:142|35:196,1,104.999996795654,2|0,3:2|3:0,2:0:0:0:
155,320,131044,2,0,P|131:371|85:388,1,104.999996795654,4|2,1:2|2:0,2:0:0:0:
161,121,131369,85,2,3:2:0:0:
510,200,131531,1,0,3:0:0:0:
161,121,132017,21,0,3:0:0:0:
510,200,132179,1,0,3:0:0:0:
255,23,132341,1,8,2:0:0:0:
291,60,132422,1,8,2:0:0:0:
308,109,132503,1,10,2:0:0:0:
304,161,132584,1,8,2:0:0:0:
278,206,132666,86,0,B|198:213|198:213|165:246|165:246|83:252,1,209.999993591309,6|0,3:1|1:0,2:0:0:0:
235,350,133152,2,0,L|245:292,1,52.4999983978272,2|0,2:0|2:0,2:0:0:0:
125,160,133314,1,2,3:2:0:0:
335,285,133477,1,0,3:0:0:0:
195,25,133639,2,0,B|219:61|219:61|204:133,1,104.999996795654,0|2,1:0|2:0,2:0:0:0:
85,340,133963,21,2,3:2:0:0:
100,60,134125,1,0,3:0:0:0:
244,298,134287,1,0,1:0:0:0:
30,135,134450,1,2,2:0:0:0:
26,155,134531,1,0,2:0:0:0:
23,171,134612,1,2,3:2:0:0:
306,106,134774,1,0,3:0:0:0:
325,355,134936,2,0,L|433:342,1,104.999996795654,0|2,1:0|2:0,2:0:0:0:
225,155,135260,37,2,3:2:0:0:
183,384,135423,1,0,3:0:0:0:
355,175,135585,2,0,P|390:131|389:81,1,104.999996795654,0|2,1:0|2:0,2:0:0:0:
306,106,135828,1,0,2:0:0:0:
307,106,135909,37,2,3:2:0:0:
325,355,136071,1,0,3:0:0:0:
167,233,136233,2,0,L|56:226,1,104.999996795654,0|2,1:0|2:0,2:0:0:0:
325,355,136558,21,2,3:2:0:0:
306,106,136720,1,0,3:0:0:0:
325,355,136882,2,0,L|436:348,1,104.999996795654,4|0,1:2|2:0,2:0:0:0:
394,122,137206,85,10,3:2:0:0:
387,70,137287,1,8,2:0:0:0:
353,31,137368,1,8,2:0:0:0:
304,16,137449,1,8,2:0:0:0:
254,30,137531,2,0,P|234:10|203:0,1,52.4999983978272,8|8,2:0|2:0,2:0:0:0:
95,153,137693,2,0,P|111:173|136:183,1,52.4999983978272,8|8,2:0|2:0,2:0:0:0:
216,129,137855,22,0,P|186:170|136:182,1,104.999996795654,6|0,3:2|2:0,2:0:0:0:
254,360,138179,2,0,P|233:313|247:263,1,104.999996795654,0|0,1:0|2:0,2:0:0:0:
25,290,138504,2,0,P|76:295|112:331,1,104.999996795654,2|0,3:2|2:0,2:0:0:0:
334,221,138828,2,0,P|283:226|247:263,1,104.999996795654,0|0,1:0|2:0,2:0:0:0:
445,360,139152,86,0,P|457:310|435:263,1,104.999996795654,2|0,3:2|2:0,2:0:0:0:
500,100,139477,2,0,P|450:114|421:156,1,104.999996795654,0|0,1:0|2:0,2:0:0:0:
245,181,139801,2,0,P|282:216|334:221,1,104.999996795654,2|0,3:2|2:0,2:0:0:0:
115,145,140125,2,0,P|65:159|36:201,1,104.999996795654,0|0,1:0|2:0,2:0:0:0:
140,365,140450,102,0,L|130:259,1,104.999996795654,6|0,3:2|2:0,2:0:0:0:
236,76,140774,2,0,L|245:181,1,104.999996795654,0|0,1:0|2:0,2:0:0:0:
510,380,141098,54,0,P|493:315|412:294,1,157.499995193482,2|0,3:2|2:0,2:0:0:0:
326,326,141423,2,0,L|335:221,1,104.999996795654,2|0,1:2|2:0,2:0:0:0:
106,40,141747,102,0,L|115:145,1,104.999996795654,2|0,3:2|2:0,2:0:0:0:
425,200,142071,2,0,L|434:95,1,104.999996795654,2|0,1:2|2:0,2:0:0:0:
60,274,142396,2,0,L|69:379,1,104.999996795654,2|0,3:2|2:0,2:0:0:0:
507,53,142720,86,0,P|423:11|353:71,1,196.875007510186,0|0,1:0|2:0,2:0:0:0:
434,95,143044,21,6,3:2:0:0:
370,307,143206,1,8,2:0:0:0:
157,244,143369,1,2,1:2:0:0:
220,31,143531,1,8,2:0:0:0:
445,213,143693,1,2,1:2:0:0:
250,317,143855,1,8,2:0:0:0:
145,124,144017,1,2,1:2:0:0:
340,21,144179,1,8,2:0:0:0:
430,380,144341,85,2,1:2:0:0:
360,10,144504,1,8,2:0:0:0:
182,382,144666,1,2,1:2:0:0:
465,220,144828,1,8,2:0:0:0:
60,100,144990,1,2,1:2:0:0:
430,380,145152,1,8,2:0:0:0:
230,10,145315,1,2,1:2:0:0:
182,382,145477,1,8,2:0:0:0:
445,213,145639,85,6,1:2:0:0:
190,110,145801,1,8,2:0:0:0:
434,95,145963,1,2,1:2:0:0:
119,170,146125,1,8,2:0:0:0:
465,220,146287,1,2,1:2:0:0:
60,100,146450,1,8,2:0:0:0:
457,83,146612,1,8,1:2:0:0:
3,169,146774,1,0,2:0:0:0:
485,225,146936,85,2,1:2:0:0:
5,30,147098,1,0,1:0:0:0:
190,110,147585,53,8,2:0:0:0:
196,141,147666,1,8,2:0:0:0:
201,172,147747,1,8,2:0:0:0:
60,100,147909,1,0,3:0:0:0:
255,20,148071,1,0,3:0:0:0:
60,200,148233,22,0,L|53:274,1,74.3750014185906,2|0,3:2|2:0,2:0:0:0:
176,380,148558,86,0,P|197:317|173:273,1,109.375,2|0,3:2|2:0,2:0:0:0:
15,377,148882,69,2,3:2:0:0:
75,215,149044,2,0,L|68:289,1,74.3750014185906,2|0,2:0|3:0,2:0:0:0:
15,125,149369,1,10,2:0:0:0:
125,120,149531,70,0,B|211:138|178:78|271:99,1,148.750002837181,2|10,3:2|3:2,2:0:0:0:
292,87,149936,1,8,2:0:0:0:
288,123,150017,1,8,2:0:0:0:
284,159,150098,1,8,2:0:0:0:
280,196,150179,38,0,L|354:191,1,74.3750014185906,10|0,3:2|2:0,2:0:0:0:
225,380,150504,1,8,3:2:0:0:
180,255,150666,1,8,2:0:0:0:
320,285,150828,38,0,L|440:276,1,111.562502127886,2|0,3:2|2:0,2:0:0:0:
448,258,151152,22,0,L|421:374,1,109.375,2|0,3:2|2:0,2:0:0:0:
225,380,151477,1,2,3:2:0:0:
280,196,151639,2,0,L|262:123,1,74.3750014185906,2|0,2:0|3:0,2:0:0:0:
305,45,151963,1,2,2:0:0:0:
485,85,152125,86,0,B|448:117|448:117|349:120,1,148.750002837181,10|2,3:2|3:2,2:0:0:0:
356,140,152531,1,0,3:0:0:0:
361,161,152612,1,0,3:0:0:0:
366,183,152693,1,0,3:0:0:0:
372,204,152774,22,0,L|354:277,1,74.3750014185906,2|0,3:2|2:0,2:0:0:0:
405,365,153098,1,0,3:0:0:0:
465,285,153260,1,8,2:0:0:0:
304,364,153423,86,0,P|280:337|245:326,1,74.3750014185906,2|0,3:2|2:0,2:0:0:0:
95,300,153747,70,0,P|131:299|179:233,1,109.375,10|0,3:2|2:0,2:0:0:0:
276,235,154071,37,2,3:2:0:0:
279,165,154233,2,0,P|267:199|276:234,1,74.3750014185906,2|0,2:0|3:0,2:0:0:0:
246,327,154558,1,10,2:0:0:0:
344,54,154720,21,10,3:2:0:0:
311,59,154801,1,0,2:0:0:0:
278,63,154882,1,2,2:0:0:0:
245,68,154963,1,0,2:0:0:0:
211,73,155044,2,0,L|217:26,1,37.1875007092953,10|8,3:2|2:0,2:0:0:0:
149,146,155206,2,0,L|145:182,1,37.1875007092953,8|8,2:0|2:0,2:0:0:0:
111,63,155369,1,2,3:2:0:0:
50,250,155531,86,0,L|61:141,1,109.375,8|2,2:0|3:2,2:0:0:0:
116,8,155855,2,0,L|111:63,1,54.6875,8|0,2:0|2:0,2:0:0:0:
145,182,156017,22,0,B|216:203|216:143|283:166,2,140,2|2|10,3:2|3:2|3:2,2:0:0:0:
260,245,156828,1,8,2:0:0:0:
360,120,156990,2,0,L|370:201,1,70,4|0,3:2|2:0,2:0:0:0:
290,70,157314,86,0,P|328:39|411:50,1,131.25,6|0,1:2|2:0,2:0:0:0:
500,20,157639,102,0,L|491:89,1,70,2|0,1:2|2:0,2:0:0:0:
360,120,157801,54,0,L|370:201,1,70,2|0,1:2|2:0,2:0:0:0:
494,226,157963,86,0,L|484:307,1,70,2|0,1:2|2:0,2:0:0:0:
259,368,158287,86,0,B|246:323|246:323|261:275,1,96.250002937317,6|0,3:1|2:0,2:0:0:0:
89,84,158611,2,0,B|134:95|134:95|168:132,1,96.250002937317,6|0,1:2|2:0,2:0:0:0:
441,75,158935,2,0,B|409:108|409:108|360:120,1,96.250002937317,2|0,3:2|2:0,2:0:0:0:
100,320,159259,2,0,B|111:274|111:274|148:240,1,96.250002937317,2|0,1:2|2:0,2:0:0:0:
210,0,159584,6,0,B|243:32|243:32|254:81,1,96.250002937317,6|0,3:2|2:0,2:0:0:0:
460,235,159908,2,0,B|415:248|415:248|367:233,1,96.250002937317,2|0,1:2|2:0,2:0:0:0:
89,84,160232,2,0,B|134:95|134:95|168:132,1,96.250002937317,2|0,3:2|2:0,2:0:0:0:
441,75,160557,2,0,B|408:108|408:108|359:119,1,96.250002937317,2|0,1:2|2:0,2:0:0:0:
259,368,160881,102,0,B|246:319|246:319|264:267,1,104.999996795654,6|0,3:2|2:0,2:0:0:0:
168,132,161205,2,0,L|51:142,1,104.999996795654,0|0,1:0|2:0,2:0:0:0:
345,20,161530,1,0,3:0:0:0:
264,268,161692,1,0,2:0:0:0:
440,35,161854,1,0,1:0:0:0:
340,325,162016,1,0,2:0:0:0:
440,35,162178,54,0,L|426:183,1,131.25000500679,0|0,1:0|2:0,2:0:0:0:
480,315,162422,86,0,L|358:228,1,131.25000500679,0|0,1:0|2:0,2:0:0:0:
275,180,162665,86,0,L|333:152,1,65.6250025033952,0|0,1:0|2:0,2:0:0:0:
264,268,162827,53,0,3:0:0:0:
227,291,162908,1,0,3:0:0:0:
190,314,162989,1,0,3:0:0:0:
147,304,163070,1,0,3:0:0:0:
105,293,163151,21,0,1:0:0:0:
255,10,163314,2,0,L|207:33,1,52.4999983978272,0|0,2:0|2:0,2:0:0:0:
110,75,163477,102,0,P|70:55|24:62,1,87.5,4|0,2:0|2:0,2:0:0:0:
56,138,163963,1,0,2:0:0:0:
56,138,164125,2,0,P|34:178|41:227,1,87.5,2|0,2:0|2:0,2:0:0:0:
120,194,164612,1,0,2:0:0:0:
120,194,164774,6,0,P|151:225|196:232,1,87.5,2|0,2:0|2:0,2:0:0:0:
285,199,165260,1,0,2:0:0:0:
285,199,165341,1,0,2:0:0:0:
285,199,165422,2,0,L|276:292,1,87.5,2|0,2:0|2:0,2:0:0:0:
339,356,165909,1,0,2:0:0:0:
418,306,166071,70,0,P|453:297|486:255,1,87.5,2|0,2:0|2:0,2:0:0:0:
412,223,166558,1,0,2:0:0:0:
412,223,166720,2,0,P|423:191|412:134,1,87.5,2|0,2:0|2:0,2:0:0:0:
339,181,167206,1,0,2:0:0:0:
339,181,167368,22,0,P|312:141|270:129,1,87.5,2|0,2:0|2:0,2:0:0:0:
192,100,167855,1,0,2:0:0:0:
192,100,167936,1,0,2:0:0:0:
192,100,168017,2,0,L|198:196,1,87.5,2|0,2:0|2:0,2:0:0:0:
141,251,168504,1,0,2:0:0:0:
141,251,168666,6,0,P|105:261|49:237,1,87.5,2|0,2:0|2:0,2:0:0:0:
16,159,169152,1,0,2:0:0:0:
16,159,169314,2,0,P|57:157|93:128,1,87.5,2|0,2:0|2:0,2:0:0:0:
131,51,169801,1,0,2:0:0:0:
131,51,169963,38,0,L|224:57,1,87.5,2|0,2:0|2:0,2:0:0:0:
218,147,170449,1,0,2:0:0:0:
218,147,170612,2,0,L|305:141,1,87.5,2|0,2:0|2:0,2:0:0:0:
372,82,171098,1,0,2:0:0:0:
372,82,171260,54,0,P|411:97|436:142,1,87.5,2|0,2:0|2:0,2:0:0:0:
492,203,171747,1,0,2:0:0:0:
492,203,171909,2,0,P|456:227|441:269,1,87.5,2|0,2:0|2:0,2:0:0:0:
455,353,172395,1,0,2:0:0:0:
150,270,172558,5,0,1:0:0:0:
345,45,172720,1,0,1:0:0:0:
345,45,173206,5,0,1:0:0:0:
150,270,173368,1,0,1:0:0:0:
150,270,173693,70,0,L|143:220,1,43.75,0|0,2:0|2:0,2:0:0:0:
75,140,173855,54,0,B|157:131|157:131|199:152|199:152|292:140,1,218.75,6|0,3:1|1:0,2:0:0:0:
345,45,174341,1,2,2:0:0:0:
365,51,174422,1,0,2:0:0:0:
388,58,174504,1,2,3:2:0:0:
360,320,174666,1,0,3:0:0:0:
491,122,174828,2,0,P|505:60|489:13,1,109.375,0|2,1:0|2:0,2:0:0:0:
320,225,175152,54,0,L|438:234,1,109.375,2|0,3:2|3:0,2:0:0:0:
170,365,175477,1,0,1:0:0:0:
109,128,175639,1,2,2:0:0:0:
93,134,175720,1,0,2:0:0:0:
75,140,175801,1,2,3:2:0:0:
195,20,175963,1,0,3:0:0:0:
320,225,176125,1,0,1:0:0:0:
410,97,176287,2,0,L|471:101,1,54.6875,2|0,2:0|2:0,2:0:0:0:
490,120,176449,70,0,L|263:104,1,218.75,6|0,3:2|1:0,2:0:0:0:
340,372,176936,1,2,2:0:0:0:
340,372,177017,1,0,2:0:0:0:
339,372,177098,2,0,P|381:337|394:285,1,109.375,2|0,3:2|3:0,2:0:0:0:
169,33,177422,2,0,L|176:150,1,109.375,0|2,1:0|2:0,2:0:0:0:
100,345,177747,21,0,3:0:0:0:
169,33,177909,1,0,3:0:0:0:
394,286,178071,2,0,P|449:281|486:231,1,109.375,4|0,1:2|2:0,2:0:0:0:
85,140,178395,86,0,L|88:195,1,54.6875,10|8,3:2|2:0,2:0:0:0:
190,310,178558,2,0,L|187:255,1,54.6875,8|8,2:0|2:0,2:0:0:0:
6,96,178720,1,8,2:0:0:0:
24,45,178801,1,8,2:0:0:0:
67,13,178882,1,8,2:0:0:0:
121,8,178963,1,8,2:0:0:0:
169,33,179044,22,0,L|282:27,1,109.375,6|0,3:2|2:0,2:0:0:0:
500,190,179368,2,0,L|390:195,1,109.375,0|0,1:0|2:0,2:0:0:0:
174,142,179693,2,0,L|283:136,1,109.375,2|0,3:2|2:0,2:0:0:0:
506,299,180017,2,0,L|396:304,1,109.375,0|0,1:0|2:0,2:0:0:0:
380,0,180341,70,0,L|386:113,1,109.375,2|0,3:2|2:0,2:0:0:0:
300,335,180665,2,0,L|294:225,1,109.375,0|0,1:0|2:0,2:0:0:0:
169,33,180990,2,0,L|174:142,1,109.375,2|0,3:2|2:0,2:0:0:0:
88,367,181314,2,0,L|82:257,1,109.375,0|0,1:0|2:0,2:0:0:0:
386,109,181639,38,0,P|414:167|400:217,1,109.375,6|0,3:2|2:0,2:0:0:0:
299,334,181963,2,0,P|245:338|200:308,1,109.375,0|0,1:0|2:0,2:0:0:0:
295,80,182287,2,0,P|331:26|381:13,1,109.375,2|0,3:2|2:0,2:0:0:0:
182,208,182612,2,0,P|208:255|201:309,1,109.375,0|0,1:0|2:0,2:0:0:0:
115,60,182936,86,0,P|61:59|19:26,1,109.375,2|0,3:2|2:0,2:0:0:0:
386,109,183260,2,0,L|378:222,1,109.375,0|0,1:0|2:0,2:0:0:0:
91,354,183585,22,0,L|77:177,1,177.187500675917,2|0,3:2|2:0,2:0:0:0:
115,60,183909,86,0,B|219:106|195:12|302:54,1,196.875007510186,0|0,1:0|2:0,2:0:0:0:
386,109,184233,6,0,P|427:148|481:147,1,113.749994792938,6|8,3:2|2:0,2:0:0:0:
255,370,184558,1,2,1:2:0:0:
302,53,184720,1,8,2:0:0:0:
160,350,184882,1,2,1:2:0:0:
205,30,185044,1,8,2:0:0:0:
65,330,185206,1,2,1:2:0:0:
110,10,185368,1,8,2:0:0:0:
346,384,185531,86,0,B|371:334|371:334|347:278,1,113.749994792938,2|8,1:2|2:0,2:0:0:0:
65,330,185855,1,2,1:2:0:0:
415,195,186017,1,8,2:0:0:0:
110,10,186179,1,2,1:2:0:0:
510,185,186341,1,8,2:0:0:0:
20,250,186504,1,2,1:2:0:0:
205,30,186666,1,8,2:0:0:0:
346,384,186828,6,0,L|418:361,1,65.6250025033952,2|0,2:0|2:0,2:0:0:0:
510,330,187152,2,0,L|454:279,1,65.6250025033952,2|0,2:0|2:0,2:0:0:0:
385,220,187476,2,0,L|368:293,1,65.6250025033952,2|0,2:0|2:0,2:0:0:0:
480,200,187801,1,2,2:0:0:0:
420,130,187963,6,0,P|386:121|359:94,1,65.6250025033952,0|0,2:0|2:0,2:0:0:0:
285,10,188125,86,0,P|327:76|274:204,1,218.75,6|2,3:1|1:2,2:0:0:0:
118,268,188612,1,0,2:0:0:0:
118,268,188693,1,0,2:0:0:0:
118,268,188774,101,2,3:2:0:0:
145,100,188936,1,0,3:0:0:0:
255,370,189098,2,0,L|375:361,1,109.375,2|0,1:2|2:0,2:0:0:0:
500,195,189422,21,2,3:2:0:0:
281,199,189585,1,2,3:2:0:0:
447,123,189747,2,0,P|414:174|417:224,1,109.375,2|0,1:2|2:0,2:0:0:0:
427,248,189990,1,0,2:0:0:0:
450,267,190071,1,2,3:2:0:0:
497,33,190233,1,2,3:2:0:0:
281,199,190395,2,0,P|229:218|175:196,1,109.375,2|0,1:2|2:0,2:0:0:0:
110,98,190720,21,2,3:2:0:0:
140,340,190882,1,2,3:2:0:0:
22,96,191044,2,0,P|40:42|86:14,1,109.375,2|0,1:2|2:0,2:0:0:0:
166,25,191287,1,0,2:0:0:0:
187,47,191368,2,0,L|302:42,1,109.375,2|2,3:2|3:2,2:0:0:0:
60,180,191693,2,0,B|41:235|41:235|56:284,1,109.375,2|0,1:2|2:0,2:0:0:0:
160,350,192017,85,2,3:2:0:0:
187,47,192179,1,2,3:2:0:0:
246,384,192341,1,2,1:2:0:0:
240,296,192504,2,0,L|301:289,1,54.6875,0|0,2:0|2:0,2:0:0:0:
60,180,192666,1,2,3:2:0:0:
295,134,192828,2,0,L|356:127,1,54.6875,0|0,1:0|2:0,2:0:0:0:
150,255,192990,1,2,3:2:0:0:
40,26,193152,2,0,P|70:17|94:19,1,54.6875,0|0,1:0|2:0,2:0:0:0:
225,200,193314,102,0,P|200:143|210:97,1,109.375,6|2,3:2|2:0,2:0:0:0:
317,241,193639,2,0,P|378:247|413:279,1,109.375,2|0,1:2|2:0,2:0:0:0:
240,296,193963,1,2,3:2:0:0:
296,42,194125,1,2,3:2:0:0:
240,296,194287,2,0,P|203:346|158:360,1,109.375,2|0,1:2|2:0,2:0:0:0:
30,215,194531,1,0,2:0:0:0:
15,190,194612,22,0,P|95:169|158:273,1,218.75,2|2,3:2|1:2,2:0:0:0:
35,372,195098,1,0,2:0:0:0:
42,347,195179,1,0,2:0:0:0:
48,324,195260,1,2,3:2:0:0:
100,50,195422,1,2,3:2:0:0:
200,15,195585,2,0,L|187:129,1,109.375,2|0,1:2|2:0,2:0:0:0:
205,150,195828,1,0,2:0:0:0:
205,150,195909,5,2,3:2:0:0:
455,95,196071,1,2,3:2:0:0:
267,283,196233,2,0,L|153:270,1,109.375,2|0,1:2|2:0,2:0:0:0:
310,40,196558,1,2,3:2:0:0:
450,250,196720,1,2,3:2:0:0:
296,384,196882,2,0,L|182:371,1,109.375,2|0,1:2|2:0,2:0:0:0:
310,40,197206,85,2,3:2:0:0:
420,375,197368,1,2,3:2:0:0:
226,1,197531,2,0,P|204:51|221:113,1,109.375,6|0,1:2|2:0,2:0:0:0:
450,250,197855,21,10,3:2:0:0:
404,219,197936,1,8,2:0:0:0:
351,209,198017,1,8,2:0:0:0:
299,224,198098,1,8,2:0:0:0:
256,257,198179,1,10,2:0:0:0:
215,293,198260,1,8,2:0:0:0:
165,313,198341,1,8,2:0:0:0:
111,308,198422,1,8,2:0:0:0:
63,282,198504,86,0,P|83:241|76:195,1,87.5,6|0,3:1|2:0,2:0:0:0:
0,30,198828,2,0,P|25:67|68:84,1,87.5,6|0,3:2|2:0,2:0:0:0:
240,95,199152,2,0,P|194:98|158:127,1,87.5,2|0,1:2|2:0,2:0:0:0:
350,125,199476,2,0,L|346:32,1,87.5,2|0,3:2|2:0,2:0:0:0:
270,200,199801,38,0,L|273:287,1,87.5,2|0,3:2|2:0,2:0:0:0:
470,280,200125,70,0,P|423:237|361:245,1,104.999996795654,2|0,1:2|2:0,2:0:0:0:
206,338,200449,22,0,P|246:321|273:287,1,87.5,2|0,3:2|2:0,2:0:0:0:
100,200,200774,2,0,P|90:242|103:283,1,87.5,2|0,3:2|2:0,2:0:0:0:
130,95,201098,6,0,L|19:103,1,104.999996795654,2|0,1:2|2:0,2:0:0:0:
200,170,201422,54,0,L|253:59,1,118.125000450611,6|0,3:2|2:0,2:0:0:0:
100,200,201747,6,0,L|181:319,1,131.25000500679,2|0,3:2|2:0,2:0:0:0:
352,157,202071,22,0,L|200:170,1,153.125001460314,2|0,1:2|2:0,2:0:0:0:
245,380,202395,22,0,L|301:261,1,131.25000500679,2|0,3:2|2:0,2:0:0:0:
352,157,202720,6,0,L|418:255,1,118.125000450611,2|0,3:2|2:0,2:0:0:0:
479,324,202963,1,0,2:0:0:0:
479,324,203044,5,2,1:2:0:0:
200,170,203206,1,0,3:0:0:0:
510,10,203368,22,0,P|522:63|509:106,1,98.4375037550928,2|0,1:2|2:0,2:0:0:0:
433,57,203693,22,0,B|301:18|349:108|223:68,1,218.75,6|2,3:1|1:2,2:0:0:0:
0,0,204179,1,0,2:0:0:0:
21,36,204260,1,0,2:0:0:0:
12,78,204341,1,2,3:2:0:0:
58,292,204504,1,2,3:2:0:0:
223,68,204666,2,0,B|238:101|238:101|229:173,1,109.375,2|0,1:2|2:0,2:0:0:0:
35,185,204990,85,2,3:2:0:0:
310,20,205152,1,2,3:2:0:0:
425,300,205314,2,0,L|316:289,1,109.375,6|0,1:2|2:0,2:0:0:0:
265,360,205558,1,0,2:0:0:0:
259,369,205639,21,2,3:2:0:0:
125,125,205801,1,2,3:2:0:0:
455,10,205963,2,0,P|473:63|458:116,1,109.375,2|0,1:2|2:0,2:0:0:0:
316,289,206287,85,6,2:1:0:0:
259,369,206449,2,0,L|185:360,1,74.3750014185906,2|0,2:0|2:0,2:0:0:0:
394,315,206774,1,2,2:0:0:0:
442,248,206936,1,2,2:0:0:0:
394,182,207098,101,2,2:0:0:0:
316,207,207260,1,2,2:0:0:0:
316,289,207422,1,2,2:0:0:0:
316,207,207585,1,0,2:0:0:0:
398,328,207747,53,2,2:0:0:0:
455,247,207909,1,2,2:0:0:0:
398,168,208071,1,2,2:0:0:0:
304,198,208233,1,2,2:0:0:0:
304,297,208395,85,2,2:0:0:0:
304,198,208558,1,0,2:0:0:0:
403,344,208720,1,2,2:0:0:0:
472,247,208882,1,2,2:0:0:0:
403,152,209044,5,2,2:0:0:0:
291,188,209206,1,2,2:0:0:0:
291,306,209368,1,2,2:0:0:0:
291,188,209531,1,0,2:0:0:0:
409,361,209693,101,2,2:0:0:0:
490,247,209855,1,2,2:0:0:0:
409,135,210017,1,2,2:0:0:0:
276,178,210179,1,2,2:0:0:0:
276,317,210341,21,2,2:0:0:0:
276,178,210504,1,0,2:0:0:0:
409,361,210666,54,0,L|461:357,1,52.4999983978272,2|0,2:0|2:0,2:0:0:0:
