osu file format v14

[General]
AudioFilename: 01. Inferno.mp3
AudioLeadIn: 0
PreviewTime: 54666
Countdown: 0
SampleSet: Soft
StackLeniency: 0.2
Mode: 0
LetterboxInBreaks: 0
WidescreenStoryboard: 0

[Editor]
Bookmarks: 342,101531,173855,179044,210666
DistanceSpacing: 1.1
BeatDivisor: 4
GridSize: 4
TimelineZoom: 2.5

[Metadata]
Title:Inferno
TitleUnicode:インフェルノ
Artist:Mrs. GREEN APPLE
ArtistUnicode:Mrs. GREEN APPLE
Creator:gokugohan12468
Version:FunnyAdventure's Easy
Source:炎炎ノ消防隊
Tags:Enen no Shouboutai OP Opening 1 one ミセスグリーンアップル Full Version Size Fire Force Attitude KittyAdventure FunnyA milr_ [_white_music_] william_k william k Fall _tranquility -_Frontier_- Frontier shockolatte moph hausenberg Jian Kaguya_Sama Dora- Doraemonelf collab collaboration 髙野清宗 藤澤涼架 山中綾華 大森元貴 若井滉斗 Hiroto Wakai Motoki Omori Ayaka Yamanaka Ryoka Fujisawa Kiyokazu Takano
BeatmapID:2148500
BeatmapSetID:1005253

[Difficulty]
HPDrainRate:2
CircleSize:3
OverallDifficulty:2
ApproachRate:3
SliderMultiplier:0.800000005960464
SliderTickRate:1

[Events]
//Background and Video events
Video,-160,"video.mp4"
0,0,"FunnyAdventure's BG.jpg",0,0
//Break Periods
2,163676,171118
//Storyboard Layer 0 (Background)
//Storyboard Layer 1 (Fail)
//Storyboard Layer 2 (Pass)
//Storyboard Layer 3 (Foreground)
//Storyboard Layer 4 (Overlay)
//Storyboard Sound Samples

[TimingPoints]
342,324.324324324324,4,2,1,75,1,0
1639,-100,4,2,1,85,0,0
11693,-100,4,2,1,75,0,0
12017,-100,4,2,1,85,0,0
22396,-100,4,2,2,60,0,0
32450,-100,4,2,1,65,0,0
32774,-100,4,2,1,70,0,0
42503,-100,4,2,1,80,0,0
43152,-100,4,2,3,55,0,0
45098,-100,4,2,2,55,0,0
45747,-100,4,2,3,55,0,0
47693,-100,4,2,2,55,0,0
48341,-100,4,2,3,55,0,0
52233,-100,4,2,2,60,0,0
53531,-100,4,2,3,70,0,0
54503,-100,4,2,2,75,0,0
54828,-100,4,2,4,85,0,1
63909,-100,4,2,5,85,0,0
64882,-100,4,2,3,70,0,0
65206,-100,4,2,4,85,0,1
69747,-100,4,2,4,30,0,1
70071,-100,4,2,4,50,0,1
70396,-100,4,2,4,85,0,1
75585,-100,4,2,4,90,0,1
79477,-100,4,2,4,100,0,0
80774,-100,4,2,6,60,0,0
81422,-100,4,2,2,60,0,0
82071,-100,4,2,6,60,0,0
82719,-100,4,2,2,60,0,0
83369,-100,4,2,6,60,0,0
84017,-100,4,2,2,60,0,0
84666,-100,4,2,6,60,0,0
85314,-100,4,2,2,60,0,0
85963,-100,4,2,6,60,0,0
86611,-100,4,2,2,60,0,0
87260,-100,4,2,6,60,0,0
87908,-100,4,2,2,60,0,0
88558,-100,4,2,6,60,0,0
89206,-100,4,2,2,60,0,0
89531,-100,4,2,6,60,0,0
89855,-100,4,2,2,60,0,0
90828,-100,4,2,6,60,0,0
91152,-100,4,2,1,70,0,0
100881,-100,4,2,1,55,0,0
101531,-100,4,2,3,55,0,0
102179,-100,4,2,2,55,0,0
102828,-100,4,2,3,55,0,0
103477,-100,4,2,2,55,0,0
104125,-100,4,2,3,55,0,0
104773,-100,4,2,2,55,0,0
106395,-100,4,2,3,55,0,0
107368,-100,4,2,2,55,0,0
108017,-100,4,2,3,55,0,0
108665,-100,4,2,2,55,0,0
109314,-100,4,2,3,55,0,0
109962,-100,4,2,2,55,0,0
110612,-100,4,2,3,55,0,0
111260,-100,4,2,2,55,0,0
111909,-100,4,2,3,60,0,0
112557,-100,4,2,2,60,0,0
114504,-100,4,2,3,60,0,0
115152,-100,4,2,2,60,0,0
117098,-100,4,2,3,60,0,0
117746,-100,4,2,2,60,0,0
118396,-100,4,2,3,60,0,0
119044,-100,4,2,2,60,0,0
120990,-100,4,2,1,65,0,0
122287,-100,4,2,4,85,0,1
131369,-100,4,2,5,85,0,0
132341,-100,4,2,3,70,0,0
132666,-100,4,2,4,85,0,1
137206,-100,4,2,4,30,0,1
137531,-100,4,2,4,50,0,1
137855,-100,4,2,4,85,0,1
143044,-100,4,2,4,90,0,1
146611,-100,4,2,5,90,0,1
146936,-100,4,2,5,100,0,0
147585,-100,4,2,1,70,0,0
147909,-100,4,2,1,75,0,0
148233,-100,4,2,4,75,0,0
157314,-100,4,2,4,85,0,0
157639,-100,4,2,4,95,0,0
158287,324.324324324324,4,2,4,75,1,0
162178,-100,4,2,4,65,0,0
162826,-100,4,2,4,70,0,0
163151,-100,4,2,4,85,0,0
163476,-100,4,2,5,60,0,0
163477,324.324324324324,4,2,5,60,1,0
172558,-100,4,2,5,90,0,0
173855,-100,4,2,4,85,0,1
178395,-100,4,2,4,30,0,1
178719,-100,4,2,4,50,0,1
179044,-100,4,2,4,85,0,1
184233,-100,4,2,4,90,0,1
186828,-100,4,2,1,80,0,0
188125,-100,4,2,7,85,0,0
197530,-100,4,2,1,85,0,0
197854,-100,4,2,1,30,0,0
198179,-100,4,2,1,50,0,0
198504,-100,4,2,1,85,0,0
198828,-100,4,2,7,85,0,0
203693,-100,4,2,1,85,0,0
206287,-100,4,2,1,70,0,0
210666,-100,4,2,1,90,0,0

[Colours]
Combo1 : 255,45,45
Combo2 : 0,128,192
Combo3 : 0,215,215
Combo4 : 130,192,255
Combo5 : 255,0,0
Combo6 : 255,128,64
Combo7 : 255,66,66
Combo8 : 255,128,0

[HitObjects]
78,80,342,6,0,P|103:60|167:63,1,80.0000005960464,2|2,2:3|2:3,2:0:0:0:
217,111,990,2,0,P|220:155|195:192,1,80.0000005960464,2|2,2:3|2:3,2:0:0:0:
254,256,1639,6,0,P|294:239|343:246,2,80.0000005960464,4|0|0,3:1|1:0|3:0,2:0:0:0:
167,272,2612,1,0,1:0:0:0:
112,203,2936,2,0,L|19:214,2,80.0000005960464,0|0|0,3:0|1:0|3:0,2:0:0:0:
104,115,3909,1,0,1:0:0:0:
92,27,4233,6,0,L|181:16,1,80.0000005960464,0|0,3:0|1:0,2:0:0:0:
211,95,4882,2,0,L|300:84,1,80.0000005960464,0|0,3:0|1:0,2:0:0:0:
346,17,5531,2,0,P|409:34|443:116,2,160.000001192093,0|0|4,3:0|3:0|3:2,2:0:0:0:
290,85,7152,5,0,1:0:0:0:
339,157,7477,2,0,L|334:252,1,80.0000005960464,0|0,3:0|1:0,2:0:0:0:
249,259,8125,2,0,L|244:354,1,80.0000005960464,0|0,3:0|1:0,2:0:0:0:
162,371,8774,2,0,P|120:357|97:317,1,80.0000005960464,0|0,3:0|1:0,2:0:0:0:
19,292,9423,6,0,P|37:244|77:222,1,80.0000005960464,0|0,3:0|1:0,2:0:0:0:
52,140,10071,2,0,L|134:149,1,80.0000005960464,0|0,3:0|1:0,2:0:0:0:
185,79,10720,2,0,B|226:71|226:71|261:92,1,80.0000005960464,0|4,3:0|1:2,2:0:0:0:
287,174,11369,2,0,B|319:154|319:154|360:162,1,80.0000005960464,0|8,3:0|2:0,2:0:0:0:
439,122,12017,6,0,P|400:171|419:266,1,160.000001192093,4|0,3:1|1:0,2:0:0:0:
407,349,12990,1,4,3:2:0:0:
330,306,13314,2,0,B|277:293|294:324|237:312,1,80.0000005960464,0|0,3:0|1:0,2:0:0:0:
176,359,13963,2,0,B|124:369|141:338|88:351,1,80.0000005960464,0|0,3:0|3:0,2:0:0:0:
35,287,14612,6,0,P|36:246|131:193,1,160.000001192093,0|0,1:0|3:0,2:0:0:0:
175,117,15585,1,0,1:0:0:0:
233,182,15909,2,0,B|321:208|292:136|392:164,1,160.000001192093,0|0,3:0|1:0,2:0:0:0:
460,116,16882,1,0,1:0:0:0:
466,203,17206,6,0,P|409:212|409:308,1,160.000001192093,4|0,3:1|3:0,2:0:0:0:
335,359,18179,1,0,1:0:0:0:
262,308,18504,2,0,B|204:314|204:314|177:296|177:296|102:303,1,160.000001192093,0|0,3:0|3:0,2:0:0:0:
45,240,19477,1,0,1:0:0:0:
101,172,19801,6,0,L|182:180,1,80.0000005960464,4|0,3:1|1:0,2:0:0:0:
198,93,20450,2,0,L|277:85,1,80.0000005960464,0|0,1:0|1:0,2:0:0:0:
328,13,21098,2,0,P|396:35|422:117,1,160.000001192093,0|0,1:0|1:0,2:0:0:0:
492,275,22396,6,0,L|404:268,1,80.0000005960464,4|2,3:2|3:2,2:0:0:0:
347,328,23044,2,0,L|259:321,1,80.0000005960464,0|2,3:0|3:2,2:0:0:0:
185,355,23693,2,0,P|139:313|146:212,1,160.000001192093,0|0,3:0|3:0,2:0:0:0:
205,161,24666,1,2,3:2:0:0:
137,104,24990,6,0,L|167:20,1,80.0000005960464,0|2,3:0|3:2,2:0:0:0:
252,28,25639,2,0,L|278:103,1,80.0000005960464,0|2,3:0|3:2,2:0:0:0:
350,154,26287,2,0,P|392:119|494:168,1,160.000001192093,0|0,3:0|3:0,2:0:0:0:
455,232,27260,1,2,3:2:0:0:
499,307,27585,6,0,P|484:349|456:371,1,80.0000005960464,0|2,3:0|3:2,2:0:0:0:
369,370,28233,2,0,P|339:344|327:306,1,80.0000005960464,0|2,3:0|3:2,2:0:0:0:
270,238,28882,2,0,B|172:212|205:277|106:242,1,160.000001192093,0|0,3:0|3:0,2:0:0:0:
45,190,29855,1,2,3:2:0:0:
121,146,30179,6,0,P|113:99|126:67,1,80.0000005960464,0|2,3:0|3:2,2:0:0:0:
202,110,30828,2,0,P|234:72|265:67,1,80.0000005960464,0|2,3:0|3:2,2:0:0:0:
341,28,31477,2,0,P|306:58|304:178,1,160.000001192093,2|2,3:2|3:2,2:0:0:0:
356,230,32450,1,2,3:0:0:0:
307,303,32774,6,0,P|261:289|226:298,1,80.0000005960464,6|2,3:1|1:2,2:0:0:0:
144,313,33423,2,0,P|141:273|159:238,1,80.0000005960464,2|2,3:2|1:2,2:0:0:0:
135,153,34071,2,0,P|86:143|48:47,1,160.000001192093,2|2,3:2|3:2,2:0:0:0:
134,65,35044,1,0,1:0:0:0:
214,101,35369,6,0,L|304:89,1,80.0000005960464,2|2,3:2|1:2,2:0:0:0:
347,21,36017,2,0,L|426:31,1,80.0000005960464,2|2,3:2|1:2,2:0:0:0:
497,84,36666,2,0,P|493:130|471:159,1,80.0000005960464,2|2,3:2|1:2,2:0:0:0:
396,197,37314,2,0,P|411:241|403:278,1,80.0000005960464,2|2,3:2|1:2,2:0:0:0:
347,339,37963,6,0,L|262:333,1,80.0000005960464,2|2,3:2|1:2,2:0:0:0:
182,359,38612,2,0,P|180:313|206:269,1,80.0000005960464,2|2,3:2|1:2,2:0:0:0:
238,207,39260,2,0,P|178:236|93:194,1,160.000001192093,2|2,3:2|3:2,2:0:0:0:
31,142,40233,1,0,1:0:0:0:
99,85,40558,6,0,B|135:65|135:65|171:87,1,80.0000005960464,2|2,3:2|1:2,2:0:0:0:
254,68,41206,2,0,B|290:88|290:88|323:67,1,80.0000005960464,2|2,3:2|1:2,2:0:0:0:
400,25,41855,2,0,P|458:55|472:160,1,160.000001192093,2|0,3:2|1:0,2:0:0:0:
504,316,43152,6,0,B|425:369|352:305|352:305|292:376|206:332,1,320.000002384186,4|0,3:2|3:0,2:0:0:0:
110,193,45098,1,0,1:0:0:0:
216,52,45747,2,0,P|291:32|304:222,1,320.000002384186,0|0,3:0|2:0,2:0:0:0:
199,335,47693,1,0,1:0:0:0:
95,193,48341,5,0,3:0:0:0:
256,192,48504,12,0,52233,1:0:0:0:
201,45,53531,6,0,P|111:46|44:168,1,240.000001788139,0|2,3:0|2:1,2:0:0:0:
126,195,54828,6,0,P|151:229|154:273,1,80.0000005960464,6|0,3:1|1:0,2:0:0:0:
243,265,55477,2,0,P|248:225|272:194,1,80.0000005960464,2|0,3:2|1:0,2:0:0:0:
358,175,56125,2,0,P|394:190|418:221,1,80.0000005960464,2|0,3:2|1:0,2:0:0:0:
492,269,56774,2,0,P|467:300|431:315,1,80.0000005960464,2|0,3:2|1:0,2:0:0:0:
366,375,57423,6,0,P|331:332|224:331,1,160.000001192093,2|2,3:2|3:2,2:0:0:0:
157,373,58396,1,0,1:0:0:0:
152,285,58720,2,0,P|71:285|25:222,1,160.000001192093,2|0,3:2|3:0,2:0:0:0:
111,205,59693,1,0,1:0:0:0:
64,130,60017,6,0,P|58:94|74:48,1,80.0000005960464,6|0,3:2|1:0,2:0:0:0:
146,97,60666,2,0,P|177:62|213:53,1,80.0000005960464,2|0,3:2|1:0,2:0:0:0:
223,139,61314,2,0,P|263:140|298:167,1,80.0000005960464,2|0,3:2|1:0,2:0:0:0:
235,227,61963,2,0,P|231:273|211:303,1,80.0000005960464,2|0,3:2|1:0,2:0:0:0:
160,371,62612,6,0,P|236:328|307:356,1,160.000001192093,2|2,3:2|3:2,2:0:0:0:
386,331,63585,1,4,1:2:0:0:
405,245,63909,2,0,L|399:196,1,40.0000002980232,2|0,3:2|3:0,2:0:0:0:
470,93,64558,2,0,L|464:44,2,40.0000002980232,0|0|8,3:0|3:0|2:0,2:0:0:0:
382,83,65206,6,0,L|372:2,1,80.0000005960464,6|0,3:1|1:0,2:0:0:0:
285,17,65855,2,0,L|294:96,1,80.0000005960464,2|0,3:2|1:0,2:0:0:0:
234,161,66504,2,0,L|224:240,1,80.0000005960464,2|0,3:2|1:0,2:0:0:0:
137,227,67153,2,0,L|146:147,1,80.0000005960464,2|0,3:2|1:0,2:0:0:0:
71,102,67801,6,0,P|31:172|50:253,1,160.000001192093,2|2,3:2|3:2,2:0:0:0:
8,326,68774,1,0,1:0:0:0:
95,328,69098,2,0,L|179:335,1,80.0000005960464,2|4,3:2|1:2,2:0:0:0:
247,284,69747,2,0,L|331:291,1,80.0000005960464,10|8,3:2|2:0,2:0:0:0:
394,346,70396,6,0,P|464:328|504:232,1,160.000001192093,6|2,3:2|3:2,2:0:0:0:
445,190,71369,1,0,1:0:0:0:
506,126,71693,2,0,B|439:164|415:93|348:135,1,160.000001192093,2|2,3:2|3:2,2:0:0:0:
285,74,72666,1,0,1:0:0:0:
221,134,72990,6,0,P|156:132|97:218,1,160.000001192093,6|2,3:2|3:2,2:0:0:0:
33,260,73963,1,0,1:0:0:0:
113,294,74287,2,0,L|284:280,1,160.000001192093,2|2,3:2|3:2,2:0:0:0:
339,338,75260,1,0,1:0:0:0:
392,268,75585,6,0,L|385:184,1,80.0000005960464,6|2,3:2|1:2,2:0:0:0:
459,141,76233,1,2,1:2:0:0:
453,52,76558,1,2,1:2:0:0:
371,18,76882,6,0,P|331:43|296:47,1,80.0000005960464,2|2,1:2|1:2,2:0:0:0:
215,19,77531,1,2,1:2:0:0:
138,62,77855,1,2,1:2:0:0:
192,131,78179,6,0,B|203:172|203:172|190:212,2,80.0000005960464,6|2|2,1:2|1:2|1:2,2:0:0:0:
138,62,79152,1,2,1:2:0:0:
94,138,79477,6,0,L|55:147,1,40.0000002980232,2|0,1:2|1:0,2:0:0:0:
83,276,80125,2,0,L|149:260,1,40.0000002980232,0|0,1:0|1:0,2:0:0:0:
224,349,80774,6,0,P|288:349|351:251,1,160.000001192093,6|2,3:2|1:2,2:0:0:0:
430,247,81747,1,2,2:0:0:0:
399,164,82071,2,0,B|303:129|334:199|241:168,1,160.000001192093,2|2,3:2|1:2,2:0:0:0:
109,57,83369,6,0,P|138:109|126:223,1,160.000001192093,2|2,3:2|1:2,2:0:0:0:
73,270,84341,1,0,2:0:0:0:
147,317,84666,2,0,P|201:353|302:343,1,160.000001192093,2|2,3:2|1:2,2:0:0:0:
468,359,85963,6,0,B|434:323|434:323|455:213,1,160.000001192093,2|2,3:2|1:2,2:0:0:0:
409,139,86936,1,0,2:0:0:0:
341,195,87260,2,0,B|272:182|272:182|248:188|248:188|181:173,1,160.000001192093,2|2,3:2|1:2,2:0:0:0:
31,86,88558,6,0,B|100:73|100:73|124:79|124:79|187:64,1,160.000001192093,2|2,3:2|1:2,2:0:0:0:
272,42,89531,1,2,3:2:0:0:
358,25,89855,2,0,P|385:102|360:178,1,160.000001192093,2|2,1:2|1:2,2:0:0:0:
293,228,90828,1,2,3:2:0:0:
207,247,91152,6,0,L|124:238,1,80.0000005960464,6|2,3:1|1:2,2:0:0:0:
115,325,91801,2,0,L|194:333,1,80.0000005960464,2|2,3:2|1:2,2:0:0:0:
270,378,92450,2,0,P|334:374|386:296,1,160.000001192093,2|2,3:2|3:2,2:0:0:0:
455,246,93423,1,0,1:0:0:0:
381,198,93747,6,0,P|351:157|366:52,1,160.000001192093,2|2,3:2|3:2,2:0:0:0:
287,11,94720,1,2,1:2:0:0:
224,73,95044,2,0,P|179:76|141:49,1,80.0000005960464,2|2,3:2|1:2,2:0:0:0:
62,46,95693,2,0,L|69:135,1,80.0000005960464,2|2,3:2|1:2,2:0:0:0:
19,198,96341,6,0,P|8:250|20:286,2,80.0000005960464,2|2|2,3:2|1:2|3:2,2:0:0:0:
96,239,97314,1,2,1:2:0:0:
89,326,97639,2,0,P|142:357|237:322,1,160.000001192093,2|2,3:2|3:2,2:0:0:0:
318,339,98612,1,0,1:0:0:0:
290,255,98936,6,0,B|281:216|281:216|294:178,1,80.0000005960464,2|2,3:2|1:2,2:0:0:0:
350,110,99585,2,0,B|359:71|359:71|346:33,1,80.0000005960464,2|2,3:2|1:2,2:0:0:0:
269,76,100233,2,0,P|200:51|118:100,1,160.000001192093,2|8,3:2|1:2,2:0:0:0:
65,151,101206,1,8,2:0:0:0:
136,202,101531,6,0,P|205:227|287:178,2,160.000001192093,4|0|0,3:2|1:0|3:0,2:0:0:0:
88,32,103477,2,0,P|125:22|181:32,1,80.0000005960464,0|0,1:0|2:0,2:0:0:0:
243,66,104125,2,0,P|320:87|410:56,1,160.000001192093,0|0,3:0|1:0,2:0:0:0:
501,207,105423,1,0,2:0:0:0:
334,264,106071,2,0,P|329:298|336:344,1,80.0000005960464,0|0,1:0|3:0,2:0:0:0:
249,324,106720,6,0,P|171:312|86:340,1,160.000001192093,0|0,3:0|1:0,2:0:0:0:
12,179,108017,2,0,P|90:191|175:163,1,160.000001192093,0|0,3:0|1:0,2:0:0:0:
278,32,109314,2,0,P|200:20|115:48,1,160.000001192093,0|0,3:0|1:0,2:0:0:0:
12,179,110612,2,0,B|1:258|1:258|21:339,1,160.000001192093,4|0,3:2|1:0,2:0:0:0:
188,282,111909,6,0,B|269:261|256:308|347:278,2,160.000001192093,4|0|0,3:2|1:0|1:0,2:0:0:0:
79,143,113855,2,0,B|70:103|70:103|80:55,1,80.0000005960464,0|0,1:0|2:0,2:0:0:0:
159,30,114504,2,0,P|240:18|319:30,1,160.000001192093,0|0,3:0|1:0,2:0:0:0:
436,158,115801,1,0,1:0:0:0:
281,243,116450,2,0,P|274:278|285:324,1,80.0000005960464,0|0,1:0|2:0,2:0:0:0:
203,357,117098,6,0,P|185:280|205:198,1,160.000001192093,4|0,3:2|1:0,2:0:0:0:
305,59,118396,2,0,B|375:48|375:48|399:59|399:59|461:50,1,160.000001192093,0|0,3:0|1:0,2:0:0:0:
358,193,119693,2,0,B|296:202|296:202|272:191|272:191|202:202,1,160.000001192093,0|0,1:0|1:0,2:0:0:0:
86,68,120990,1,2,2:3:0:0:
305,343,122287,6,0,P|399:348|478:330,1,160.000001192093,6|2,3:1|3:2,2:0:0:0:
495,253,123260,1,0,1:0:0:0:
446,179,123585,2,0,P|352:174|273:192,1,160.000001192093,2|2,3:2|3:2,2:0:0:0:
256,269,124558,1,0,1:0:0:0:
189,326,124882,6,0,P|148:336|109:328,1,80.0000005960464,2|0,3:2|1:0,2:0:0:0:
39,278,125531,2,0,B|29:239|29:239|37:201,1,80.0000005960464,2|0,3:2|1:0,2:0:0:0:
74,120,126179,2,0,B|157:92|151:148|243:110,1,160.000001192093,2|0,3:2|3:0,2:0:0:0:
269,35,127152,1,0,1:0:0:0:
343,81,127477,6,0,P|349:123|349:174,1,80.0000005960464,6|0,3:2|1:0,2:0:0:0:
276,208,128125,2,0,P|276:247|282:287,1,80.0000005960464,2|0,3:2|1:0,2:0:0:0:
226,355,128774,2,0,P|149:367|62:352,1,160.000001192093,2|2,3:2|3:2,2:0:0:0:
8,289,129747,1,0,1:0:0:0:
65,222,130071,6,0,P|142:210|229:225,1,160.000001192093,2|2,3:2|3:2,2:0:0:0:
283,288,131044,1,4,1:2:0:0:
360,246,131369,2,0,P|361:225|356:190,1,40.0000002980232,2|0,3:2|3:0,2:0:0:0:
270,108,132017,2,0,P|269:129|274:164,2,40.0000002980232,0|0|8,3:0|3:0|2:0,2:0:0:0:
211,42,132666,6,0,P|131:35|52:52,1,160.000001192093,6|2,3:1|3:2,2:0:0:0:
7,126,133639,1,0,1:0:0:0:
85,165,133963,2,0,B|91:231|91:231|79:256|79:256|86:321,1,160.000001192093,2|2,3:2|3:2,2:0:0:0:
160,369,134936,1,0,1:0:0:0:
225,310,135260,6,0,L|318:306,1,80.0000005960464,2|0,3:2|1:0,2:0:0:0:
275,223,135909,2,0,L|195:226,1,80.0000005960464,2|0,3:2|1:0,2:0:0:0:
107,232,136558,2,0,B|88:154|88:154|107:74,1,160.000001192093,2|10,3:2|3:2,2:0:0:0:
175,21,137531,1,8,2:0:0:0:
244,75,137855,6,0,P|336:90|416:74,2,160.000001192093,6|2|2,3:2|3:2|3:2,2:0:0:0:
77,18,139801,1,2,3:2:0:0:
19,184,140450,6,0,P|4:276|20:356,1,160.000001192093,6|2,3:2|3:2,2:0:0:0:
98,368,141423,1,2,1:2:0:0:
159,305,141747,2,0,P|200:297|245:303,1,80.0000005960464,2|2,3:2|1:2,2:0:0:0:
306,355,142396,1,2,3:2:0:0:
449,253,143044,6,0,P|456:213|447:174,1,80.0000005960464,6|2,3:2|1:2,2:0:0:0:
382,115,143693,2,0,P|342:108|303:117,1,80.0000005960464,2|2,1:2|1:2,2:0:0:0:
243,180,144341,2,0,P|204:188|165:181,2,80.0000005960464,2|2|2,1:2|1:2|1:2,2:0:0:0:
202,101,145314,1,2,1:2:0:0:
239,20,145639,6,0,P|199:12|161:21,1,80.0000005960464,6|2,1:2|1:2,2:0:0:0:
110,93,146287,2,0,P|71:101|32:94,1,80.0000005960464,2|8,1:2|1:2,2:0:0:0:
18,181,146936,2,0,P|16:208|18:222,1,40.0000002980232,2|0,1:2|1:0,2:0:0:0:
126,295,147585,6,0,L|214:292,1,80.0000005960464,8|0,2:0|3:0,2:0:0:0:
276,344,148233,2,0,L|364:341,1,80.0000005960464,2|2,3:2|3:2,2:0:0:0:
423,284,148882,1,2,3:2:0:0:
493,231,149206,2,0,P|507:161|487:68,1,160.000001192093,0|10,3:0|3:2,2:0:0:0:
414,29,150179,1,10,3:2:0:0:
341,78,150504,6,0,L|257:82,1,80.0000005960464,8|2,3:2|3:2,2:0:0:0:
187,129,151152,2,0,L|103:133,1,80.0000005960464,2|2,3:2|3:2,2:0:0:0:
55,204,151801,2,0,P|46:241|57:285,2,80.0000005960464,0|10|2,3:0|3:2|3:2,2:0:0:0:
134,242,152774,1,2,3:2:0:0:
208,194,153098,6,0,P|249:187|286:193,1,80.0000005960464,0|2,3:0|3:2,2:0:0:0:
363,235,153747,2,0,P|402:241|441:234,1,80.0000005960464,10|2,3:2|3:2,2:0:0:0:
480,313,154396,2,0,P|403:329|320:310,1,160.000001192093,0|10,3:0|3:2,2:0:0:0:
245,273,155369,1,2,3:2:0:0:
173,221,155693,6,0,B|166:180|166:180|172:138,1,80.0000005960464,2|2,3:2|3:2,2:0:0:0:
244,92,156341,1,2,3:2:0:0:
311,148,156666,2,0,L|486:141,1,160.000001192093,10|6,3:2|1:2,2:0:0:0:
508,221,157639,2,0,L|510:261,2,40.0000002980232,2|2|2,1:2|1:2|1:2,2:0:0:0:
422,242,158287,6,0,L|427:330,2,80.0000005960464,6|6|2,3:1|1:2|3:2,2:0:0:0:
344,200,159259,1,2,1:2:0:0:
267,156,159584,2,0,B|227:147|227:147|176:157,1,80.0000005960464,6|2,3:2|1:2,2:0:0:0:
185,242,160232,2,0,B|225:251|225:251|276:241,1,80.0000005960464,2|2,3:2|1:2,2:0:0:0:
299,323,160881,6,0,B|220:337|220:337|141:317,1,160.000001192093,6|0,3:2|3:0,2:0:0:0:
69,267,161854,1,0,1:0:0:0:
28,189,162178,2,0,P|14:111|28:27,1,160.000001192093,0|0,1:0|3:0,2:0:0:0:
112,11,163151,1,0,1:0:0:0:
191,48,163476,5,4,2:0:0:0:
376,253,172558,6,0,L|367:301,1,40.0000002980232,0|0,1:0|1:0,2:0:0:0:
242,330,173206,2,0,L|249:290,1,40.0000002980232,0|0,1:0|1:0,2:0:0:0:
119,266,173855,6,0,P|86:242|74:193,1,80.0000005960464,6|0,3:1|1:0,2:0:0:0:
159,186,174504,2,0,P|169:138|199:108,1,80.0000005960464,2|0,3:2|1:0,2:0:0:0:
246,180,175152,2,0,P|305:173|368:247,1,160.000001192093,2|2,3:2|3:2,2:0:0:0:
425,309,176125,1,0,1:0:0:0:
488,248,176449,6,0,P|511:193|474:103,1,160.000001192093,6|2,3:2|3:2,2:0:0:0:
412,41,177422,1,0,1:0:0:0:
324,29,177747,2,0,L|234:37,1,80.0000005960464,0|4,3:0|1:2,2:0:0:0:
206,115,178395,2,0,L|126:107,1,80.0000005960464,10|8,3:2|2:0,2:0:0:0:
86,185,179044,6,0,B|76:251|76:251|84:277|84:277|75:347,2,160.000001192093,6|2|2,3:2|3:2|3:2,2:0:0:0:
253,239,180990,2,0,P|296:242|333:235,1,80.0000005960464,2|0,3:2|1:0,2:0:0:0:
376,311,181639,6,0,P|301:328|211:315,1,160.000001192093,6|2,3:2|3:2,2:0:0:0:
97,190,182936,2,0,P|80:115|93:25,1,160.000001192093,2|2,3:2|3:2,2:0:0:0:
250,105,184233,6,0,P|293:108|330:101,2,80.0000005960464,6|2|2,3:2|1:2|1:2,2:0:0:0:
167,72,185206,1,2,1:2:0:0:
114,142,185531,2,0,P|112:188|116:230,1,80.0000005960464,2|2,1:2|1:2,2:0:0:0:
191,263,186179,2,0,P|193:302|191:342,1,80.0000005960464,2|2,1:2|1:2,2:0:0:0:
276,366,186828,6,0,P|322:369|358:354,2,80.0000005960464,2|2|2,2:0|2:0|2:0,2:0:0:0:
305,282,187801,1,2,2:0:0:0:
334,199,188125,6,0,P|288:196|252:211,1,80.0000005960464,6|2,3:1|1:2,2:0:0:0:
193,146,188774,2,0,B|186:106|186:106|194:62,1,80.0000005960464,2|2,3:2|1:2,2:0:0:0:
111,34,189422,2,0,B|98:113|98:113|116:194,1,160.000001192093,2|2,3:2|3:2,2:0:0:0:
179,251,190395,1,2,1:2:0:0:
257,291,190720,6,0,P|297:295|340:289,2,80.0000005960464,2|2|2,3:2|1:2|3:2,2:0:0:0:
172,265,191693,1,2,1:2:0:0:
98,216,192017,2,0,P|82:133|100:60,1,160.000001192093,2|2,3:2|3:2,2:0:0:0:
179,23,192990,1,2,3:2:0:0:
253,69,193314,6,0,L|347:66,1,80.0000005960464,6|2,3:2|1:2,2:0:0:0:
383,138,193963,2,0,P|386:180|383:222,1,80.0000005960464,2|2,3:2|1:2,2:0:0:0:
321,279,194612,2,0,B|241:308|246:258|150:285,1,160.000001192093,2|2,3:2|3:2,2:0:0:0:
95,337,195585,1,2,1:2:0:0:
28,278,195909,6,0,P|11:201|29:118,1,160.000001192093,2|2,3:2|3:2,2:0:0:0:
90,61,196882,1,2,1:2:0:0:
166,103,197206,2,0,P|205:109|245:105,2,80.0000005960464,2|6|10,3:2|1:2|3:2,2:0:0:0:
105,166,198179,1,10,2:0:0:0:
47,233,198504,6,0,P|41:270|47:316,1,80.0000005960464,6|6,3:1|3:2,2:0:0:0:
116,364,199152,2,0,L|204:355,1,80.0000005960464,2|2,1:2|3:2,2:0:0:0:
253,288,199801,2,0,B|314:284|314:284|338:300|338:300|408:298,1,160.000001192093,2|2,3:2|3:2,2:0:0:0:
448,219,200774,1,2,3:2:0:0:
481,137,201098,6,0,P|487:96|480:55,1,80.0000005960464,2|6,1:2|3:2,2:0:0:0:
401,20,201747,2,0,P|363:12|319:21,1,80.0000005960464,2|2,3:2|1:2,2:0:0:0:
244,59,202395,2,0,B|164:89|168:39|85:63,1,160.000001192093,2|2,3:2|1:2,2:0:0:0:
9,102,203368,1,2,1:2:0:0:
71,164,203693,6,0,P|73:206|70:257,1,80.0000005960464,6|2,3:1|1:2,2:0:0:0:
159,244,204341,2,0,P|160:204|158:164,1,80.0000005960464,2|2,3:2|1:2,2:0:0:0:
221,101,204990,2,0,P|299:89|387:104,1,160.000001192093,2|2,3:2|3:2,2:0:0:0:
443,160,205963,1,2,1:2:0:0:
418,244,206287,5,6,2:1:0:0:
256,192,206449,12,2,210666,2:0:0:0:
