osu file format v14

[General]
AudioFilename: 01. Inferno.mp3
AudioLeadIn: 0
PreviewTime: 54666
Countdown: 0
SampleSet: Soft
StackLeniency: 0.2
Mode: 0
LetterboxInBreaks: 0
WidescreenStoryboard: 1

[Editor]
Bookmarks: 91152
DistanceSpacing: 1
BeatDivisor: 4
GridSize: 32
TimelineZoom: 3.199999

[Metadata]
Title:Inferno
TitleUnicode:インフェルノ
Artist:Mrs. GREEN APPLE
ArtistUnicode:Mrs. GREEN APPLE
Creator:gokugohan12468
Version:Frontier's Insane
Source:炎炎ノ消防隊
Tags:Enen no Shouboutai OP Opening 1 one ミセスグリーンアップル Full Version Size Fire Force Attitude KittyAdventure FunnyA milr_ [_white_music_] william_k william k Fall _tranquility -_Frontier_- Frontier shockolatte moph hausenberg Jian Kaguya_Sama Dora- Doraemonelf collab collaboration 髙野清宗 藤澤涼架 山中綾華 大森元貴 若井滉斗 Hiroto Wakai Motoki Omori Ayaka Yamanaka Ryoka Fujisawa Kiyokazu Takano
BeatmapID:2179447
BeatmapSetID:1005253

[Difficulty]
HPDrainRate:7.2
CircleSize:4.2
OverallDifficulty:7.2
ApproachRate:8.2
SliderMultiplier:1.72000000596046
SliderTickRate:1

[Events]
//Background and Video events
Video,-160,"video.mp4"
0,0,"Frontier's BG.jpg",0,0
//Break Periods
2,80974,88811
2,163677,171838
//Storyboard Layer 0 (Background)
//Storyboard Layer 1 (Fail)
//Storyboard Layer 2 (Pass)
//Storyboard Layer 3 (Foreground)
//Storyboard Layer 4 (Overlay)
//Storyboard Sound Samples

[TimingPoints]
342,324.324324324324,4,2,1,75,1,0
1639,-98.0392156862745,4,2,1,85,0,0
11044,-192.307692307692,4,2,1,85,0,0
11287,-192.307692307692,4,2,99,5,0,0
11369,-192.307692307692,4,2,1,85,0,0
11693,-192.307692307692,4,2,1,75,0,0
12017,-98.0392156862745,4,2,1,85,0,0
19801,-89.2857142857143,4,2,1,85,0,0
20044,-89.2857142857143,4,2,99,5,0,0
20125,-89.2857142857143,4,2,1,85,0,0
20368,-89.2857142857143,4,2,99,5,0,0
20450,-89.2857142857143,4,2,1,85,0,0
20693,-89.2857142857143,4,2,99,5,0,0
20774,-89.2857142857143,4,2,1,85,0,0
21017,-89.2857142857143,4,2,99,5,0,0
21098,-89.2857142857143,4,2,1,85,0,0
22396,-121.951219512195,4,2,2,60,0,0
32449,-121.951219512195,4,2,1,65,0,0
32774,-108.695652173913,4,2,1,70,0,0
36990,-81.9672131147541,4,2,1,70,0,0
37639,-108.695652173913,4,2,1,70,0,0
42504,-108.695652173913,4,2,1,80,0,0
43152,-138.888888888889,4,2,3,55,0,0
43801,-138.888888888889,4,2,2,55,0,0
44287,-138.888888888889,4,2,3,55,0,0
45098,-138.888888888889,4,2,2,55,0,0
45585,-138.888888888889,4,2,3,55,0,0
46396,-138.888888888889,4,2,2,55,0,0
46558,-138.888888888889,4,2,3,55,0,0
47693,-138.888888888889,4,2,2,55,0,0
48017,-138.888888888889,4,2,3,55,0,0
48990,-138.888888888889,4,2,2,55,0,0
49476,-138.888888888889,4,2,3,55,0,0
50287,-138.888888888889,4,2,2,55,0,0
50774,-138.888888888889,4,2,3,55,0,0
51585,-138.888888888889,4,2,2,55,0,0
52233,-89.2857142857143,4,2,2,60,0,0
52314,-89.2857142857143,4,2,99,5,0,0
52396,-89.2857142857143,4,2,2,60,0,0
52801,-89.2857142857143,4,2,99,5,0,0
52882,-89.2857142857143,4,2,2,60,0,0
52963,-89.2857142857143,4,2,99,5,0,0
53044,-89.2857142857143,4,2,3,60,0,0
53206,-89.2857142857143,4,2,2,60,0,0
53531,-89.2857142857143,4,2,3,70,0,0
53693,-89.2857142857143,4,2,2,70,0,0
54098,-89.2857142857143,4,2,99,5,0,0
54179,-89.2857142857143,4,2,2,70,0,0
54504,-833.333333333333,4,2,2,75,0,0
54747,-833.333333333333,4,2,99,5,0,0
54828,-89.2857142857143,4,2,4,85,0,1
63341,-89.2857142857143,4,2,99,5,0,1
63423,-89.2857142857143,4,2,4,85,0,1
63504,-89.2857142857143,4,2,99,5,0,1
63585,-89.2857142857143,4,2,4,85,0,1
63828,-89.2857142857143,4,2,99,5,0,1
63909,-89.2857142857143,4,2,5,85,0,0
64882,-89.2857142857143,4,2,3,70,0,0
65206,-89.2857142857143,4,2,4,85,0,1
69747,-89.2857142857143,4,2,4,30,0,1
69909,-89.2857142857143,4,2,4,40,0,1
69990,-89.2857142857143,4,2,4,45,0,1
70071,-89.2857142857143,4,2,4,50,0,1
70152,-89.2857142857143,4,2,4,55,0,1
70233,-89.2857142857143,4,2,4,60,0,1
70314,-89.2857142857143,4,2,4,65,0,1
70396,-89.2857142857143,4,2,4,85,0,1
75585,-89.2857142857143,4,2,4,90,0,1
75747,-89.2857142857143,4,2,5,90,0,1
78179,-89.2857142857143,4,2,4,90,0,1
78341,-89.2857142857143,4,2,5,90,0,1
79477,-89.2857142857143,4,2,5,100,0,0
80450,-98.0392156862745,4,2,5,100,0,0
80774,-98.0392156862745,4,2,6,60,0,0
89693,-81.9672131147541,4,2,6,60,0,0
89855,-81.9672131147541,4,2,2,60,0,0
90098,-81.9672131147541,4,2,6,60,0,0
90260,-81.9672131147541,4,2,99,5,0,0
90341,-81.9672131147541,4,2,6,60,0,0
90422,-81.9672131147541,4,2,99,5,0,0
90504,-81.9672131147541,4,2,2,60,0,0
90585,-81.9672131147541,4,2,6,60,0,0
91152,-108.695652173913,4,2,1,70,0,0
100882,-108.695652173913,4,2,1,55,0,0
101531,-138.888888888889,4,2,3,55,0,0
102179,-138.888888888889,4,2,2,55,0,0
102666,-138.888888888889,4,2,3,55,0,0
103477,-138.888888888889,4,2,2,55,0,0
103963,-138.888888888889,4,2,3,55,0,0
104774,-138.888888888889,4,2,2,55,0,0
105260,-138.888888888889,4,2,3,55,0,0
106071,-138.888888888889,4,2,2,55,0,0
106314,-138.888888888889,4,2,99,5,0,0
106396,-138.888888888889,4,2,3,55,0,0
107369,-138.888888888889,4,2,2,55,0,0
108017,-138.888888888889,4,2,3,55,0,0
108666,-138.888888888889,4,2,2,55,0,0
109152,-138.888888888889,4,2,3,55,0,0
109963,-138.888888888889,4,2,2,55,0,0
110612,-138.888888888889,4,2,3,55,0,0
111260,-65.7894736842105,4,2,2,55,0,0
111827,-65.7894736842105,4,2,99,5,0,0
111909,-138.888888888889,4,2,3,60,0,0
113206,-138.888888888889,4,2,2,60,0,0
114341,-138.888888888889,4,2,3,60,0,0
115801,-138.888888888889,4,2,2,60,0,0
115963,-138.888888888889,4,2,3,60,0,0
116450,-138.888888888889,4,2,2,60,0,0
117098,-138.888888888889,4,2,3,60,0,0
117341,-138.888888888889,4,2,99,5,0,0
117423,-138.888888888889,4,2,3,60,0,0
117666,-138.888888888889,4,2,99,5,0,0
117747,-138.888888888889,4,2,2,60,0,0
117990,-138.888888888889,4,2,99,5,0,0
118071,-138.888888888889,4,2,3,60,0,0
118314,-138.888888888889,4,2,99,5,0,0
118396,-138.888888888889,4,2,3,60,0,0
118639,-138.888888888889,4,2,99,5,0,0
118720,-138.888888888889,4,2,3,60,0,0
118963,-138.888888888889,4,2,99,5,0,0
119044,-138.888888888889,4,2,2,60,0,0
119287,-138.888888888889,4,2,99,5,0,0
119369,-833.333333333333,4,2,2,60,0,0
119612,-833.333333333333,4,2,99,5,0,0
119693,-138.888888888889,4,2,2,60,0,0
120017,-138.888888888889,4,2,3,60,0,0
120341,-138.888888888889,4,2,2,60,0,0
120828,-138.888888888889,4,2,3,60,0,0
120990,-138.888888888889,4,2,1,65,0,0
122287,-89.2857142857143,4,2,4,85,0,1
131369,-89.2857142857143,4,2,5,85,0,0
132341,-89.2857142857143,4,2,3,70,0,0
132666,-89.2857142857143,4,2,4,85,0,1
137206,-89.2857142857143,4,2,4,30,0,1
137369,-89.2857142857143,4,2,4,40,0,1
137450,-89.2857142857143,4,2,4,45,0,1
137531,-89.2857142857143,4,2,4,50,0,1
137612,-89.2857142857143,4,2,4,55,0,1
137693,-89.2857142857143,4,2,4,60,0,1
137774,-89.2857142857143,4,2,4,65,0,1
137855,-89.2857142857143,4,2,4,85,0,1
143044,-89.2857142857143,4,2,4,90,0,1
143206,-89.2857142857143,4,2,5,90,0,1
145639,-89.2857142857143,4,2,4,90,0,1
145801,-89.2857142857143,4,2,5,90,0,1
146936,-89.2857142857143,4,2,5,100,0,0
147585,-89.2857142857143,4,2,1,70,0,0
147909,-89.2857142857143,4,2,1,75,0,0
148233,-98.0392156862745,4,2,4,75,0,0
149774,-98.0392156862745,4,2,99,5,0,0
149855,-98.0392156862745,4,2,4,75,0,0
154963,-98.0392156862745,4,2,99,5,0,0
155044,-98.0392156862745,4,2,4,75,0,0
155450,-98.0392156862745,4,2,99,5,0,0
155531,-98.0392156862745,4,2,1,75,0,0
155693,-98.0392156862745,4,2,4,75,0,0
156990,-98.0392156862745,4,2,2,80,0,0
157314,-98.0392156862745,4,2,4,85,0,0
157557,-98.0392156862745,4,2,99,5,0,0
157639,-61.7283950617284,4,2,4,95,0,0
157720,-61.7283950617284,4,2,99,5,0,0
157801,-61.7283950617284,4,2,4,95,0,0
157882,-61.7283950617284,4,2,99,5,0,0
157963,-61.7283950617284,4,2,4,95,0,0
158044,-61.7283950617284,4,2,99,5,0,0
158287,324.324324324324,4,2,4,75,1,0
158287,-98.0392156862745,4,2,4,75,0,0
162178,-98.0392156862745,4,2,4,65,0,0
162421,-98.0392156862745,4,2,4,70,0,0
162664,-98.0392156862745,4,2,4,80,0,0
162827,-98.0392156862745,4,2,4,70,0,0
163151,-98.0392156862745,4,2,4,85,0,0
163477,324.324324324324,4,2,5,60,1,0
172558,-100,4,2,5,90,0,0
173855,-89.2857142857143,4,2,4,85,0,1
178395,-89.2857142857143,4,2,4,30,0,1
178558,-89.2857142857143,4,2,4,40,0,1
178720,-89.2857142857143,4,2,4,50,0,1
178801,-89.2857142857143,4,2,4,55,0,1
178882,-89.2857142857143,4,2,4,60,0,1
178963,-89.2857142857143,4,2,4,65,0,1
179044,-89.2857142857143,4,2,4,85,0,1
184233,-89.2857142857143,4,2,4,90,0,1
184395,-89.2857142857143,4,2,5,90,0,1
186828,-89.2857142857143,4,2,1,80,0,0
188125,-98.0392156862745,4,2,7,85,0,0
197531,-98.0392156862745,4,2,1,85,0,0
197855,-98.0392156862745,4,2,1,30,0,0
198017,-98.0392156862745,4,2,1,40,0,0
198098,-98.0392156862745,4,2,1,45,0,0
198179,-98.0392156862745,4,2,1,50,0,0
198260,-98.0392156862745,4,2,1,55,0,0
198341,-98.0392156862745,4,2,1,60,0,0
198422,-98.0392156862745,4,2,1,65,0,0
198504,-98.0392156862745,4,2,1,85,0,0
198828,-98.0392156862745,4,2,7,85,0,0
203693,-98.0392156862745,4,2,1,85,0,0
205314,-98.0392156862745,4,2,7,85,0,0
206287,-98.0392156862745,4,2,1,70,0,0
207747,-98.0392156862745,4,2,1,75,0,0
208720,-98.0392156862745,4,2,1,80,0,0
209693,-98.0392156862745,4,2,1,85,0,0
210666,-98.0392156862745,4,2,1,90,0,0

[Colours]
Combo1 : 255,45,45
Combo2 : 0,128,192
Combo3 : 0,215,215
Combo4 : 130,192,255
Combo5 : 255,0,0
Combo6 : 255,128,64
Combo7 : 255,66,66
Combo8 : 255,128,0

[HitObjects]
122,151,342,5,2,2:3:0:0:
122,151,666,1,2,2:3:0:0:
122,151,990,1,2,2:3:0:0:
122,151,1314,1,2,2:3:0:0:
270,217,1639,38,0,B|186:164|183:244|104:231,1,175.440001678768,4|0,3:1|1:0,2:0:0:0:
176,27,2125,1,0,2:0:0:0:
221,87,2287,2,0,P|270:103|306:116,1,87.7200008393839,0|0,3:0|3:0,2:0:0:0:
122,151,2612,2,0,B|100:112|100:112|115:72,1,87.7200008393839,0|0,1:0|2:0,2:0:0:0:
105,231,2936,6,0,P|63:238|2:248,1,87.7200008393839,0|0,3:0|3:0,2:0:0:0:
183,206,3260,1,0,1:0:0:0:
165,286,3423,1,0,2:0:0:0:
278,383,3585,1,0,3:0:0:0:
260,303,3748,1,0,3:0:0:0:
104,356,3909,2,0,P|146:364|190:372,1,87.7200008393839,0|0,1:0|2:0,2:0:0:0:
151,258,4233,6,0,P|63:259|1:321,1,175.440001678768,0|0,3:0|1:0,2:0:0:0:
19,103,4720,1,0,2:0:0:0:
63,221,4882,2,0,B|90:186|90:186|81:143,1,87.7200008393839,0|0,3:0|3:0,2:0:0:0:
172,181,5206,2,0,P|219:177|287:171,1,87.7200008393839,0|0,1:0|2:0,2:0:0:0:
328,65,5531,6,0,B|221:48|275:104|157:82,1,175.440001678768,0|0,3:0|1:0,2:0:0:0:
158,82,6017,2,0,B|140:44|140:44|161:4,1,87.7200008393839,0|0,2:0|3:0,2:0:0:0:
81,143,6341,1,0,1:0:0:0:
148,180,6504,1,0,3:0:0:0:
332,137,6666,5,0,1:0:0:0:
300,205,6828,2,0,P|295:290|289:385,1,175.440001678768,4|0,3:2|1:0,2:0:0:0:
441,317,7314,1,0,2:0:0:0:
448,247,7477,2,0,P|412:223|372:197,1,87.7200008393839,0|0,3:0|3:0,2:0:0:0:
221,244,7801,2,0,P|259:224|301:203,1,87.7200008393839,0|0,1:0|2:0,2:0:0:0:
418,8,8125,54,0,P|357:39|335:149,1,175.440001678768,0|0,3:0|1:0,2:0:0:0:
434,111,8612,1,0,2:0:0:0:
500,70,8774,2,0,P|508:118|513:168,1,87.7200008393839,0|0,3:0|3:0,2:0:0:0:
353,151,9098,2,0,P|357:107|365:64,1,87.7200008393839,0|0,1:0|2:0,2:0:0:0:
510,258,9423,6,0,B|420:212|419:284|340:265,1,175.440001678768,0|0,3:0|1:0,2:0:0:0:
204,252,9909,1,0,2:0:0:0:
224,375,10071,1,0,3:0:0:0:
269,320,10233,1,0,3:0:0:0:
128,293,10396,2,0,P|75:287|30:283,1,87.7200008393839,0|0,1:0|2:0,2:0:0:0:
13,194,10720,5,0,3:0:0:0:
13,194,10882,1,0,3:0:0:0:
25,50,11044,2,0,P|22:90|18:135,1,67.0799998230341,4|0,1:2|2:0,2:0:0:0:
13,194,11369,5,0,3:0:0:0:
13,194,11531,1,0,3:0:0:0:
146,280,11693,5,8,2:0:0:0:
183,266,11774,1,8,2:0:0:0:
214,276,11855,1,8,2:0:0:0:
235,271,11936,1,8,2:0:0:0:
235,271,12017,54,0,P|298:280|380:355,1,175.440001678768,4|0,3:1|3:0,2:0:0:0:
437,205,12666,2,0,P|432:131|438:4,1,175.440001678768,0|4,1:0|3:2,2:0:0:0:
509,74,13152,1,0,2:0:0:0:
509,74,13314,6,0,P|511:111|508:174,1,87.7200008393839,0|0,3:0|2:0,2:0:0:0:
445,218,13639,2,0,B|368:169|350:257|279:246,1,175.440001678768,0|0,1:0|3:0,2:0:0:0:
218,213,14125,1,0,2:0:0:0:
110,347,14287,2,0,B|93:310|93:310|110:258,1,87.7200008393839,0|0,3:0|2:0,2:0:0:0:
220,288,14612,6,0,P|293:308|408:343,1,175.440001678768,0|4,1:0|3:2,2:0:0:0:
459,311,15098,1,0,2:0:0:0:
375,150,15260,2,0,P|389:200|398:255,1,87.7200008393839,0|0,3:0|2:0,2:0:0:0:
459,311,15585,2,0,P|471:268|479:225,1,87.7200008393839,0|0,1:0|2:0,2:0:0:0:
449,117,15909,6,0,P|367:120|289:201,1,175.440001678768,0|0,3:0|3:0,2:0:0:0:
300,178,16558,1,0,1:0:0:0:
233,223,16720,1,0,3:0:0:0:
145,154,16882,6,0,P|138:109|134:48,1,87.7200008393839,0|0,1:0|2:0,2:0:0:0:
61,122,17206,2,0,B|156:87|161:156|248:145,1,175.440001678768,4|0,3:1|1:0,2:0:0:0:
291,98,17693,1,0,2:0:0:0:
291,98,17774,1,0,2:0:0:0:
291,98,17855,1,0,3:0:0:0:
451,290,18017,1,0,3:0:0:0:
391,236,18179,2,0,P|339:248|292:260,1,87.7200008393839,0|0,1:0|2:0,2:0:0:0:
374,314,18504,54,0,P|324:317|225:226,1,175.440001678768,0|0,3:0|1:0,2:0:0:0:
278,183,18990,1,0,2:0:0:0:
161,137,19152,1,0,3:0:0:0:
161,137,19314,1,0,3:0:0:0:
236,118,19477,2,0,P|242:76|253:31,1,87.7200008393839,0|0,1:0|2:0,2:0:0:0:
155,214,19801,6,0,P|85:226|30:272,1,144.480002264351,4|0,3:1|2:0,2:0:0:0:
30,272,20125,2,0,B|46:181|3:207|26:117,1,144.480002264351,0|0,1:0|2:0,2:0:0:0:
22,129,20450,2,0,B|91:138|91:138|136:70,1,144.480002264351,0|0,1:0|2:0,2:0:0:0:
132,74,20774,2,0,P|200:100|275:125,1,144.480002264351,0|0,1:0|2:0,2:0:0:0:
334,157,21098,5,0,1:0:0:0:
334,157,21260,1,0,1:0:0:0:
467,97,21423,1,8,2:0:0:0:
457,115,21504,1,8,2:0:0:0:
467,136,21585,1,8,2:0:0:0:
460,158,21666,1,8,2:0:0:0:
460,158,21747,6,0,P|469:211|476:257,1,96.320001509567,0|0,1:0|1:0,2:0:0:0:
490,327,22233,1,0,2:0:0:0:
368,294,22396,22,0,B|296:281|305:324|216:310,1,141.040002640857,4|2,3:2|3:2,2:0:0:0:
58,291,22882,1,0,2:0:0:0:
125,256,23044,2,0,P|165:251|201:235,1,70.5200013204287,0|0,3:0|2:0,2:0:0:0:
176,366,23368,2,0,P|143:353|108:349,1,70.5200013204287,2|0,3:2|2:0,2:0:0:0:
45,283,23693,6,0,B|17:219|17:219|48:155,1,141.040002640857,0|2,3:0|3:2,2:0:0:0:
186,112,24179,1,0,2:0:0:0:
141,175,24341,2,0,P|213:193|298:214,1,141.040002640857,0|2,3:0|3:2,2:0:0:0:
346,181,24828,1,0,2:0:0:0:
398,370,24990,6,0,P|384:339|392:302,1,70.5200013204287,0|0,3:0|2:0,2:0:0:0:
441,148,25314,2,0,P|450:181|460:215,1,70.5200013204287,2|0,3:2|2:0,2:0:0:0:
466,293,25639,2,0,B|381:286|441:257|329:252,1,141.040002640857,0|2,3:0|3:2,2:0:0:0:
265,280,26125,1,0,2:0:0:0:
141,175,26287,86,0,L|149:251,1,70.5200013204287,0|0,3:0|2:0,2:0:0:0:
72,253,26612,2,0,P|153:268|205:327,1,141.040002640857,2|0,3:2|3:0,2:0:0:0:
194,306,27260,1,2,3:2:0:0:
253,355,27422,1,0,2:0:0:0:
145,364,27585,6,0,P|76:347|8:329,1,141.040002640857,0|2,3:0|3:2,2:0:0:0:
52,124,28071,1,0,2:0:0:0:
21,191,28233,2,0,P|30:224|40:258,1,70.5200013204287,0|0,3:0|2:0,2:0:0:0:
119,155,28558,2,0,P|128:121|138:87,1,70.5200013204287,2|0,3:2|2:0,2:0:0:0:
111,232,28882,6,0,B|187:227|156:259|253:255,1,141.040002640857,0|2,3:0|3:2,2:0:0:0:
302,203,29369,1,0,2:0:0:0:
384,325,29531,2,0,B|391:337|395:364|395:364|402:311|430:272,1,141.040002640857,0|2,3:0|3:2,2:0:0:0:
496,240,30017,1,0,2:0:0:0:
436,199,30179,86,0,P|401:201|374:223,1,70.5200013204287,0|0,3:0|2:0,2:0:0:0:
215,104,30504,2,0,B|301:107|271:133|359:139,1,141.040002640857,2|0,3:2|3:0,2:0:0:0:
462,4,30990,1,0,2:0:0:0:
483,74,31152,2,0,P|443:87|408:90,1,70.5200013204287,2|0,3:2|2:0,2:0:0:0:
511,235,31477,5,2,3:2:0:0:
441,224,31639,2,0,P|371:213|301:202,1,141.040002640857,2|2,2:0|2:0,2:0:0:0:
431,232,32125,2,0,P|361:221|291:210,1,141.040002640857,2|2,3:2|3:0,2:0:0:0:
71,306,32612,21,2,2:0:0:0:
141,347,32774,2,0,B|158:312|158:312|146:272,1,79.1199976181754,6|0,3:1|2:0,2:0:0:0:
0,224,33098,2,0,P|39:218|78:211,1,79.1199976181754,2|0,1:2|2:0,2:0:0:0:
245,169,33423,1,2,3:2:0:0:
245,169,33585,1,0,3:0:0:0:
191,111,33747,2,0,P|169:143|165:182,1,79.1199976181754,2|0,1:2|2:0,2:0:0:0:
282,74,34071,6,0,B|203:87|203:87|139:32,1,158.239995236351,2|0,3:2|1:0,2:0:0:0:
318,1,34558,1,2,2:0:0:0:
245,169,34720,2,0,P|324:182|404:193,1,158.239995236351,2|0,3:2|1:0,2:0:0:0:
463,143,35206,1,0,2:0:0:0:
307,384,35369,6,0,P|295:347|276:312,1,79.1199976181754,2|2,3:2|3:2,2:0:0:0:
498,247,35693,2,0,P|479:282|467:320,1,79.1199976181754,2|2,1:2|2:0,2:0:0:0:
376,344,36017,2,0,B|365:257|423:281|399:186,1,158.239995236351,2|2,3:2|1:2,2:0:0:0:
389,115,36504,1,2,2:0:0:0:
323,216,36666,6,0,P|281:204|221:190,1,79.1199976181754,2|2,3:2|3:2,2:0:0:0:
127,137,36990,2,0,B|106:145|102:174|102:174|142:129|211:127|211:127|187:138|178:155,1,209.839992082035,2|2,1:2|3:2,2:0:0:0:
191,309,37477,1,0,3:0:0:0:
191,309,37558,1,0,2:0:0:0:
191,309,37639,2,0,P|184:270|176:232,1,79.1199976181754,2|2,1:2|2:0,2:0:0:0:
34,114,37963,6,0,B|114:85|110:150|196:155,1,158.239995236351,2|2,3:2|1:2,2:0:0:0:
244,107,38450,1,0,2:0:0:0:
323,216,38612,2,0,B|343:179|343:179|330:141,1,79.1199976181754,2|0,3:2|3:0,2:0:0:0:
319,51,38936,2,0,P|357:41|395:30,1,79.1199976181754,2|0,1:2|2:0,2:0:0:0:
244,107,39260,54,0,P|190:116|111:28,1,158.239995236351,2|0,3:2|1:0,2:0:0:0:
202,24,39747,1,2,2:0:0:0:
331,143,39909,2,0,P|406:120|483:101,1,158.239995236351,2|0,3:2|1:0,2:0:0:0:
319,51,40396,1,0,2:0:0:0:
244,107,40558,6,0,P|213:77|184:47,1,79.1199976181754,2|2,3:2|3:2,2:0:0:0:
256,199,40882,2,0,P|237:275|215:352,1,158.239995236351,2|2,1:2|3:2,2:0:0:0:
391,338,41369,1,2,3:2:0:0:
327,374,41531,2,0,P|315:332|316:290,1,79.1199976181754,2|2,1:2|2:0,2:0:0:0:
256,199,41855,5,2,3:2:0:0:
331,213,42017,1,2,3:2:0:0:
383,117,42179,5,0,1:0:0:0:
288,126,42341,1,0,2:0:0:0:
356,237,42504,5,0,1:0:0:0:
356,237,42828,2,0,P|406:247|443:254,1,79.1199976181754,0|0,2:0|2:0,2:0:0:0:
507,280,43152,6,0,P|444:295|388:335,1,123.840003452591,4|0,3:2|2:0,2:0:0:0:
323,303,43639,1,0,3:0:0:0:
238,384,43801,2,0,P|248:348|250:320,1,61.9200017262954,0|0,1:0|2:0,2:0:0:0:
190,172,44125,2,0,P|180:208|178:236,1,61.9200017262954,0|0,2:0|3:0,2:0:0:0:
251,248,44450,6,0,B|166:265|213:284|122:298,1,123.840003452591,0|0,3:0|2:0,2:0:0:0:
138,295,45098,2,0,P|118:234|104:174,1,123.840003452591,0|0,1:0|2:0,2:0:0:0:
134,108,45585,1,0,3:0:0:0:
0,108,45747,6,0,P|47:114|80:118,1,61.9200017262954,0|0,3:0|2:0,2:0:0:0:
177,167,46071,2,0,P|204:138|206:98,1,61.9200017262954,0|0,3:0|3:0,2:0:0:0:
235,26,46396,2,0,P|192:34|168:64,1,61.9200017262954,0|0,1:0|3:0,2:0:0:0:
104,175,46720,2,0,P|98:222|94:255,1,61.9200017262954,0|0,2:0|3:0,2:0:0:0:
19,302,47044,86,0,B|101:295|85:327|148:326,1,123.840003452591,0|0,2:0|2:0,2:0:0:0:
138,325,47693,2,0,B|220:332|204:300|267:301,1,123.840003452591,0|0,1:0|3:0,2:0:0:0:
257,301,48341,6,0,P|305:292|382:275,1,123.840003452591,0|0,3:0|2:0,2:0:0:0:
417,370,48828,1,0,3:0:0:0:
492,344,48990,2,0,P|471:320|451:297,1,61.9200017262954,0|0,1:0|2:0,2:0:0:0:
452,164,49314,2,0,P|442:193|433:223,1,61.9200017262954,0|0,2:0|3:0,2:0:0:0:
466,291,49639,6,0,P|486:313|506:337,1,61.9200017262954,0|0,3:0|2:0,2:0:0:0:
451,217,49963,2,0,P|460:187|470:158,1,61.9200017262954,0|0,2:0|2:0,2:0:0:0:
378,288,50287,2,0,P|347:294|317:300,1,61.9200017262954,0|0,1:0|2:0,2:0:0:0:
256,333,50612,1,0,2:0:0:0:
185,313,50774,1,0,3:0:0:0:
65,362,50936,86,0,P|32:314|25:232,1,123.840003452591,0|0,3:0|3:0,2:0:0:0:
70,140,51423,1,0,3:0:0:0:
147,174,51585,2,0,P|115:207|103:302,1,123.840003452591,0|0,1:0|2:0,2:0:0:0:
51,57,52233,6,0,P|76:53|106:51,1,48.1600007547835,0|0,1:0|2:0,2:0:0:0:
157,16,52396,2,0,B|179:39|179:39|251:33,1,96.320001509567,2|0,1:2|2:0,2:0:0:0:
218,49,52639,2,0,B|282:43|282:43|304:66,1,96.320001509567,2|0,1:2|2:0,2:0:0:0:
326,80,52882,2,0,P|327:42|331:5,1,48.1600007547835,0|0,1:0|2:0,2:0:0:0:
351,175,53044,6,0,P|356:164|360:152,1,24.0800003773918,0|0,3:0|3:0,2:0:0:0:
350,174,53125,2,0,P|339:169|328:167,1,24.0800003773918,0|0,3:0|3:0,2:0:0:0:
357,188,53206,2,0,L|399:295,1,96.320001509567,0|0,1:0|1:0,2:0:0:0:
426,345,53531,1,0,3:0:0:0:
284,273,53693,86,0,B|271:308|271:308|282:376,1,96.320001509567,2|0,1:2|2:0,2:0:0:0:
250,272,53936,2,0,B|237:307|237:307|248:375,1,96.320001509567,2|0,1:2|2:0,2:0:0:0:
165,328,54179,5,2,1:2:0:0:
127,349,54260,1,0,2:0:0:0:
92,334,54341,1,0,2:0:0:0:
56,343,54423,1,0,2:0:0:0:
56,343,54504,6,0,L|41:341,1,15.4800004315738,2|0,2:1|2:0,2:0:0:0:
41,264,54828,6,0,B|-2:178|-2:178|51:97,1,192.640003019134,6|0,3:1|1:0,2:0:0:0:
190,77,55314,1,2,2:0:0:0:
111,154,55477,2,0,L|307:198,1,192.640003019134,2|0,3:2|1:0,2:0:0:0:
381,158,55963,1,2,2:0:0:0:
507,309,56125,6,0,B|414:252|387:345|311:324,1,192.640003019134,2|0,3:2|1:0,2:0:0:0:
251,355,56612,1,2,2:0:0:0:
105,336,56774,2,0,B|91:259|91:259|119:215|119:215|107:131,1,192.640003019134,2|0,3:2|1:0,2:0:0:0:
204,198,57260,1,2,2:0:0:0:
50,0,57423,6,0,P|142:16|193:94,1,192.640003019134,2|0,3:2|1:0,2:0:0:0:
110,153,57909,1,2,2:0:0:0:
328,5,58071,2,0,P|312:95|298:198,1,192.640003019134,2|0,3:2|1:0,2:0:0:0:
416,324,58558,1,2,2:0:0:0:
416,324,58720,6,0,P|379:292|341:263,1,96.320001509567,2|0,3:2|3:0,2:0:0:0:
170,300,59044,2,0,P|215:283|260:265,1,96.320001509567,0|0,1:0|2:0,2:0:0:0:
286,177,59369,2,0,P|292:129|301:81,1,96.320001509567,0|0,3:0|3:0,2:0:0:0:
314,6,59612,1,0,2:0:0:0:
328,5,59693,1,0,1:0:0:0:
409,62,59855,1,2,2:0:0:0:
241,32,60017,6,0,B|103:24|103:24|71:95,1,192.640003019134,6|0,3:2|1:0,2:0:0:0:
22,158,60504,1,2,2:0:0:0:
88,196,60666,2,0,B|191:176|176:260|280:268,1,192.640003019134,2|0,3:2|1:0,2:0:0:0:
378,293,61152,1,2,2:0:0:0:
429,234,61314,54,0,P|349:274|307:379,1,192.640003019134,2|0,3:2|1:0,2:0:0:0:
294,117,61801,1,2,2:0:0:0:
308,198,61963,2,0,P|327:105|342:6,1,192.640003019134,2|0,3:2|1:0,2:0:0:0:
428,103,62450,1,2,2:0:0:0:
246,46,62612,6,0,P|155:76|62:112,1,192.640003019134,2|0,3:2|1:0,2:0:0:0:
13,52,63098,1,2,2:0:0:0:
13,52,63260,2,0,P|17:28|21:4,1,48.1600007547835,2|0,3:2|2:0,2:0:0:0:
0,160,63423,2,0,P|18:175|36:190,1,48.1600007547835,0|0,3:0|2:0,2:0:0:0:
28,270,63585,2,0,B|111:233|104:301|165:302,1,144.480002264351,4|0,1:2|2:0,2:0:0:0:
228,277,63909,5,2,3:2:0:0:
301,293,64071,1,0,3:0:0:0:
228,277,64558,5,0,3:0:0:0:
301,293,64720,1,0,3:0:0:0:
512,360,64882,5,8,2:0:0:0:
504,384,64963,1,8,2:0:0:0:
470,362,65044,1,10,2:0:0:0:
443,342,65125,1,8,2:0:0:0:
436,369,65206,54,0,B|387:363|387:363|391:203,1,192.640003019134,6|0,3:1|1:0,2:0:0:0:
463,173,65693,1,2,2:0:0:0:
351,49,65855,2,0,B|256:24|256:24|194:94,1,192.640003019134,2|0,3:2|1:0,2:0:0:0:
287,122,66341,1,2,2:0:0:0:
123,9,66504,6,0,P|139:99|153:202,1,192.640003019134,2|0,3:2|1:0,2:0:0:0:
65,349,66990,1,2,2:0:0:0:
38,266,67152,2,0,P|132:290|206:375,1,192.640003019134,2|0,3:2|1:0,2:0:0:0:
256,287,67639,1,2,2:0:0:0:
467,342,67801,6,0,B|377:298|389:379|277:371,1,192.640003019134,2|0,3:2|1:0,2:0:0:0:
356,259,68287,1,2,2:0:0:0:
282,187,68450,2,0,P|355:200|457:112,1,192.640003019134,2|0,3:2|1:0,2:0:0:0:
401,61,68936,1,2,2:0:0:0:
249,105,69098,6,0,P|237:44|224:-2,1,96.320001509567,2|0,3:2|3:0,2:0:0:0:
195,175,69423,2,0,P|121:237|53:305,1,192.640003019134,4|10,1:2|3:2,2:0:0:0:
191,363,69909,2,0,P|193:340|195:316,1,48.1600007547835,8|8,2:0|2:0,2:0:0:0:
210,193,70071,1,8,2:0:0:0:
210,193,70152,2,0,P|208:216|206:240,1,48.1600007547835,8|8,2:0|2:0,2:0:0:0:
133,261,70314,21,8,2:0:0:0:
133,261,70396,2,0,P|210:274|349:290,1,192.640003019134,6|0,3:2|1:0,2:0:0:0:
392,249,70882,1,0,2:0:0:0:
460,373,71044,2,0,B|483:329|483:329|461:268,1,96.320001509567,2|0,3:2|2:0,2:0:0:0:
317,203,71369,2,0,P|278:209|209:217,1,96.320001509567,0|0,1:0|2:0,2:0:0:0:
323,287,71693,6,0,P|248:294|157:372,1,192.640003019134,2|0,3:2|1:0,2:0:0:0:
128,286,72179,1,0,2:0:0:0:
48,328,72341,2,0,P|55:276|58:225,1,96.320001509567,2|0,3:2|2:0,2:0:0:0:
11,149,72666,2,0,P|63:156|114:159,1,96.320001509567,0|0,1:0|2:0,2:0:0:0:
179,203,72990,6,0,P|289:188|397:181,1,192.640003019134,6|0,3:2|1:0,2:0:0:0:
444,56,73477,1,0,2:0:0:0:
443,222,73639,2,0,P|454:170|468:113,1,96.320001509567,2|0,3:2|2:0,2:0:0:0:
322,43,73963,2,0,P|361:78|403:119,1,96.320001509567,0|0,1:0|2:0,2:0:0:0:
313,137,74287,86,0,P|233:144|166:240,1,192.640003019134,2|0,3:2|1:0,2:0:0:0:
177,304,74774,1,0,2:0:0:0:
184,227,74936,2,0,P|131:149|38:135,1,192.640003019134,2|0,3:2|1:0,2:0:0:0:
39,134,75585,38,0,P|35:80|31:25,1,96.320001509567,6|8,3:2|2:0,2:0:0:0:
101,2,75909,1,2,1:2:0:0:
172,19,76071,1,8,2:0:0:0:
369,87,76233,5,2,1:2:0:0:
305,198,76396,1,8,2:0:0:0:
344,260,76558,2,0,P|340:206|336:151,1,96.320001509567,2|8,1:2|2:0,2:0:0:0:
168,124,76882,2,0,P|172:178|176:233,1,96.320001509567,2|8,1:2|2:0,2:0:0:0:
235,273,77206,5,2,1:2:0:0:
108,302,77369,1,8,2:0:0:0:
154,240,77531,1,2,1:2:0:0:
221,353,77693,1,8,2:0:0:0:
221,353,77855,2,0,P|271:362|326:368,1,96.320001509567,2|8,1:2|2:0,2:0:0:0:
392,380,78179,5,6,1:2:0:0:
361,306,78341,1,8,2:0:0:0:
440,320,78504,1,2,1:2:0:0:
464,185,78666,5,8,2:0:0:0:
495,259,78828,1,2,1:2:0:0:
416,245,78991,1,8,2:0:0:0:
416,245,79152,2,0,P|359:240|306:237,1,96.320001509567,2|0,1:2|2:0,2:0:0:0:
245,230,79477,5,2,1:2:0:0:
169,223,79639,1,0,1:0:0:0:
254,241,80125,5,0,1:0:0:0:
178,234,80287,1,0,1:0:0:0:
209,305,80450,2,0,B|204:329|204:329|201:332|201:332|206:342|206:342|203:347|203:347|200:356|200:356|197:396,1,87.7200008393839,0|0,2:0|2:0,2:0:0:0:
223,170,80774,5,6,3:2:0:0:
203,192,89531,5,2,3:2:0:0:
198,203,89612,1,0,3:0:0:0:
210,200,89693,2,0,P|232:202|268:213,2,34.9733320136725,2|0|0,3:2|2:0|2:0,2:0:0:0:
258,212,89855,6,0,B|237:195|237:195|263:79,1,104.919996041017,2|2,1:2|2:0,2:0:0:0:
262,126,90098,2,0,B|279:49|279:49|258:32,1,104.919996041017,0|0,3:0|2:0,2:0:0:0:
264,21,90341,2,0,P|238:21|205:25,1,52.4599980205087,2|0,3:2|2:0,2:0:0:0:
140,29,90504,6,0,L|93:29,6,26.2299990102544,2|0|0|0|0|0|0,1:2|2:0|3:0|2:0|3:0|2:0|3:0,2:0:0:0:
40,32,90828,1,2,3:2:0:0:
40,32,91152,6,0,P|106:68|158:172,1,158.239995236351,6|2,3:1|1:2,2:0:0:0:
94,193,91639,1,0,2:0:0:0:
4,148,91801,2,0,P|15:192|22:247,1,79.1199976181754,2|0,3:2|3:0,2:0:0:0:
155,290,92125,2,0,P|164:251|171:212,1,79.1199976181754,2|0,1:2|2:0,2:0:0:0:
15,339,92450,6,0,B|99:309|88:380|178:379,1,158.239995236351,2|0,3:2|1:0,2:0:0:0:
234,329,92936,1,2,2:0:0:0:
333,357,93098,2,0,B|413:373|413:373|479:320,1,158.239995236351,2|0,3:2|1:0,2:0:0:0:
399,207,93585,1,2,2:0:0:0:
399,207,93747,54,0,P|393:237|385:296,1,79.1199976181754,2|2,3:2|3:2,2:0:0:0:
362,128,94071,2,0,P|302:76|239:27,1,158.239995236351,2|2,1:2|3:2,2:0:0:0:
167,2,94558,1,2,3:2:0:0:
88,41,94720,1,2,1:2:0:0:
171,34,94882,1,2,2:0:0:0:
13,5,95044,5,2,3:2:0:0:
20,88,95206,1,2,3:2:0:0:
197,15,95369,2,0,P|267:33|323:97,1,158.239995236351,2|2,1:2|3:2,2:0:0:0:
281,162,95855,1,0,3:0:0:0:
281,162,95936,1,0,2:0:0:0:
281,162,96017,2,0,P|286:206|294:246,1,79.1199976181754,2|2,1:2|2:0,2:0:0:0:
435,284,96341,6,0,B|353:250|357:328|286:316,1,158.239995236351,2|2,3:2|1:2,2:0:0:0:
224,275,96828,1,0,2:0:0:0:
115,373,96990,2,0,B|103:334|103:334|120:284,1,79.1199976181754,2|0,3:2|3:0,2:0:0:0:
72,233,97314,1,2,1:2:0:0:
72,233,97639,6,0,P|150:254|231:277,1,158.239995236351,2|0,3:2|1:0,2:0:0:0:
281,220,98125,1,2,2:0:0:0:
387,384,98287,2,0,B|442:326|442:326|405:234,1,158.239995236351,2|0,3:2|1:0,2:0:0:0:
403,135,98774,1,2,2:0:0:0:
357,199,98936,6,0,P|319:209|281:220,1,79.1199976181754,2|2,3:2|3:2,2:0:0:0:
215,195,99260,2,0,P|165:188|86:285,1,158.239995236351,2|2,1:2|3:2,2:0:0:0:
126,339,99747,1,2,3:2:0:0:
36,365,99909,2,0,B|47:326|47:326|26:286,1,79.1199976181754,2|2,1:2|2:0,2:0:0:0:
22,102,100233,53,2,3:2:0:0:
7,175,100396,1,2,3:2:0:0:
89,254,100558,5,2,1:3:0:0:
89,148,100720,1,0,2:0:0:0:
173,194,100882,2,0,P|219:210|274:222,1,79.1199976181754,8|8,1:2|2:0,2:0:0:0:
333,198,101206,53,8,2:0:0:0:
331,238,101287,1,8,2:0:0:0:
373,232,101369,1,8,2:0:0:0:
402,257,101450,1,8,2:0:0:0:
406,230,101531,2,0,P|411:158|405:93,1,123.840003452591,4|0,3:2|2:0,2:0:0:0:
356,49,102017,1,0,3:0:0:0:
282,94,102179,2,0,P|251:102|221:109,1,61.9200017262954,0|0,1:0|2:0,2:0:0:0:
282,249,102504,2,0,P|251:241|221:234,1,61.9200017262954,0|0,2:0|3:0,2:0:0:0:
66,145,102828,6,0,B|135:136|113:175|189:170,1,123.840003452591,0|0,3:0|2:0,2:0:0:0:
79,60,103314,1,0,2:0:0:0:
6,91,103477,2,0,B|-18:134|-18:134|5:227,1,123.840003452591,0|0,1:0|2:0,2:0:0:0:
136,271,103963,1,0,3:0:0:0:
76,307,104125,6,0,P|29:292|-6:286,1,61.9200017262954,0|0,3:0|2:0,2:0:0:0:
194,308,104450,2,0,B|205:338|205:338|198:368,1,61.9200017262954,0|0,3:0|3:0,2:0:0:0:
123,207,104774,2,0,P|204:211|265:189,1,123.840003452591,0|0,1:0|2:0,2:0:0:0:
305,154,105260,1,0,3:0:0:0:
401,263,105423,2,0,P|412:204|414:118,1,123.840003452591,0|0,2:0|2:0,2:0:0:0:
443,63,105909,1,0,3:0:0:0:
427,60,105990,1,0,3:0:0:0:
438,54,106071,2,0,P|396:55|329:70,1,92.880002589443,0|0,1:0|2:0,2:0:0:0:
346,64,106396,2,0,L|258:52,1,61.9200017262954,0|0,3:0|3:0,2:0:0:0:
180,7,106720,86,0,B|209:59|209:59|186:130,1,123.840003452591,0|0,3:0|2:0,2:0:0:0:
161,190,107206,1,0,3:0:0:0:
105,77,107369,2,0,P|47:87|-19:100,1,123.840003452591,0|0,1:0|2:0,2:0:0:0:
188,201,108017,6,0,P|208:145|230:82,1,123.840003452591,0|0,3:0|2:0,2:0:0:0:
261,17,108504,1,0,2:0:0:0:
305,82,108666,2,0,P|323:104|345:129,1,61.9200017262954,0|0,1:0|2:0,2:0:0:0:
323,65,108990,2,0,P|341:87|363:112,1,61.9200017262954,0|0,2:0|3:0,2:0:0:0:
473,187,109314,6,0,B|406:162|400:208|339:208,1,123.840003452591,0|0,3:0|3:0,2:0:0:0:
283,176,109801,1,0,3:0:0:0:
221,253,109963,2,0,P|177:258|96:267,1,123.840003452591,0|0,1:0|2:0,2:0:0:0:
21,111,110612,86,0,B|65:94|117:122|80:151|142:180|201:151,1,185.760005178886,4|0,3:2|3:0,2:0:0:0:
351,102,111260,6,0,B|390:128|391:196|391:196|340:68|184:75|184:75|248:79|269:137,1,457.519996000522,0|0,1:0|2:0,2:0:0:0:
298,182,111909,6,0,B|305:248|305:248|304:253|304:253|309:305,1,123.840003452591,4|0,3:2|3:0,2:0:0:0:
225,261,112396,2,0,B|185:310|185:310|209:369,1,123.840003452591,0|0,3:0|3:0,2:0:0:0:
316,383,112882,2,0,P|356:389|381:393,1,61.9200017262954,0|0,2:0|2:0,2:0:0:0:
490,252,113206,85,0,1:0:0:0:
426,280,113369,2,0,B|363:261|365:307|303:305,1,123.840003452591,0|0,2:0|2:0,2:0:0:0:
225,261,113855,1,0,1:0:0:0:
225,261,114017,1,0,2:0:0:0:
151,293,114179,2,0,P|132:319|101:353,1,61.9200017262954,0|0,2:0|3:0,2:0:0:0:
159,217,114504,6,0,P|134:160|114:101,1,123.840003452591,0|0,3:0|3:0,2:0:0:0:
273,10,114990,2,0,P|230:26|196:96,1,123.840003452591,0|0,3:0|3:0,2:0:0:0:
321,140,115477,2,0,P|296:122|281:96,1,61.9200017262954,0|0,2:0|3:0,2:0:0:0:
356,70,115801,1,0,1:0:0:0:
469,35,115963,6,0,P|420:35|344:83,1,123.840003452591,0|0,3:0|3:0,2:0:0:0:
476,185,116450,2,0,P|486:146|408:125,1,123.840003452591,0|0,1:0|2:0,2:0:0:0:
448,288,117098,86,0,B|442:281|442:281|436:288|436:288|350:296,1,92.880002589443,4|0,3:2|2:0,2:0:0:0:
353,304,117423,2,0,B|345:298|345:298|348:289|348:289|339:212,1,92.880002589443,0|0,3:0|2:0,2:0:0:0:
334,200,117747,2,0,B|324:196|324:196|306:208|306:208|231:215,1,92.880002589443,0|0,1:0|2:0,2:0:0:0:
226,204,118071,2,0,B|222:213|222:213|231:223|231:223|224:295,1,92.880002589443,0|0,2:0|2:0,2:0:0:0:
165,333,118396,6,0,B|135:374|87:350|87:350|87:345,1,92.880002589443,0|0,3:0|2:0,2:0:0:0:
9,293,118720,2,0,B|-11:246|33:216|33:216|36:219,1,92.880002589443,0|0,2:0|2:0,2:0:0:0:
121,177,119044,2,0,B|171:182|174:236|174:236|170:237,1,92.880002589443,0|0,1:0|2:0,2:0:0:0:
93,261,119369,6,0,L|95:276,1,15.4800004315738,0|0,2:0|2:0,2:0:0:0:
4,104,119693,86,0,B|68:119|68:119|130:90,1,123.840003452591,0|0,1:0|3:0,2:0:0:0:
181,45,120179,1,0,3:0:0:0:
226,157,120341,2,0,P|285:165|373:177,1,123.840003452591,0|0,1:0|2:0,2:0:0:0:
434,185,120828,1,0,3:0:0:0:
451,189,120909,1,0,2:0:0:0:
441,198,120990,6,0,B|319:122|344:269|206:240,1,247.680006905181,2|0,2:3|2:0,2:0:0:0:
218,242,122125,1,0,2:0:0:0:
24,288,122287,22,0,B|123:270|123:270|182:348,1,192.640003019134,6|0,3:1|1:0,2:0:0:0:
88,364,122774,1,2,2:0:0:0:
218,242,122936,2,0,P|276:249|357:254,1,96.320001509567,2|0,3:2|3:0,2:0:0:0:
384,293,123260,1,0,1:0:0:0:
496,80,123423,5,2,2:0:0:0:
431,44,123585,2,0,P|330:61|266:142,1,192.640003019134,2|0,3:2|1:0,2:0:0:0:
340,179,124071,1,2,2:0:0:0:
187,233,124233,2,0,B|207:187|207:187|196:136,1,96.320001509567,2|0,3:2|3:0,2:0:0:0:
141,78,124558,1,0,1:0:0:0:
33,293,124720,5,2,2:0:0:0:
91,333,124882,2,0,B|190:297|175:372|311:372,1,192.640003019134,2|0,3:2|1:0,2:0:0:0:
326,320,125369,1,2,2:0:0:0:
455,368,125531,2,0,P|463:318|474:264,1,96.320001509567,2|0,3:2|3:0,2:0:0:0:
437,210,125855,1,0,1:0:0:0:
494,53,126017,5,2,2:0:0:0:
430,83,126179,2,0,B|374:74|374:74|357:55|357:55|232:34,1,192.640003019134,2|0,3:2|1:0,2:0:0:0:
241,112,126666,1,0,2:0:0:0:
15,99,126828,2,0,P|82:45|180:64,1,192.640003019134,0|0,3:0|1:0,2:0:0:0:
174,185,127314,5,2,2:0:0:0:
112,151,127477,2,0,P|124:223|142:350,1,192.640003019134,6|0,3:2|1:0,2:0:0:0:
210,318,127963,1,2,2:0:0:0:
366,378,128125,2,0,B|390:336|390:336|372:278,1,96.320001509567,2|0,3:2|3:0,2:0:0:0:
336,229,128450,1,0,1:0:0:0:
480,333,128612,53,2,2:0:0:0:
502,267,128774,2,0,P|506:203|504:58,1,192.640003019134,2|0,3:2|1:0,2:0:0:0:
466,12,129260,1,2,2:0:0:0:
352,131,129423,6,0,P|389:101|431:76,1,96.320001509567,2|0,3:2|3:0,2:0:0:0:
279,120,129747,2,0,P|234:101|192:78,1,96.320001509567,0|2,1:0|2:0,2:0:0:0:
306,188,130071,2,0,P|317:259|320:403,1,192.640003019134,2|0,3:2|1:0,2:0:0:0:
402,282,130558,1,2,2:0:0:0:
234,250,130720,2,0,P|231:311|233:362,1,96.320001509567,2|0,3:2|3:0,2:0:0:0:
180,183,131044,2,0,P|119:186|68:184,1,96.320001509567,4|2,1:2|2:0,2:0:0:0:
250,143,131369,5,2,3:2:0:0:
322,149,131531,1,0,3:0:0:0:
250,143,132017,5,0,3:0:0:0:
322,149,132179,1,0,3:0:0:0:
451,49,132341,5,8,2:0:0:0:
443,90,132423,1,8,2:0:0:0:
409,56,132504,1,10,2:0:0:0:
393,32,132585,1,8,2:0:0:0:
384,73,132666,2,0,P|291:75|232:2,1,192.640003019134,6|0,3:1|1:0,2:0:0:0:
112,139,133152,1,2,2:0:0:0:
153,59,133314,2,0,P|99:69|47:77,1,96.320001509567,2|0,3:2|3:0,2:0:0:0:
10,21,133639,1,0,1:0:0:0:
126,268,133801,53,2,2:0:0:0:
50,224,133963,2,0,P|149:226|241:305,1,192.640003019134,2|0,3:2|1:0,2:0:0:0:
218,354,134450,1,2,2:0:0:0:
310,380,134612,2,0,B|291:339|291:339|308:283,1,96.320001509567,2|0,3:2|3:0,2:0:0:0:
369,252,134936,1,0,1:0:0:0:
262,146,135098,5,2,2:0:0:0:
300,215,135260,2,0,P|380:235|494:268,1,192.640003019134,2|0,3:2|1:0,2:0:0:0:
501,155,135747,1,2,2:0:0:0:
449,101,135909,2,0,P|417:104|368:147,1,96.320001509567,2|0,3:2|3:0,2:0:0:0:
300,215,136233,1,0,1:0:0:0:
71,116,136396,5,2,2:0:0:0:
128,72,136558,2,0,P|172:58|226:25,1,96.320001509567,2|0,3:2|3:0,2:0:0:0:
142,145,136882,2,0,P|166:230|175:346,1,192.640003019134,4|10,1:2|3:2,2:0:0:0:
51,296,137369,6,0,L|108:291,1,48.1600007547835,8|8,2:0|2:0,2:0:0:0:
255,282,137531,1,8,2:0:0:0:
255,282,137612,2,0,L|312:277,1,48.1600007547835,8|8,2:0|2:0,2:0:0:0:
459,268,137774,1,8,2:0:0:0:
459,268,137855,6,0,P|465:194|476:76,1,192.640003019134,6|0,3:2|1:0,2:0:0:0:
421,122,138341,1,0,2:0:0:0:
286,20,138504,2,0,P|243:31|183:47,1,96.320001509567,2|0,3:2|2:0,2:0:0:0:
360,67,138828,2,0,B|386:26|386:26|365:-23,1,96.320001509567,0|0,1:0|2:0,2:0:0:0:
255,129,139152,54,0,P|304:134|447:204,1,192.640003019134,2|0,3:2|1:0,2:0:0:0:
371,242,139639,1,0,2:0:0:0:
306,293,139801,2,0,P|313:342|326:405,1,96.320001509567,2|0,3:2|2:0,2:0:0:0:
475,329,140125,2,0,P|428:322|381:313,1,96.320001509567,0|0,1:0|2:0,2:0:0:0:
298,218,140450,6,0,P|223:215|152:318,1,192.640003019134,6|0,3:2|1:0,2:0:0:0:
200,361,140936,1,0,2:0:0:0:
67,383,141098,2,0,B|84:337|84:337|62:295,1,96.320001509567,2|0,3:2|2:0,2:0:0:0:
213,353,141423,2,0,P|281:368|314:375,1,96.320001509567,2|0,1:2|2:0,2:0:0:0:
156,274,141747,2,0,P|108:284|61:294,1,96.320001509567,2|0,3:2|2:0,2:0:0:0:
222,340,142071,2,0,P|290:355|323:362,1,96.320001509567,2|0,1:2|2:0,2:0:0:0:
170,199,142396,2,0,P|93:184|-13:266,1,192.640003019134,2|0,3:2|1:0,2:0:0:0:
0,241,143044,6,0,P|9:175|15:112,1,96.320001509567,6|8,3:2|2:0,2:0:0:0:
4,69,143369,1,2,1:2:0:0:
74,100,143531,1,8,2:0:0:0:
186,8,143693,6,0,B|201:55|201:55|183:98,1,96.320001509567,2|8,1:2|2:0,2:0:0:0:
268,187,144017,2,0,B|253:140|253:140|270:96,1,96.320001509567,2|8,1:2|2:0,2:0:0:0:
269,24,144341,5,2,1:2:0:0:
354,35,144504,1,8,2:0:0:0:
412,146,144666,53,2,1:2:0:0:
508,126,144828,1,8,2:0:0:0:
380,246,144990,6,0,P|318:234|273:219,1,96.320001509567,2|8,1:2|2:0,2:0:0:0:
268,187,145233,1,0,2:0:0:0:
268,187,145314,2,0,P|206:199|161:214,1,96.320001509567,2|8,1:2|2:0,2:0:0:0:
94,312,145639,6,0,B|113:268|113:268|92:225,1,96.320001509567,6|8,1:2|2:0,2:0:0:0:
18,190,145963,1,2,1:2:0:0:
26,271,146125,1,8,2:0:0:0:
119,156,146287,5,2,1:2:0:0:
10,109,146450,1,8,2:0:0:0:
114,267,146612,6,0,P|165:273|231:281,1,96.320001509567,8|0,1:2|2:0,2:0:0:0:
285,285,146936,5,2,1:2:0:0:
359,293,147098,1,0,1:0:0:0:
285,285,147585,5,8,2:0:0:0:
285,285,147666,1,8,2:0:0:0:
319,287,147747,1,8,2:0:0:0:
359,293,147828,1,8,2:0:0:0:
359,293,147909,1,0,3:0:0:0:
444,247,148071,1,0,3:0:0:0:
386,151,148233,22,0,B|370:112|370:112|390:54,1,87.7200008393839,2|0,3:2|2:0,2:0:0:0:
386,151,148558,2,0,B|334:130|334:130|298:195|298:195|237:213,1,175.440001678768,2|2,3:2|3:2,2:0:0:0:
176,141,149044,2,0,B|161:103|161:103|181:46,1,87.7200008393839,2|0,2:0|3:0,2:0:0:0:
242,102,149369,1,10,2:0:0:0:
123,40,149531,6,0,L|136:191,1,131.580001259076,2|0,3:2|2:0,2:0:0:0:
97,240,149855,2,0,L|66:276,3,43.8600004196919,10|8|8|8,3:2|2:0|2:0|2:0,2:0:0:0:
182,228,150179,2,0,L|218:263,3,43.8600004196919,10|8|0|0,3:2|2:0|2:0|2:0,2:0:0:0:
159,389,150504,2,0,P|153:345|151:302,1,87.7200008393839,8|8,3:2|2:0,2:0:0:0:
286,250,150828,6,0,P|327:267|395:293,1,87.7200008393839,2|0,3:2|2:0,2:0:0:0:
418,234,151152,2,0,B|330:244|357:303|253:317,1,175.440001678768,2|2,3:2|3:2,2:0:0:0:
182,228,151639,1,2,2:0:0:0:
182,228,151720,1,0,2:0:0:0:
182,228,151801,2,0,B|174:185|174:185|197:138,1,87.7200008393839,0|2,3:0|2:0,2:0:0:0:
178,43,152125,6,0,P|236:55|325:72,1,131.580001259076,10|8,3:2|2:0,2:0:0:0:
381,46,152450,2,0,L|417:22,3,43.8600004196919,2|0|0|0,3:2|3:0|3:0|3:0,2:0:0:0:
363,118,152774,2,0,L|380:162,3,29.2400002797946,2|0|0|0,3:2|2:0|2:0|2:0,2:0:0:0:
512,117,153098,2,0,P|479:106|437:97,1,87.7200008393839,0|8,3:0|2:0,2:0:0:0:
328,240,153423,6,0,P|370:230|413:219,1,87.7200008393839,2|0,3:2|2:0,2:0:0:0:
497,316,153747,2,0,B|443:308|443:308|412:279|412:279|306:273,1,175.440001678768,10|2,3:2|3:2,2:0:0:0:
244,276,154233,2,0,B|260:318|260:318|249:362,1,87.7200008393839,2|0,2:0|3:0,2:0:0:0:
178,323,154558,1,10,2:0:0:0:
101,199,154720,54,0,P|164:191|246:180,1,131.580001259076,10|0,3:2|2:0,2:0:0:0:
304,203,155044,1,10,3:2:0:0:
304,203,155125,2,0,L|352:228,1,43.8600004196919,8|8,2:0|2:0,2:0:0:0:
284,129,155287,1,8,2:0:0:0:
284,129,155369,2,0,L|303:84,1,43.8600004196919,2|0,3:2|2:0,2:0:0:0:
447,140,155531,5,8,2:0:0:0:
447,140,155612,1,0,2:0:0:0:
447,140,155693,2,0,P|403:143|360:148,1,87.7200008393839,2|8,3:2|2:0,2:0:0:0:
304,203,156017,2,0,P|377:210|452:286,1,175.440001678768,2|2,3:2|3:2,2:0:0:0:
393,343,156504,1,8,2:0:0:0:
393,343,156585,1,8,2:0:0:0:
393,343,156666,2,0,P|341:348|301:350,1,87.7200008393839,10|8,3:2|2:0,2:0:0:0:
119,367,156990,2,0,P|162:369|206:373,1,87.7200008393839,4|0,3:2|2:0,2:0:0:0:
222,384,157314,6,0,P|229:318|236:249,1,131.580001259076,6|0,1:2|2:0,2:0:0:0:
178,201,157639,6,0,L|92:217,1,69.6600019420823,2|0,1:2|2:0,2:0:0:0:
315,261,157801,2,0,L|401:277,1,69.6600019420823,2|0,1:2|2:0,2:0:0:0:
154,337,157963,2,0,L|68:353,1,69.6600019420823,2|0,1:2|2:0,2:0:0:0:
61,115,158287,6,0,B|76:72|76:72|60:21,1,87.7200008393839,6|0,3:1|2:0,2:0:0:0:
171,67,158611,2,0,P|225:80|257:85,1,87.7200008393839,6|0,1:2|2:0,2:0:0:0:
355,156,158935,2,0,B|266:158|292:210|170:227,1,175.440001678768,2|2,3:2|1:2,2:0:0:0:
143,168,159422,1,0,2:0:0:0:
99,369,159584,54,0,B|83:328|83:328|105:267,1,87.7200008393839,6|0,3:2|2:0,2:0:0:0:
48,227,159908,2,0,P|129:242|201:318,1,175.440001678768,2|2,1:2|3:2,2:0:0:0:
273,288,160395,1,0,2:0:0:0:
334,339,160557,2,0,B|366:345|366:345|375:353|375:353|429:372,1,87.7200008393839,2|0,1:2|2:0,2:0:0:0:
431,238,160881,6,0,P|341:241|259:306,1,175.440001678768,6|0,3:2|1:0,2:0:0:0:
219,225,161368,1,0,2:0:0:0:
194,304,161530,2,0,P|114:269|29:282,1,175.440001678768,0|0,3:0|1:0,2:0:0:0:
130,158,162178,6,0,P|133:95|132:27,2,131.580001259076,0|0|0,1:0|1:0|1:0,2:0:0:0:
159,246,162827,1,0,3:0:0:0:
126,262,162908,1,0,3:0:0:0:
148,284,162989,1,0,3:0:0:0:
138,304,163070,1,0,3:0:0:0:
138,304,163151,2,0,P|136:354|136:396,1,87.7200008393839,0|0,1:0|2:0,2:0:0:0:
146,156,163477,37,4,2:0:0:0:
96,192,172558,5,0,1:0:0:0:
170,185,172720,1,0,1:0:0:0:
106,201,173206,5,0,1:0:0:0:
180,194,173368,1,0,1:0:0:0:
236,354,173693,5,0,2:0:0:0:
258,282,173855,2,0,B|365:246|371:331|457:332,1,192.640003019134,6|0,3:1|1:0,2:0:0:0:
494,278,174341,1,2,2:0:0:0:
494,278,174422,1,0,2:0:0:0:
494,278,174504,2,0,B|514:234|514:234|491:188,1,96.320001509567,2|0,3:2|3:0,2:0:0:0:
344,129,174828,1,0,1:0:0:0:
417,107,174990,5,2,2:0:0:0:
329,15,175152,2,0,P|312:98|284:209,1,192.640003019134,2|0,3:2|1:0,2:0:0:0:
243,275,175639,1,2,2:0:0:0:
243,275,175720,1,0,2:0:0:0:
243,275,175801,1,2,3:2:0:0:
271,354,175963,1,0,3:0:0:0:
320,292,176125,1,0,1:0:0:0:
57,336,176287,5,2,2:0:0:0:
12,280,176449,2,0,P|97:300|222:350,1,192.640003019134,6|0,3:2|1:0,2:0:0:0:
168,178,176936,1,2,2:0:0:0:
168,178,177017,1,0,2:0:0:0:
168,178,177098,2,0,P|117:197|53:204,1,96.320001509567,2|0,3:2|3:0,2:0:0:0:
11,138,177422,1,0,1:0:0:0:
11,138,177585,1,2,2:0:0:0:
228,60,177747,6,0,L|251:168,1,96.320001509567,0|0,3:0|3:0,2:0:0:0:
160,6,178071,2,0,P|226:7|351:84,1,192.640003019134,4|10,1:2|3:2,2:0:0:0:
406,19,178558,1,8,2:0:0:0:
373,206,178720,1,8,2:0:0:0:
373,206,178801,2,0,L|370:146,1,48.1600007547835,8|8,2:0|2:0,2:0:0:0:
448,235,178963,21,8,2:0:0:0:
448,235,179044,2,0,B|368:210|373:286|254:282,1,192.640003019134,6|0,3:2|1:0,2:0:0:0:
207,240,179531,1,0,2:0:0:0:
164,383,179693,2,0,B|144:338|144:338|161:288,1,96.320001509567,2|0,3:2|2:0,2:0:0:0:
136,223,180017,2,0,P|81:231|32:238,1,96.320001509567,0|0,1:0|2:0,2:0:0:0:
10,108,180341,6,0,P|109:114|189:171,1,192.640003019134,2|0,3:2|1:0,2:0:0:0:
223,92,180828,1,0,2:0:0:0:
290,146,180990,2,0,P|297:97|299:42,1,96.320001509567,2|0,3:2|2:0,2:0:0:0:
370,87,181314,2,0,P|419:94|474:96,1,96.320001509567,0|0,1:0|2:0,2:0:0:0:
290,146,181639,6,0,P|356:164|404:271,1,192.640003019134,6|0,3:2|1:0,2:0:0:0:
465,319,182125,1,0,2:0:0:0:
331,296,182287,2,0,B|346:341|346:341|323:386,1,96.320001509567,2|0,3:2|2:0,2:0:0:0:
241,377,182612,2,0,B|226:332|226:332|249:287,1,96.320001509567,0|0,1:0|2:0,2:0:0:0:
180,257,182936,86,0,P|107:275|-20:307,1,192.640003019134,2|0,3:2|1:0,2:0:0:0:
26,214,183422,1,0,2:0:0:0:
5,121,183585,2,0,B|94:85|110:170|183:165,1,192.640003019134,2|0,3:2|1:0,2:0:0:0:
186,164,184233,37,6,3:2:0:0:
182,137,184395,1,8,2:0:0:0:
272,103,184558,5,2,1:2:0:0:
261,193,184720,1,8,2:0:0:0:
317,251,184882,5,2,1:2:0:0:
367,110,185044,1,8,2:0:0:0:
367,110,185125,1,0,2:0:0:0:
367,110,185206,2,0,P|357:58|342:7,1,96.320001509567,2|8,1:2|2:0,2:0:0:0:
437,178,185531,5,2,1:2:0:0:
272,103,185693,1,8,2:0:0:0:
206,153,185855,5,2,1:2:0:0:
348,184,186017,1,8,2:0:0:0:
288,90,186179,53,2,1:2:0:0:
265,219,186341,1,8,2:0:0:0:
242,348,186504,1,2,1:2:0:0:
318,326,186666,6,0,P|371:338|429:349,1,96.320001509567,8|2,2:0|2:0,2:0:0:0:
194,58,188125,6,0,P|141:46|83:35,1,87.7200008393839,6|0,3:1|2:0,2:0:0:0:
37,89,188449,1,2,1:2:0:0:
37,89,188612,1,0,2:0:0:0:
103,162,188774,2,0,P|192:174|254:249,1,175.440001678768,2|2,3:2|1:2,2:0:0:0:
245,320,189260,5,0,2:0:0:0:
169,283,189422,2,0,P|173:342|175:378,1,87.7200008393839,2|2,3:2|3:2,2:0:0:0:
274,328,189747,2,0,B|358:353|371:284|463:317,1,175.440001678768,2|2,1:2|3:2,2:0:0:0:
488,247,190233,1,2,3:2:0:0:
404,230,190395,2,0,B|392:183|392:183|410:137,1,87.7200008393839,2|0,1:2|2:0,2:0:0:0:
473,45,190720,6,0,P|415:97|308:84,1,175.440001678768,2|2,3:2|1:2,2:0:0:0:
266,30,191206,1,0,2:0:0:0:
201,169,191368,2,0,B|224:132|224:132|213:89,1,87.7200008393839,2|2,3:2|3:2,2:0:0:0:
133,33,191693,2,0,P|83:53|37:67,1,87.7200008393839,2|0,1:2|2:0,2:0:0:0:
6,128,192017,53,2,3:2:0:0:
6,128,192179,1,2,3:2:0:0:
71,198,192341,2,0,P|161:200|237:269,1,175.440001678768,2|2,1:2|3:2,2:0:0:0:
335,205,192828,5,0,1:0:0:0:
321,293,192990,1,2,3:2:0:0:
354,197,193152,1,0,1:0:0:0:
339,283,193314,2,0,P|385:288|431:296,1,87.7200008393839,6|2,3:2|2:0,2:0:0:0:
271,360,193639,1,2,1:2:0:0:
271,360,193801,1,0,2:0:0:0:
206,308,193963,2,0,B|148:260|116:330|34:324,1,175.440001678768,2|2,3:2|1:2,2:0:0:0:
21,246,194449,1,0,2:0:0:0:
96,168,194612,6,0,P|143:180|189:193,1,87.7200008393839,2|2,3:2|3:2,2:0:0:0:
54,79,194936,2,0,P|150:79|249:76,1,175.440001678768,2|2,1:2|3:2,2:0:0:0:
287,22,195422,1,2,3:2:0:0:
393,91,195585,2,0,B|408:136|408:136|392:172,1,87.7200008393839,2|0,1:2|2:0,2:0:0:0:
330,212,195909,6,0,P|346:297|363:397,1,175.440001678768,2|2,3:2|1:2,2:0:0:0:
512,295,196395,1,0,2:0:0:0:
445,248,196558,2,0,P|434:296|430:337,1,87.7200008393839,2|2,3:2|3:2,2:0:0:0:
337,353,196882,2,0,P|332:309|322:266,1,87.7200008393839,2|0,1:2|2:0,2:0:0:0:
251,322,197206,5,2,3:2:0:0:
251,322,197368,1,2,3:2:0:0:
177,348,197531,2,0,B|117:307|91:367|-3:369,1,175.440001678768,6|10,1:2|3:2,2:0:0:0:
3,240,198017,1,8,2:0:0:0:
3,240,198098,1,8,2:0:0:0:
3,240,198179,2,0,P|55:255|83:259,3,43.8600004196919,10|8|8|8,2:0|2:0|2:0|2:0,2:0:0:0:
100,200,198504,6,0,P|93:140|90:11,1,175.440001678768,6|6,3:1|3:2,2:0:0:0:
303,165,199152,2,0,P|301:252|292:339,1,175.440001678768,2|2,1:2|3:2,2:0:0:0:
176,81,199801,6,0,P|221:77|272:70,1,87.7200008393839,2|0,3:2|2:0,2:0:0:0:
363,81,200125,2,0,B|387:45|387:45|380:-5,1,87.7200008393839,2|0,1:2|2:0,2:0:0:0:
304,145,200449,2,0,L|312:236,1,87.7200008393839,2|0,3:2|2:0,2:0:0:0:
262,60,200774,2,0,P|218:43|172:52,1,87.7200008393839,2|0,3:2|2:0,2:0:0:0:
159,138,201098,6,0,B|64:147|93:87|-10:102,1,175.440001678768,2|6,1:2|3:2,2:0:0:0:
0,320,201747,2,0,B|100:334|71:274|166:283,1,175.440001678768,2|2,3:2|1:2,2:0:0:0:
294,236,202395,2,0,P|289:285|286:331,1,87.7200008393839,2|0,3:2|2:0,2:0:0:0:
262,166,202720,2,0,P|222:137|183:111,1,87.7200008393839,2|0,3:2|2:0,2:0:0:0:
339,170,203044,2,0,P|383:149|442:34,1,175.440001678768,2|2,1:2|1:2,2:0:0:0:
107,32,203693,6,0,P|116:72|121:124,1,87.7200008393839,6|2,3:1|2:0,2:0:0:0:
214,100,204017,2,0,B|118:110|171:161|43:175,1,175.440001678768,2|2,1:2|3:2,2:0:0:0:
11,240,204504,1,2,3:2:0:0:
86,283,204666,2,0,B|107:322|107:322|95:373,1,87.7200008393839,2|0,1:2|2:0,2:0:0:0:
86,283,204990,6,0,P|132:206|216:207,1,175.440001678768,2|6,3:2|1:2,2:0:0:0:
256,288,205476,1,0,2:0:0:0:
301,204,205639,2,0,P|385:209|426:283,1,175.440001678768,2|2,3:2|1:2,2:0:0:0:
463,113,206287,54,0,P|455:59|454:8,1,87.7200008393839,6|2,2:1|2:0,2:0:0:0:
453,25,206774,1,2,2:0:0:0:
383,4,206936,1,2,2:0:0:0:
312,40,207098,1,2,2:0:0:0:
233,22,207260,1,2,2:0:0:0:
168,52,207422,5,2,2:0:0:0:
168,52,207747,1,2,2:0:0:0:
241,14,207909,1,2,2:0:0:0:
315,47,208071,1,2,2:0:0:0:
386,10,208233,1,2,2:0:0:0:
461,25,208395,5,2,2:0:0:0:
461,25,208720,1,2,2:0:0:0:
383,16,208882,1,2,2:0:0:0:
313,56,209044,1,2,2:0:0:0:
237,20,209206,1,2,2:0:0:0:
162,60,209368,85,2,2:0:0:0:
162,60,209693,1,2,2:0:0:0:
242,15,209855,1,2,2:0:0:0:
315,67,210017,1,2,2:0:0:0:
383,16,210179,1,2,2:0:0:0:
470,32,210341,5,2,2:0:0:0:
470,32,210666,1,2,2:0:0:0:
