osu file format v14

[General]
AudioFilename: audio.mp3
AudioLeadIn: 0
PreviewTime: 47663
Countdown: 0
SampleSet: Soft
StackLeniency: 0.7
Mode: 0
LetterboxInBreaks: 0
WidescreenStoryboard: 0

[Editor]
DistanceSpacing: 1
BeatDivisor: 4
GridSize: 4
TimelineZoom: 1.8

[Metadata]
Title:Inferno (TV Size)
TitleUnicode:Inferno (TV Size)
Artist:Mrs. GREEN APPLE
ArtistUnicode:Mrs. GREEN APPLE
Creator:wheelchair
Version:Conflagration
Source:
Tags:
BeatmapID:2170883
BeatmapSetID:1038505

[Difficulty]
HPDrainRate:5
CircleSize:3.8
OverallDifficulty:9
ApproachRate:9.2
SliderMultiplier:1.82
SliderTickRate:1

[Events]
//Background and Video events
0,0,"720685.png",0,0
//Break Periods
//Storyboard Layer 0 (Background)
//Storyboard Layer 1 (Fail)
//Storyboard Layer 2 (Pass)
//Storyboard Layer 3 (Foreground)
//Storyboard Layer 4 (Overlay)
//Storyboard Sound Samples

[TimingPoints]
555,324.324324324324,4,2,1,80,1,0
555,-80,4,2,1,80,0,0
798,-80,4,2,1,5,0,0
879,-80,4,2,1,80,0,0
1771,-80,4,2,1,5,0,0
1852,-80,4,2,1,80,0,0
5744,-133.333333333333,4,2,1,50,0,0
6311,-133.333333333333,4,2,1,5,0,0
6392,-133.333333333333,4,2,1,50,0,0
6960,-133.333333333333,4,2,1,5,0,0
7041,-133.333333333333,4,2,1,50,0,0
11500,-133.333333333333,4,2,1,5,0,0
11581,-133.333333333333,4,2,1,50,0,0
12149,-133.333333333333,4,2,1,5,0,0
12230,-133.333333333333,4,2,1,50,0,0
14095,-133.333333333333,4,2,1,5,0,0
14176,-133.333333333333,4,2,1,50,0,0
16122,-100,4,2,1,60,0,0
17338,-100,4,2,1,5,0,0
17419,-100,4,2,1,60,0,0
20582,-100,4,2,1,5,0,0
20663,-100,4,2,1,60,0,0
21879,-100,4,2,1,5,0,0
21960,-100,4,2,1,60,0,0
22527,-100,4,2,1,5,0,0
22608,-100,4,2,1,60,0,0
26176,-250,4,2,1,40,0,0
26419,-250,4,2,1,5,0,0
26500,-133.333333333333,4,2,1,50,0,0
27149,-100,4,2,1,50,0,0
28446,-133.333333333333,4,2,1,50,0,0
29095,-100,4,2,1,50,0,0
29338,-100,4,2,1,5,0,0
29419,-133.333333333333,4,2,1,50,0,0
30392,-200,4,2,1,50,0,0
31203,-100,4,2,1,50,0,0
33636,-133.333333333333,4,2,1,50,0,0
35582,-100,4,2,1,50,0,0
37852,-200,4,2,1,50,0,0
38176,-80,4,2,1,80,0,1
47257,-80,4,2,1,60,0,0
48554,-80,4,2,1,80,0,1
53906,-80,4,2,1,5,0,1
54068,-80,4,2,1,80,0,1
54230,-80,4,2,1,5,0,1
54392,-80,4,2,1,80,0,1
54554,-80,4,2,1,5,0,1
54717,-80,4,2,1,80,0,1
54879,-80,4,2,1,5,0,1
55041,-80,4,2,1,80,0,1
55203,-80,4,2,1,5,0,1
55365,-80,4,2,1,80,0,1
55527,-80,4,2,1,5,0,1
55689,-80,4,2,1,80,0,1
55851,-80,4,2,1,5,0,1
56014,-80,4,2,1,80,0,1
56176,-80,4,2,1,5,0,1
56338,-80,4,2,1,80,0,1
56500,-80,4,2,1,5,0,1
56662,-80,4,2,1,80,0,1
56824,-80,4,2,1,5,0,1
56987,-80,4,2,1,80,0,1
57149,-80,4,2,1,5,0,1
57311,-80,4,2,1,80,0,1
57473,-80,4,2,1,5,0,1
57635,-80,4,2,1,80,0,1
57797,-80,4,2,1,5,0,1
57960,-80,4,2,1,80,0,1
58122,-80,4,2,1,5,0,1
58284,-80,4,2,1,80,0,1
58446,-80,4,2,1,5,0,1
58609,-80,4,2,1,80,0,1
58771,-80,4,2,1,5,0,1
58852,-80,4,2,1,80,0,0
58933,-80,4,2,1,80,0,1
62825,-80,4,2,1,60,0,0
64122,-166.666666666667,4,2,2,40,0,0
64203,-166.666666666667,4,2,1,40,0,0
73203,-80,4,2,1,60,0,0
74500,-80,4,2,1,80,0,1
79852,-80,4,2,1,5,0,1
80014,-80,4,2,1,80,0,1
80176,-80,4,2,1,5,0,1
80338,-80,4,2,1,80,0,1
80500,-80,4,2,1,5,0,1
80663,-80,4,2,1,80,0,1
80825,-80,4,2,1,5,0,1
80987,-80,4,2,1,80,0,1
81149,-80,4,2,1,5,0,1
81311,-80,4,2,1,80,0,1
81473,-80,4,2,1,5,0,1
81635,-80,4,2,1,80,0,1
81797,-80,4,2,1,5,0,1
81960,-80,4,2,1,80,0,1
82122,-80,4,2,1,5,0,1
82284,-80,4,2,1,80,0,1
82446,-80,4,2,1,5,0,1
82608,-80,4,2,1,80,0,1
82770,-80,4,2,1,5,0,1
82933,-80,4,2,1,80,0,1
83095,-80,4,2,1,5,0,1
83257,-80,4,2,1,80,0,1
83419,-80,4,2,1,5,0,1
83581,-80,4,2,1,80,0,1
83743,-80,4,2,1,5,0,1
83906,-80,4,2,1,80,0,1
84068,-80,4,2,1,5,0,1
84230,-80,4,2,1,80,0,1
84392,-80,4,2,1,5,0,1
84555,-80,4,2,1,80,0,1
84717,-80,4,2,1,5,0,1
84798,-80,4,2,1,80,0,0
84879,-80,4,2,1,80,0,1
87473,-100,4,2,1,40,0,0
89095,-100,4,2,1,5,0,0

[Colours]
Combo1 : 255,181,106
Combo2 : 255,85,85
Combo3 : 59,59,59
Combo4 : 0,232,232

[HitObjects]
165,100,555,6,0,B|251:80|228:173|353:129,1,170.625
420,99,879,2,0,P|426:155|384:224,1,113.75
298,42,1203,1,0,0:0:0:0:
209,215,1365,1,0,0:0:0:0:
420,99,1527,2,0,B|431:171|347:162|391:287,1,170.625
306,329,1852,5,0,0:0:0:0:
490,228,2014,1,0,0:0:0:0:
312,119,2176,2,0,P|259:155|182:140,1,113.75
238,60,2501,1,0,0:0:0:0:
298,246,2663,1,0,0:0:0:0:
110,189,2825,2,0,P|163:153|240:168,1,113.75
318,48,3149,5,0,0:0:0:0:
238,321,3311,1,0,0:0:0:0:
394,86,3473,5,0,0:0:0:0:
169,268,3636,1,0,0:0:0:0:
413,167,3798,5,0,0:0:0:0:
152,184,3960,1,0,0:0:0:0:
392,246,4122,5,0,0:0:0:0:
172,104,4284,1,0,0:0:0:0:
335,307,4446,5,0,0:0:0:0:
341,47,4609,1,0,0:0:0:0:
472,168,4771,2,0,L|408:168,1,56.875
278,307,4933,2,0,L|342:307,1,56.875
474,341,5095,5,0,0:0:0:0:
285,129,5257,1,0,0:0:0:0:
161,306,5582,5,0,0:0:0:0:
161,306,5744,2,0,P|136:252|139:212,1,68.250002603531
62,168,6068,2,0,P|115:142|177:147,1,102.375003905296
248,109,6392,2,0,L|248:205,1,68.250002603531
263,282,6717,2,0,P|318:254|348:213,1,102.375003905296
447,152,7041,6,0,L|447:300,1,136.500005207062
342,222,7527,1,0,0:0:0:0:
342,222,7690,2,0,P|341:181|308:137,1,68.250002603531
223,96,8014,2,0,L|223:192,1,68.250002603531
177,242,8338,5,0,0:0:0:0:
120,125,8500,1,0,0:0:0:0:
48,233,8663,2,0,P|24:192|28:146,1,68.250002603531
94,64,8987,2,0,P|118:105|114:151,1,68.250002603531
157,207,9311,1,0,0:0:0:0:
250,81,9473,1,0,0:0:0:0:
312,223,9636,5,0,0:0:0:0:
157,207,9798,1,0,0:0:0:0:
250,81,9960,2,0,P|312:100|338:88,1,68.250002603531
384,27,10284,2,0,P|409:68|415:114,1,68.250002603531
475,195,10609,1,0,0:0:0:0:
333,196,10771,1,0,0:0:0:0:
404,318,10933,6,0,P|448:336|485:333,1,68.250002603531
475,195,11257,2,0,P|423:220|360:215,1,102.375003905296
334,126,11582,2,0,P|301:152|282:201,1,68.250002603531
332,283,11906,2,0,B|286:308|277:250|210:287,1,102.375003905296
140,323,12230,6,0,P|129:267|182:188,1,136.500005207062
245,157,12717,1,0,0:0:0:0:
291,68,12879,2,0,P|247:58|199:69,1,68.250002603531
137,30,13203,2,0,L|132:110,1,68.250002603531
133,133,13446,1,0,0:0:0:0:
133,133,13527,5,0,0:0:0:0:
245,157,13690,1,0,0:0:0:0:
133,133,13852,2,0,P|101:167|81:226,1,102.375003905296
0,280,14176,2,0,P|40:313|86:320,1,68.250002603531
136,256,14500,2,0,P|96:223|50:216,1,68.250002603531
15,155,14825,5,0,0:0:0:0:
111,92,14987,2,0,P|138:135|176:151,1,68.250002603531
197,61,15311,1,0,0:0:0:0:
293,124,15473,2,0,P|320:81|358:65,1,68.250002603531
417,36,15798,2,0,P|430:73|473:109,1,68.250002603531
497,193,16122,6,0,P|457:224|395:223,1,91
360,127,16446,2,0,P|315:134|281:162,1,91
358,223,16771,2,0,L|402:313,1,91
487,192,17095,2,0,P|426:220|323:213,1,136.5
315,318,17419,6,0,P|262:263|277:158,1,182
357,222,17906,1,0,0:0:0:0:
357,222,18068,2,0,L|252:244,1,91
243,356,18392,1,0,0:0:0:0:
180,253,18554,5,0,0:0:0:0:
37,320,18717,2,0,P|72:292|90:251,1,91
7,226,19041,2,0,P|64:234|105:267,1,91
201,281,19365,2,0,P|203:224|177:179,1,91
99,142,19690,1,0,0:0:0:0:
99,142,19852,1,0,0:0:0:0:
193,107,20014,6,0,P|202:161|168:215,1,91
92,232,20338,2,0,P|140:285|236:285,1,136.5
295,341,20663,2,0,L|295:250,1,91
296,160,20987,1,0,0:0:0:0:
452,251,21149,1,0,0:0:0:0:
453,71,21311,6,0,P|404:96|345:88,1,91
285,36,21636,2,0,P|216:13|121:34,1,136.5
67,61,21960,2,0,P|97:96|146:115,1,91
235,117,22284,2,0,B|187:185|287:185|219:269,1,136.5
149,301,22609,6,0,P|197:341|314:312,1,182
363,249,23095,1,0,0:0:0:0:
363,249,23257,2,0,P|384:296|427:319,1,91
511,359,23582,1,0,0:0:0:0:
511,359,23744,1,0,0:0:0:0:
492,264,23906,6,0,P|477:213|506:156,1,91
438,102,24230,2,0,P|416:148|370:175,1,91
309,121,24554,1,0,0:0:0:0:
372,30,24717,1,0,0:0:0:0:
438,99,24879,2,0,P|488:132|494:177,1,91
489,248,25203,6,0,B|422:217|384:278,1,91
253,336,25527,1,0,0:0:0:0:
344,181,25689,1,0,0:0:0:0:
433,338,25852,1,0,0:0:0:0:
69,171,26176,6,0,P|56:228|56:238,1,54.6
6,305,26500,6,0,P|81:314|150:207,1,204.750007810593
152,128,27149,2,0,L|264:128,1,91
244,218,27473,1,0,0:0:0:0:
244,218,27636,1,0,0:0:0:0:
317,150,27798,2,0,P|340:203|327:273,1,91
447,364,28446,6,0,P|489:359|515:332,1,68.250002603531
446,262,28771,2,0,P|403:266|377:293,1,68.250002603531
367,371,29095,2,0,P|312:360|226:375,1,136.5
138,370,29419,2,0,P|153:322|186:287,1,68.250002603531
265,290,29744,2,0,P|241:240|106:219,1,204.750007810593
44,291,30392,6,0,P|12:220|37:153,1,136.5
44,136,30960,1,0,0:0:0:0:
44,136,31041,1,0,0:0:0:0:
149,92,31203,2,0,L|145:64,4,22.75
198,168,31527,1,0,0:0:0:0:
252,69,31690,6,0,P|300:92|338:84,1,91
415,42,32014,2,0,P|424:102|410:137,1,91
362,205,32338,2,0,P|353:265|367:300,1,91
425,357,32663,2,0,P|480:356|501:326,1,91
441,245,32987,6,0,P|399:215|333:204,1,91
271,183,33311,2,0,L|271:274,1,91
271,363,33636,2,0,P|207:361|174:365,1,68.250002603531
173,263,33960,2,0,P|117:304|102:358,1,102.375003905296
14,358,34284,6,0,P|11:317|25:283,1,68.250002603531
101,229,34609,2,0,P|104:188|90:154,1,68.250002603531
1,208,34933,2,0,B|61:117|-28:100|39:6,1,204.750007810593
118,43,35582,5,0,0:0:0:0:
215,21,35744,2,0,L|212:67,3,45.5
210,102,36068,1,0,0:0:0:0:
304,22,36230,1,0,0:0:0:0:
326,143,36392,2,0,L|348:138,4,22.75
304,22,36717,1,0,0:0:0:0:
419,63,36879,6,0,P|453:24|493:15,1,91
512,15,37122,2,0,L|510:110,1,91
510,134,37365,1,0,0:0:0:0:
408,182,37527,1,0,0:0:0:0:
419,63,37690,1,0,0:0:0:0:
419,63,37771,1,0,0:0:0:0:
419,63,37852,1,0,0:0:0:0:
311,113,38014,1,0,0:0:0:0:
300,242,38176,6,0,B|187:251|231:156|91:167,1,227.5
14,66,38663,1,0,0:0:0:0:
155,32,38825,2,0,B|129:144|227:108|193:252,1,227.5
95,166,39311,1,0,0:0:0:0:
108,285,39473,6,0,P|170:337|288:253,1,227.5
194,246,39960,1,0,0:0:0:0:
77,369,40122,2,0,P|32:324|92:186,1,227.5
7,101,40609,1,0,0:0:0:0:
82,187,40771,6,0,B|208:166|151:284|316:246,1,227.5
259,150,41257,1,0,0:0:0:0:
183,221,41419,2,0,P|182:300|326:348,1,227.5
288,251,41906,1,0,0:0:0:0:
398,325,42068,5,0,0:0:0:0:
408,193,42230,1,0,0:0:0:0:
418,61,42392,2,0,P|465:45|521:82,1,113.75
408,193,42717,1,0,0:0:0:0:
298,118,42879,1,0,0:0:0:0:
188,43,43041,2,0,P|120:48|68:19,1,113.75
51,127,43365,6,0,P|104:143|20:157,1,227.5
11,37,43852,1,0,0:0:0:0:
11,37,44014,2,0,P|72:17|26:116,1,227.5
63,222,44500,1,0,0:0:0:0:
177,119,44663,6,0,B|251:234|123:206|192:342,1,227.5
276,272,45149,1,0,0:0:0:0:
219,189,45311,2,0,B|336:133|330:251|432:178,1,227.5
510,246,45798,1,0,0:0:0:0:
398,347,45960,6,0,P|305:289|331:184,1,227.5
432,178,46446,1,0,0:0:0:0:
341,85,46609,2,0,B|256:153|221:56|119:111,1,227.5
95,216,47095,1,0,0:0:0:0:
234,102,47257,5,0,0:0:0:0:
206,345,47419,1,0,0:0:0:0:
421,192,47906,5,0,0:0:0:0:
178,163,48068,1,0,0:0:0:0:
306,46,48230,5,0,0:0:0:0:
352,78,48311,1,0,0:0:0:0:
407,90,48392,1,0,0:0:0:0:
462,80,48473,1,0,0:0:0:0:
510,49,48554,6,0,B|457:155|565:157|507:298,1,227.5
407,172,49041,1,0,0:0:0:0:
338,351,49203,2,0,P|317:244|215:205,1,227.5
231,320,49690,1,0,0:0:0:0:
317,244,49852,6,0,P|424:223|463:121,1,227.5
352,136,50338,1,0,0:0:0:0:
215,204,50500,2,0,P|236:311|338:350,1,227.5
322,237,50987,1,0,0:0:0:0:
215,204,51149,6,0,B|111:255|109:147|-7:211,1,227.5
60,289,51636,1,0,0:0:0:0:
160,218,51798,2,0,P|139:111|37:72,1,227.5
53,185,52284,1,0,0:0:0:0:
139,111,52446,5,0,0:0:0:0:
37,71,52609,1,0,0:0:0:0:
241,151,52771,2,0,P|252:84|216:46,1,113.75
139,111,53095,2,0,L|139:235,1,113.75
241,151,53419,1,0,0:0:0:0:
278,192,53500,1,0,0:0:0:0:
332,209,53581,1,0,0:0:0:0:
387,197,53662,1,0,0:0:0:0:
424,190,53744,6,0,P|452:258|432:340,1,113.75
263,356,54068,2,0,P|234:287|254:205,1,113.75
451,251,54392,6,0,P|382:279|301:259,1,113.75
284,90,54716,2,0,P|352:61|434:81,1,113.75
185,228,55041,6,0,P|156:159|176:77,1,113.75
346,61,55365,2,0,P|374:129|354:211,1,113.75
156,166,55690,6,0,P|217:137|283:145,1,113.75
322,326,56014,2,0,P|259:353|193:345,1,113.75
217,137,56338,6,0,P|244:198|236:264,1,113.75
56,302,56662,2,0,P|27:239|35:173,1,113.75
245,198,56987,6,0,P|182:225|116:217,1,113.75
79,37,57311,2,0,P|140:8|206:16,1,113.75
182,226,57636,6,0,P|153:163|161:97,1,113.75
343,60,57960,2,0,P|370:121|362:187,1,113.75
153,163,58284,6,0,P|214:134|280:142,1,113.75
319,324,58608,2,0,P|256:351|190:343,1,113.75
203,137,58933,5,0,0:0:0:0:
424,259,59095,1,0,0:0:0:0:
203,137,59257,5,0,0:0:0:0:
455,132,59419,1,0,0:0:0:0:
170,120,59582,5,0,0:0:0:0:
424,259,59744,1,0,0:0:0:0:
178,138,59906,5,0,0:0:0:0:
455,132,60068,1,0,0:0:0:0:
327,349,60230,5,0,0:0:0:0:
282,49,60392,1,0,0:0:0:0:
512,221,60554,5,0,0:0:0:0:
212,266,60716,1,0,0:0:0:0:
398,43,60879,5,0,0:0:0:0:
443,343,61041,1,0,0:0:0:0:
194,151,61203,5,0,0:0:0:0:
494,106,61365,1,0,0:0:0:0:
294,334,61527,5,0,0:0:0:0:
389,6,61689,1,0,0:0:0:0:
202,288,61851,5,0,0:0:0:0:
472,70,62014,1,0,0:0:0:0:
179,191,62176,5,0,0:0:0:0:
493,170,62338,1,0,0:0:0:0:
205,96,62500,5,0,0:0:0:0:
469,266,62662,1,0,0:0:0:0:
389,6,62824,5,0,0:0:0:0:
294,334,62987,1,0,0:0:0:0:
472,70,63473,5,0,0:0:0:0:
179,191,63636,1,0,0:0:0:0:
391,323,63960,5,0,0:0:0:0:
396,193,64122,6,0,P|342:229|276:232,1,109.199996667481
288,146,64609,1,0,0:0:0:0:
396,193,64771,2,0,P|432:247|435:313,1,109.199996667481
358,330,65257,1,0,0:0:0:0:
352,224,65419,6,0,B|311:243|283:194|230:233,1,109.199996667481
237,313,65906,1,0,0:0:0:0:
158,242,66068,2,0,P|155:293|113:350,1,109.199996667481
62,264,66554,1,0,0:0:0:0:
153,295,66717,6,0,P|194:332|244:302,1,109.199996667481
245,223,67203,1,0,0:0:0:0:
153,295,67365,2,0,P|111:257|61:287,1,109.199996667481
5,196,67852,1,0,0:0:0:0:
103,157,68014,6,0,B|140:127|168:176|209:157,1,109.199996667481
295,140,68500,1,0,0:0:0:0:
257,233,68663,2,0,P|295:240|365:209,1,109.199996667481
401,135,69149,1,0,0:0:0:0:
472,202,69311,6,0,P|488:239|461:319,1,109.199996667481
411,370,69798,1,0,0:0:0:0:
367,282,69960,2,0,P|335:332|282:348,1,109.199996667481
277,252,70446,1,0,0:0:0:0:
211,324,70609,6,0,P|175:350|101:356,1,109.199996667481
24,372,71095,1,0,0:0:0:0:
43,291,71257,2,0,P|53:259|0:202,1,109.199996667481
98,142,71744,1,0,0:0:0:0:
195,162,71906,6,0,P|185:194|238:251,1,109.199996667481
312,189,72392,1,0,0:0:0:0:
269,99,72554,2,0,B|214:32|175:98|116:25,1,163.799995001221
49,83,73203,5,0,0:0:0:0:
159,339,73365,1,0,0:0:0:0:
269,99,73852,5,0,0:0:0:0:
31,293,74014,1,0,0:0:0:0:
348,290,74338,5,0,0:0:0:0:
438,212,74501,6,0,P|364:141|397:20,1,227.5
471,104,74987,1,0,0:0:0:0:
438,212,75149,2,0,P|367:286|246:253,1,227.5
332,178,75636,1,0,0:0:0:0:
360,288,75798,6,0,B|246:359|263:239|141:314,1,227.5
176,187,76284,1,0,0:0:0:0:
54,224,76446,2,0,P|28:288|155:289,1,227.5
176,187,76933,1,0,0:0:0:0:
266,279,77095,6,0,B|370:221|384:311|490:243,1,227.5
411,141,77582,1,0,0:0:0:0:
333,223,77744,2,0,P|259:175|292:45,1,227.5
344,126,78230,1,0,0:0:0:0:
250,154,78392,5,0,0:0:0:0:
281,52,78554,1,0,0:0:0:0:
383,82,78717,2,0,P|437:77|459:18,1,113.75
512,134,79041,2,0,B|424:213|548:252|442:343,1,227.5
417,342,79446,1,0,0:0:0:0:
364,320,79527,1,0,0:0:0:0:
308,323,79608,1,0,0:0:0:0:
263,346,79690,6,0,P|223:283|244:204,1,113.75
385,102,80014,2,0,P|424:164|403:243,1,113.75
224,245,80338,6,0,P|184:182|205:103,1,113.75
347,0,80662,2,0,P|385:62|364:141,1,113.75
185,144,80987,6,0,P|247:104|326:125,1,113.75
429,267,81311,2,0,P|366:305|287:284,1,113.75
83,180,81636,6,0,P|145:140|224:161,1,113.75
327,303,81960,2,0,P|264:341|185:320,1,113.75
182,137,82284,6,0,P|221:199|200:278,1,113.75
58,381,82608,2,0,P|18:318|39:239,1,113.75
249,131,82933,6,0,P|251:204|194:262,1,113.75
19,280,83257,2,0,P|16:206|73:148,1,113.75
265,24,83582,6,0,P|272:79|248:130,1,113.75
34,173,83906,2,0,P|26:117|50:66,1,113.75
248,130,84230,6,0,P|192:122|141:146,1,113.75
99,361,84554,2,0,P|154:368|205:344,1,113.75
400,86,84879,5,0,0:0:0:0:
200,372,85041,1,0,0:0:0:0:
192,21,85203,5,0,0:0:0:0:
403,300,85365,1,0,0:0:0:0:
70,199,85527,5,0,0:0:0:0:
400,86,85690,1,0,0:0:0:0:
118,316,85852,5,0,0:0:0:0:
298,18,86014,1,0,0:0:0:0:
356,257,86176,5,0,0:0:0:0:
58,76,86339,1,0,0:0:0:0:
372,110,86500,5,0,0:0:0:0:
41,222,86662,1,0,0:0:0:0:
259,18,86825,5,0,0:0:0:0:
133,344,86988,1,0,0:0:0:0:
401,224,87149,5,0,0:0:0:0:
37,197,87311,1,0,0:0:0:0:
230,199,87473,6,0,P|174:125|190:25,2,182
298,90,88446,2,0,P|350:145|392:143,1,91
414,57,88771,2,0,P|455:104|436:218,1,182
